osu file format v5

[General]
AudioFilename: Hitman Reborn!.mp3
AudioLeadIn: 0
PreviewTime: 51020
Countdown: 1
SampleSet: Soft
StackLeniency: 0.7
Mode: 0
LetterboxInBreaks: 0
EditorBookmarks: 8896,65473,66268
EditorDistanceSpacing: 0.899999976158142

[Metadata]
Title:Last Cross (TV size)
Artist:Masami Mitsuoka
Creator:JInxyjem
Version:vs. Genkishi
Source:Katekyo Hitman Reborn!
Tags:Katekyo Hitman Reborn! Reborn Tsuna 27 Vongola Rings Mare Last Cross

[Difficulty]
HPDrainRate:5
CircleSize:4
OverallDifficulty:5
SliderMultiplier:1.4
SliderTickRate:2

[Events]
//Background and Video events
0,0,"Tsuna Sawada.jpg"
1,0,"out30l25.avi"
//Break Periods
2,43412,45299
//Storyboard Layer 0 (Background)
//Storyboard Layer 1 (Failing)
//Storyboard Layer 2 (Passing)
//Storyboard Layer 3 (Foreground)
//Storyboard Sound Samples
//Background Colour Transformations
3,100,163,162,255

[TimingPoints]
291,410.958904109589,4,2,0,100,1,0
51635,-100,4,2,0,100,0,1
57390,-100,4,2,0,100,0,0
64791,-100,4,2,0,100,0,1
70545,-100,4,2,0,100,0,0

[Colours]
Combo1 : 128,0,255
Combo2 : 255,128,0
Combo3 : 255,0,0
Combo4 : 0,0,255
Combo5 : 255,255,0

[HitObjects]
224,176,8715,1,2
288,176,8921,1,2
152,192,9743,6,0,B|184:304|328:304|360:176,2,280
152,128,11592,1,0
288,72,12003,5,8
256,128,12208,1,8
256,256,12619,1,8
288,304,12825,1,8
160,296,13236,1,2
80,192,13647,1,2
160,96,14058,1,4
392,64,15291,5,0
440,104,15496,1,8
392,144,15701,1,0
440,184,15907,1,0
392,224,16112,1,0
328,216,16318,2,2,B|328:72,1,140,8|0
264,80,16934,2,0,B|280:168|192:216,3,140,0|0|0|0
120,280,18578,5,8
184,272,18784,1,8
264,176,19195,1,8
328,168,19400,1,8
432,104,19811,1,4
432,232,20222,2,2,B|336:264,5,70,2|2|2|2|2|4
176,280,21866,5,8
216,232,22071,1,8
400,176,22688,1,2
432,120,22893,1,2
248,176,23510,1,8
280,120,23715,1,8
96,176,24332,1,2
128,120,24537,1,2
304,48,25359,6,2,B|304:288|464:288|464:32,2,420
112,48,28441,5,8
112,112,28647,1,8
296,112,29263,1,8
296,176,29469,1,8
40,176,30291,6,0,B|40:336|232:176|232:336,2,280
144,112,32345,1,2
200,128,32551,1,2
328,128,32962,1,2
456,128,33373,1,4
256,288,35017,6,0,B|320:224,3,70,8|0|8|0
240,224,35838,2,0,B|176:152,3,70,8|0|8|0
256,160,36660,2,0,B|320:96,3,70,8|0|8|0
256,72,37482,2,2,B|80:72,1,140,2|4
256,72,38304,6,0,B|192:136,3,70,8|0|8|0
272,128,39126,2,0,B|336:192,3,70,8|0|8|0
256,192,39948,2,0,B|192:256,3,70,8|0|8|0
256,280,40770,2,2,B|400:280,1,140,2|4
432,160,41592,5,8
392,112,41797,1,8
272,160,42208,1,8
232,112,42414,1,8
104,112,42825,1,0
104,240,43236,1,4
464,208,46523,5,0
424,160,46729,1,2
384,208,46934,1,8
344,160,47140,1,2
304,208,47345,1,0
176,208,47756,1,4
128,88,48167,5,0
192,88,48373,2,0,B|192:160,2,70,0|8|0
192,88,48989,1,0
256,88,49195,1,0
320,88,49400,2,0,B|208:168|296:272|424:192,1,280,8|4
120,128,51249,5,0
128,192,51455,1,0
136,256,51660,1,4
264,256,52071,1,8
256,192,52277,1,8
240,64,52688,1,2
368,64,53099,1,2
416,208,54537,5,0
360,240,54743,1,0
304,272,54948,1,4
280,144,55359,1,8
224,176,55564,1,8
96,176,55975,1,0
160,64,56386,1,0
224,176,56797,1,8
280,144,57003,1,8
456,328,57825,5,8
408,288,58030,1,0
360,248,58236,1,8
440,152,58647,1,8
392,112,58852,1,0
200,104,59469,6,0,B|104:168|104:248|152:312|200:328,2,280,8|8|8
256,128,61318,1,2
312,144,61523,1,8
464,80,62140,5,2
448,144,62345,1,2
432,208,62551,1,2
416,272,62756,1,0
400,336,62962,2,0,B|400:256|400:176|288:176|256:272|224:352|96:352|96:256|96:160|96:160,1,490,0|4
176,64,64811,5,0
304,64,65222,1,8
304,128,65427,1,8
432,128,65838,1,0
432,256,66249,1,0
96,288,67688,5,2
112,224,67893,1,2
128,160,68099,1,2
240,224,68510,1,8
256,160,68715,1,8
384,160,69126,1,0
352,288,69537,1,0
224,288,69948,1,8
240,224,70154,1,8
432,64,70975,5,0
368,80,71181,1,2
304,96,71386,1,0
80,64,72619,5,0
136,80,72825,1,2
200,96,73030,1,0
256,208,73441,1,0
256,272,73647,1,2
256,144,74058,1,4
128,216,74469,6,0,B|256:312|256:136|400:232,1,280
392,96,75701,1,2
264,96,76112,1,4
192,200,77551,6,0,B|232:152|288:248|320:200,3,140,0|0|0|4
200,48,79400,5,8
200,112,79606,1,8
312,48,80017,1,8
312,112,80222,1,8
256,224,80633,1,4
256,192,81044,12,4,84537
