osu file format v5

[General]
AudioFilename: Hitman Reborn!.mp3
AudioLeadIn: 0
PreviewTime: 50814
Countdown: 0
SampleSet: Soft
StackLeniency: 0.7
Mode: 0
LetterboxInBreaks: 0
EditorBookmarks: 8896,65473,66268
EditorDistanceSpacing: 1

[Metadata]
Title:Last Cross (TV size)
Artist:Masami Mitsuoka
Creator:JInxyjem
Version:vs. Byakuran
Source:Katekyo Hitman Reborn!
Tags:Katekyo Hitman Reborn! Reborn Tsuna 27 Vongola Rings Mare Last Cross

[Difficulty]
HPDrainRate:7
CircleSize:5
OverallDifficulty:8
SliderMultiplier:1.4
SliderTickRate:2

[Events]
//Background and Video events
0,0,"Tsuna Sawada.jpg"
1,0,"out30l25.avi"
//Break Periods
2,43412,45749
2,49576,50475
//Storyboard Layer 0 (Background)
//Storyboard Layer 1 (Failing)
//Storyboard Layer 2 (Passing)
//Storyboard Layer 3 (Foreground)
//Storyboard Sound Samples
//Background Colour Transformations
3,100,163,162,255

[TimingPoints]
291,410.958904109589,4,2,0,100,1,0
51635,-100,4,2,0,100,0,1
57390,-100,4,2,0,100,0,0
64791,-100,4,2,0,100,0,1
70545,-100,4,2,0,100,0,0

[Colours]
Combo1 : 128,0,255
Combo2 : 255,128,0
Combo3 : 255,0,0
Combo4 : 0,0,255
Combo5 : 255,255,0

[HitObjects]
224,192,8715,1,2
288,192,8921,1,2
192,96,9743,6,8,B|160:160,3,70,8|0|8|0
160,224,10564,2,8,B|192:288,3,70,8|0|8|0
224,224,11386,1,2
224,160,11592,1,2
352,160,12003,5,8
352,224,12208,1,8
224,288,12619,1,8
224,224,12825,1,8
112,136,13236,1,2
224,56,13647,1,2
336,136,14058,1,4
328,296,15496,6,0,B|384:272|384:184|312:176,3,140
256,256,16934,5,0
192,224,17140,1,0
256,192,17345,1,0
192,160,17551,1,0
256,128,17756,1,0
192,96,17962,1,0
256,64,18167,1,4
384,64,18578,5,8
352,128,18784,1,8
352,256,19195,1,8
384,320,19400,1,8
384,192,19811,1,4
240,192,20222,6,2,B|168:192,1,70
136,128,20633,2,2,B|232:128,1,70
168,64,21044,2,0,B|72:64,1,70,2|4
64,272,21866,5,8
128,272,22071,1,8
328,208,22688,1,2
392,208,22893,1,2
208,104,23510,1,8
272,104,23715,1,8
96,216,24332,1,2
160,216,24537,1,2
192,24,25154,5,2
128,64,25359,1,0
160,128,25564,1,0
224,128,25770,1,0
256,64,25975,1,2
312,24,26181,1,0
368,64,26386,1,0
352,128,26592,1,0
288,128,26797,1,2
256,192,27003,1,0
256,264,27208,2,0,B|192:328|128:264,1,140,8|4
128,96,28441,5,8
128,160,28647,1,2
336,160,29263,1,8
336,224,29469,1,2
248,288,30291,6,0,B|104:288|264:80|104:80,2,280,0|0|4
360,200,32345,1,8
320,160,32551,1,8
176,160,32962,1,2
32,160,33373,1,4
257,64,35017,6,0,B|193:128,3,70,8|0|8|0
272,128,35838,2,0,B|336:192,3,70,8|0|8|0
256,192,36660,2,0,B|192:256,3,70,8|0|8|0
256,288,37482,1,2
320,288,37688,1,2
384,288,37893,1,4
256,288,38304,6,0,B|320:224,3,70,8|0|8|0
240,224,39126,2,0,B|176:160,3,70,8|0|8|0
256,160,39948,2,0,B|320:96,3,70,8|0|8|0
256,48,40770,1,2
192,48,40975,1,2
128,48,41181,1,4
128,192,41592,5,8
192,192,41797,1,8
192,336,42208,1,8
256,336,42414,1,8
400,336,42825,1,2
400,192,43236,1,4
176,112,46523,5,0
224,160,46729,1,0
224,224,46934,1,0
288,224,47140,1,0
288,160,47345,1,0
416,192,47756,1,8
448,64,48167,5,2
384,96,48373,1,2
320,64,48578,1,2
256,96,48784,1,2
192,64,48989,1,2
128,96,49195,1,2
64,64,49400,1,4
192,96,51249,5,0
256,80,51455,1,0
320,96,51660,1,4
288,224,52071,1,8
224,224,52277,1,8
80,224,52688,2,0,B|64:160|144:160|128:80,3,140
96,160,54537,5,0
160,128,54743,1,0
224,96,54948,1,4
352,96,55359,1,8
352,160,55564,1,8
480,160,55975,1,0
352,256,56386,1,0
224,160,56797,1,8
160,160,57003,1,8
416,64,57825,5,2
384,128,58030,1,2
352,192,58236,1,4
256,96,58647,1,0
224,160,58852,1,0
64,32,59469,5,0
96,96,59674,2,0,B|96:167,2,70
128,32,60290,1,0
160,96,60496,2,0,B|160:176,2,70
304,96,61318,1,8
368,96,61523,1,8
432,288,62140,5,0
360,288,62345,1,0
288,288,62551,1,8
216,288,62756,1,0
144,288,62962,1,0
72,288,63167,2,0,B|112:256|0:192|80:144,3,140,8|0|8|4
80,64,64811,5,0
80,208,65222,1,8
144,208,65427,1,8
144,64,65838,1,0
144,208,66249,1,4
416,112,67688,5,2
416,176,67893,1,2
416,240,68099,1,4
272,272,68510,1,8
272,208,68715,1,8
272,64,69126,1,2
152,136,69537,1,2
272,208,69948,1,8
272,272,70154,1,8
80,80,70975,5,0
128,128,71181,1,8
176,176,71386,1,0
288,80,72619,5,0
336,128,72825,1,8
384,176,73030,1,0
256,240,73441,1,0
256,176,73647,1,8
256,32,74058,1,4
256,176,74469,5,2
192,144,74674,1,0
256,112,74880,1,2
320,144,75085,1,0
384,144,75290,1,2
448,272,75701,1,4
304,272,76112,1,4
256,48,77551,5,2
192,80,77756,1,0
256,112,77962,1,2
320,144,78167,1,0
256,176,78373,1,2
192,208,78578,1,0
256,240,78784,1,6
464,240,79400,5,8
464,176,79606,1,8
336,112,80017,1,8
336,176,80222,1,8
192,208,80633,1,4
256,192,81044,12,4,84537
