osu file format v5

[General]
AudioFilename: 1-09 - Tower of the Flickering Prayer.mp3
AudioLeadIn: 0
PreviewTime: -1
Countdown: 1
SampleSet: Soft
StackLeniency: 0.7
Mode: 0
LetterboxInBreaks: 1
EditorDistanceSpacing: 0.800000011920929

[Metadata]
Title:Tower of the Flickering Prayer
Artist:Masaharu Iwata
Creator:sesito71
Version:Hard
Source:
Tags:

[Difficulty]
HPDrainRate:6
CircleSize:5
OverallDifficulty:6
SliderMultiplier:1.3
SliderTickRate:1

[Events]
//Background and Video events
0,0,"wallpaper_09.jpg"
//Break Periods
2,29871,35210
2,67649,82371
//Storyboard Layer 0 (Background)
//Storyboard Layer 1 (Failing)
//Storyboard Layer 2 (Passing)
//Storyboard Layer 3 (Foreground)
//Storyboard Sound Samples
//Background Colour Transformations
3,100,163,162,255

[TimingPoints]
10088,416.666666666667,4,2,0,100,1,0

[HitObjects]
32,192,3421,1,0
256,192,4254,1,0
480,192,5087,1,0
256,192,5921,1,0
256,96,6442,1,0
256,96,6615,1,0
256,96,6754,1,0
256,192,7483,12,0,9254
32,192,10018,5,0
96,128,10365,1,0
128,160,10504,1,0
192,96,10921,1,0
256,160,11199,1,0
288,192,11337,1,0
128,224,11754,5,0
128,224,11893,1,0
128,224,12032,1,0
128,224,12171,1,0
448,192,12587,1,0
448,192,12726,1,0
448,192,12865,1,0
448,192,13004,1,0
256,192,13421,5,0
256,32,13838,1,0
128,256,14254,1,0
352,256,15088,1,0
352,160,15504,1,0
352,64,15921,1,0
160,256,16338,6,0,B|416:256,1,238.333333333333
224,192,17588,2,0,B|160:64,1,130
320,64,18282,2,0,B|384:160,1,108.333333333333
160,192,19254,5,0
288,128,19601,1,0
256,224,19949,1,0
256,224,20088,1,0
256,224,20226,1,0
256,224,20365,1,0
256,224,20504,1,0
448,192,20921,1,0
448,192,21060,1,0
448,192,21199,1,0
448,192,21338,1,0
320,160,21754,5,0
320,160,21893,1,0
320,160,22032,1,0
320,160,22171,1,0
320,256,22449,1,0
320,256,22588,1,0
224,256,22865,1,0
224,256,23004,1,0
32,192,23421,6,0,B|256:192,1,216.666666666667
288,192,24254,2,0,B|512:192,1,216.666666666667
384,64,25088,2,0,B|352:288,1,216.666666666667
384,64,25921,2,0,B|160:96,1,216.666666666667
288,96,26754,2,0,B|352:288,1,195
349,280,27518,2,0,B|128:288,1,216.666666666667
64,288,28421,1,0
64,288,28560,5,0
64,288,28699,1,0
64,288,28838,1,0
64,288,29254,1,0
64,288,29393,1,0
64,288,29532,1,0
64,288,29671,1,0
32,192,36754,5,0
64,0,37171,1,0
128,192,37588,1,0
160,0,38004,1,0
224,192,38421,1,0
256,0,38838,1,0
320,192,39254,1,0
320,352,39671,5,0
288,160,40088,1,0
224,352,40504,1,0
192,160,40921,1,0
128,352,41338,1,0
96,160,41754,1,0
32,352,42171,1,0
32,352,42310,1,0
32,352,42449,1,0
32,352,42588,1,0
96,288,43421,6,0,B|192:192,4,130
96,320,45504,6,0,B|128:320,6,21.6666666666667
32,352,46754,5,0
256,0,47588,1,0
512,352,48421,1,0
256,192,49254,1,0
128,192,50088,6,0,B|384:192,1,238.333333333333
192,160,51615,5,0
192,160,51754,1,0
384,128,52032,1,0
384,128,52171,1,0
352,256,52449,1,0
352,256,52588,1,0
256,32,52865,1,0
256,32,53004,1,0
256,288,53421,5,0
288,288,54046,5,0
288,256,54185,1,0
288,224,54324,1,0
256,192,54463,1,0
224,192,54601,1,0
192,224,54740,1,0
192,256,54879,1,0
192,288,55018,1,0
256,320,55504,6,0,B|224:288,3,43.3333333333333
32,96,56754,6,0,B|224:96,1,173.333333333333
256,96,57588,2,0,B|448:96,1,173.333333333333
288,224,58421,2,0,B|96:224,1,173.333333333333
160,128,59254,2,0,B|160:320,1,173.333333333333
32,192,60088,5,0
256,192,60504,1,0
480,192,60921,1,0
256,192,61338,1,0
32,192,61754,1,0
256,352,62171,1,0
256,192,62588,1,0
256,32,63004,1,0
224,192,63421,6,0,B|288:192,6,43.3333333333333
256,192,64671,12,0,65921
256,192,66338,5,0
256,192,66477,1,0
256,192,66616,1,0
256,192,66755,1,0
256,192,66894,1,0
256,192,67032,1,0
256,192,67171,1,0
256,192,67310,1,0
256,192,67449,1,0
32,192,83421,5,0
192,192,83838,1,0
320,192,84254,1,0
480,32,84671,1,0
480,352,85088,1,0
256,192,85504,5,0
256,192,85643,1,0
256,192,85782,1,0
256,192,85921,1,0
96,192,86615,5,0
96,192,86754,1,0
256,128,87032,1,0
256,128,87171,1,0
256,256,87449,1,0
256,256,87588,1,0
416,192,87865,1,0
416,192,88004,1,0
256,192,88421,1,0
256,192,88560,1,0
256,192,88699,1,0
256,192,88838,1,0
256,192,88976,1,0
256,192,89115,1,0
256,192,89254,1,0
256,192,89393,1,0
256,192,89532,1,0
256,192,89671,1,0
256,192,89810,1,0
256,192,89949,1,0
256,192,90088,2,0,B|416:192,1,151.666666666667
256,256,90921,5,0
256,128,91338,1,0
192,192,91754,1,0
320,192,92171,1,0
256,192,92588,12,0,93907
32,352,94601,6,0,B|160:320|160:224|192:256|256:256|288:160|224:128|160:128|288:64|288:96,1,390
128,224,96338,5,0
32,32,96754,1,0
32,64,96893,1,0
32,96,97032,1,0
96,224,97588,1,0
96,192,97726,1,0
96,160,97865,1,0
320,32,98421,5,0
320,64,98560,1,0
320,96,98699,1,0
416,224,99254,1,0
416,192,99393,1,0
416,160,99532,1,0
192,160,100018,6,0,B|320:96|256:128|256:192|352:256|416:192|352:96|416:64|448:128|448:224|416:288|384:320|416:256,2,411.666666666667
160,224,103213,5,0
160,224,103351,1,0
160,224,103490,1,0
256,192,103838,12,0,105921
128,192,106338,6,0,B|192:64|224:96,1,130
224,96,107171,2,0,B|320:192,1,130
320,192,107865,2,0,B|192:192|224:320,1,173.333333333333
256,320,108699,2,0,B|448:320,1,173.333333333333
64,64,109671,5,0
96,96,109810,1,0
128,64,109949,1,0
160,96,110088,1,0
192,64,110226,1,0
224,96,110365,1,0
256,64,110504,1,0
64,192,110921,5,0
96,224,111060,1,0
128,192,111199,1,0
160,224,111338,1,0
416,256,111754,1,0
384,224,111893,1,0
416,192,112032,1,0
384,160,112171,1,0
256,256,112518,1,0
288,224,112657,1,0
256,192,112796,1,0
288,160,112935,1,0
256,128,113074,1,0
192,256,113490,5,0
256,192,113907,12,0,115088
160,192,115504,6,0,B|224:192,3,43.3333333333333
224,320,116754,5,0
224,288,116893,1,0
224,256,117032,1,0
224,224,117171,1,0
288,320,117588,1,0
288,288,117726,1,0
288,256,117865,1,0
288,224,118004,1,0
288,64,118421,5,0
288,96,118560,1,0
288,128,118699,1,0
288,160,118838,1,0
224,64,119254,1,0
224,96,119393,1,0
224,128,119532,1,0
224,160,119671,1,0
32,192,120157,5,0
128,96,120504,1,0
160,224,120921,1,0
256,128,121338,1,0
256,128,121754,1,0
128,192,122588,5,0
128,192,122726,1,0
128,192,122865,1,0
128,192,123004,1,0
128,192,123143,1,0
128,192,123282,1,0
128,192,123421,1,0
128,192,123560,1,0
128,192,123699,1,0
128,192,123838,1,0
128,192,123976,1,0
128,192,124115,1,0
128,192,124254,1,0
128,192,124393,1,0
128,192,124532,1,0
128,192,124671,1,0
224,192,125088,6,0,B|288:192,6,43.3333333333333
352,192,126338,5,0
352,192,126476,1,0
352,192,126615,1,0
352,192,126754,1,0
352,192,126893,1,0
352,192,127032,1,0
352,192,127171,1,0
352,192,127310,1,0
352,192,127449,1,0
352,192,127588,1,0
192,224,128004,5,0
192,224,128143,1,0
192,224,128282,1,0
192,224,128421,1,0
256,96,128838,1,0
256,96,128976,1,0
256,96,129115,1,0
256,96,129254,1,0
64,320,129671,5,0
32,32,130088,5,0
480,32,130921,1,0
480,352,131754,1,0
256,160,132171,1,0
256,160,132310,1,0
256,160,132449,1,0
256,160,132588,1,0
32,352,133421,5,0
480,32,133838,1,0
256,192,134254,1,0
224,160,134810,5,0
224,160,134949,1,0
224,160,135088,5,0
224,160,135226,1,0
224,160,135365,1,0
224,160,135504,1,0
352,160,135921,1,0
352,160,136060,1,0
352,160,136199,1,0
352,160,136338,1,0
256,192,136824,12,0,140921
