osu file format v14

[General]
AudioFilename: Danganronpa 2-Welcome DANGAN IsLand!! OP Version www.123savemp3.net .mp3
AudioLeadIn: 0
PreviewTime: 29006
Countdown: 1
SampleSet: Normal
StackLeniency: 0.7
Mode: 0
LetterboxInBreaks: 1
WidescreenStoryboard: 0

[Editor]
DistanceSpacing: 1.3
BeatDivisor: 4
GridSize: 4
TimelineZoom: 1.2

[Metadata]
Title:Welcome DANGAN IsLand!! OP Version
TitleUnicode:Welcome DANGAN IsLand!! 【OP Version】
Artist:Masafumi Takada
ArtistUnicode:Masafumi Takada
Creator:MondoKuma
Version:Insane
Source:Dangan Ronpa
Tags:Super Dangan Ronpa Two Goodbye Despair Trigger Happy Havoc
BeatmapID:834680
BeatmapSetID:380561

[Difficulty]
HPDrainRate:6
CircleSize:4
OverallDifficulty:6
ApproachRate:9
SliderMultiplier:1.4
SliderTickRate:1

[Events]
//Background and Video events
0,0,"Koizumi.Mahiru.full.1642927.jpg",0,0
//Break Periods
//Storyboard Layer 0 (Background)
//Storyboard Layer 1 (Fail)
//Storyboard Layer 2 (Pass)
//Storyboard Layer 3 (Foreground)
//Storyboard Sound Samples

[TimingPoints]
1448.87273847082,342.857586206897,4,1,0,100,1,0

[HitObjects]
256,192,77,12,0,934,0:0:0:0:
176,164,1448,6,0,P|208:232|296:260,1,140
440,216,2134,1,0,0:0:0:0:
440,216,2306,1,0,0:0:0:0:
424,100,2648,2,0,P|320:152|252:104,1,210
96,12,3506,1,0,0:0:0:0:
96,12,3677,1,0,0:0:0:0:
44,120,4020,2,0,P|152:160|128:232,1,210
56,249,4877,5,0,0:0:0:0:
56,249,5048,2,0,P|104:320|160:312,1,140
150,317,5563,1,0,0:0:0:0:
256,272,5734,2,0,L|316:228,1,70
392,160,6077,1,0,0:0:0:0:
420,72,6248,1,0,0:0:0:0:
152,88,6591,5,0,0:0:0:0:
140,176,6763,1,0,0:0:0:0:
220,140,6934,2,0,P|300:152|308:208,1,140
310,199,7448,1,0,0:0:0:0:
310,199,7620,2,0,P|384:260|396:248,1,140
392,251,8134,5,0,0:0:0:0:
444,172,8306,1,0,0:0:0:0:
424,80,8477,1,0,0:0:0:0:
336,36,8648,1,0,0:0:0:0:
244,48,8820,1,0,0:0:0:0:
144,136,8991,2,0,P|124:196|184:240,1,140
280,288,9506,5,0,0:0:0:0:
280,288,9677,2,0,P|392:296|396:280,1,140
420,216,10191,1,0,0:0:0:0:
336,188,10363,2,0,P|284:144|320:88,1,140
220,92,10877,5,0,0:0:0:0:
304,116,11048,1,0,0:0:0:0:
376,172,11220,1,0,0:0:0:0:
308,236,11391,1,0,0:0:0:0:
220,264,11563,1,0,0:0:0:0:
124,256,11734,2,0,P|12:232|0:196,1,140
144,128,12420,6,0,P|224:136|240:188,1,140
272,268,12934,1,0,0:0:0:0:
344,328,13106,2,0,B|384:320|408:284|376:204,1,140
344,124,13620,1,0,0:0:0:0:
288,48,13791,1,0,0:0:0:0:
200,76,13963,1,0,0:0:0:0:
132,132,14134,1,0,0:0:0:0:
108,216,14306,1,0,0:0:0:0:
144,324,14477,2,0,P|244:312|268:284,1,140
384,228,14991,5,0,0:0:0:0:
412,48,15163,2,0,P|336:64|292:116,1,140
256,216,15677,1,0,0:0:0:0:
228,324,15848,2,0,P|176:324|104:264,1,140
128,176,16363,1,0,0:0:0:0:
180,72,16534,6,0,P|204:40|232:52,1,70
288,184,16877,2,0,P|340:176|336:144,1,70
384,56,17220,2,0,P|412:32|432:60,1,70
432,192,17563,2,0,P|440:244|472:232,1,70
336,268,17906,6,0,L|168:296,1,140
152,232,18420,1,0,0:0:0:0:
160,128,18591,2,0,P|204:64|252:88,1,140
300,180,19106,5,0,0:0:0:0:
396,224,19277,1,0,0:0:0:0:
436,124,19448,1,0,0:0:0:0:
336,84,19620,1,0,0:0:0:0:
300,180,19791,1,0,0:0:0:0:
396,224,19963,2,0,P|440:196|424:256,1,140
316,320,20477,5,0,0:0:0:0:
208,296,20648,2,0,P|176:248|240:216,1,140
336,236,21163,1,0,0:0:0:0:
368,152,21334,2,0,P|376:104|288:76,1,140
220,92,21848,5,0,0:0:0:0:
140,164,22020,1,0,0:0:0:0:
152,268,22191,1,0,0:0:0:0:
260,276,22363,1,0,0:0:0:0:
356,228,22534,1,0,0:0:0:0:
408,128,22706,2,0,P|360:48|328:72,1,140
240,100,23391,5,0,0:0:0:0:
212,120,23477,1,0,0:0:0:0:
180,136,23563,1,0,0:0:0:0:
148,156,23648,1,0,0:0:0:0:
120,176,23734,1,0,0:0:0:0:
88,324,24248,5,0,0:0:0:0:
192,256,24420,1,0,0:0:0:0:
292,176,24591,2,0,P|352:176|336:248,1,140
272,320,25106,1,0,0:0:0:0:
88,324,25277,2,0,P|132:240|188:256,1,140
164,152,25791,5,0,0:0:0:0:
336,52,25963,1,0,0:0:0:0:
412,196,26134,2,0,P|356:260|304:240,1,140
224,192,26648,1,0,0:0:0:0:
304,112,26820,1,0,0:0:0:0:
360,208,26991,1,0,0:0:0:0:
296,304,27163,1,0,0:0:0:0:
192,328,27334,1,0,0:0:0:0:
120,260,27506,2,0,P|72:248|0:192,1,140
208,172,28191,5,0,0:0:0:0:
312,96,28363,1,0,0:0:0:0:
384,192,28534,1,0,0:0:0:0:
292,272,28706,1,0,0:0:0:0:
168,280,28877,2,0,P|84:216|88:160,1,140
48,44,29563,5,0,0:0:0:0:
160,92,29734,1,0,0:0:0:0:
260,144,29906,1,0,0:0:0:0:
168,208,30077,2,0,P|64:196|48:156,1,140
52,175,30591,5,0,0:0:0:0:
180,56,30934,1,0,0:0:0:0:
300,216,31277,1,0,0:0:0:0:
400,72,31620,2,0,L|436:232,1,140
264,304,32306,5,0,0:0:0:0:
168,264,32648,1,0,0:0:0:0:
196,180,32820,1,0,0:0:0:0:
292,180,32991,1,0,0:0:0:0:
264,96,33163,1,0,0:0:0:0:
176,92,33334,1,0,0:0:0:0:
104,148,33506,1,0,0:0:0:0:
84,228,33677,1,0,0:0:0:0:
272,304,34020,1,0,0:0:0:0:
464,252,34363,5,0,0:0:0:0:
376,188,34534,1,0,0:0:0:0:
280,120,34706,1,0,0:0:0:0:
176,48,34877,2,0,B|100:36|100:36|88:128,1,140
91,98,35391,1,0,0:0:0:0:
56,180,35563,5,0,0:0:0:0:
168,268,35734,2,0,L|240:320,1,70
348,360,36077,1,0,0:0:0:0:
384,268,36248,1,0,0:0:0:0:
304,228,36420,5,0,0:0:0:0:
376,88,36591,1,0,0:0:0:0:
440,224,36763,1,0,0:0:0:0:
288,132,36934,1,0,0:0:0:0:
456,132,37106,1,0,0:0:0:0:
288,132,37448,5,0,0:0:0:0:
152,68,37791,1,0,0:0:0:0:
108,136,37963,1,0,0:0:0:0:
88,280,38134,5,0,0:0:0:0:
224,332,38306,1,0,0:0:0:0:
372,344,38477,1,0,0:0:0:0:
504,280,38648,1,0,0:0:0:0:
400,176,38820,2,0,P|400:136|368:156,1,70
268,148,39163,1,0,0:0:0:0:
112,120,39506,5,0,0:0:0:0:
156,240,39677,1,0,0:0:0:0:
232,300,39848,1,0,0:0:0:0:
240,200,40020,2,0,P|288:192|280:176,1,70
356,112,40363,1,0,0:0:0:0:
432,216,40534,1,0,0:0:0:0:
368,324,40706,2,0,P|304:320|304:312,1,70
328,212,41048,5,0,0:0:0:0:
240,128,41220,1,0,0:0:0:0:
152,52,41391,1,0,0:0:0:0:
56,108,41563,1,0,0:0:0:0:
52,220,41734,1,0,0:0:0:0:
144,160,41906,2,0,P|140:204|168:208,1,70
292,164,42248,5,0,0:0:0:0:
380,92,42420,1,0,0:0:0:0:
440,192,42591,2,0,P|412:220|392:196,1,70
336,276,42934,1,0,0:0:0:0:
240,316,43106,1,0,0:0:0:0:
132,332,43277,2,0,P|112:312|144:296,1,70
172,196,43620,5,0,0:0:0:0:
188,72,43791,1,0,0:0:0:0:
276,76,43963,2,0,P|324:60|324:76,1,70
468,188,44306,2,0,P|476:232|464:228,1,70
324,300,44648,2,0,P|264:316|304:284,1,140
112,172,45334,6,0,P|168:168|176:184,1,70
268,220,45677,1,0,0:0:0:0:
400,252,45848,1,0,0:0:0:0:
448,148,46020,2,0,P|428:116|424:172,1,140
324,260,46534,5,0,0:0:0:0:
204,312,46706,1,0,0:0:0:0:
104,236,46877,1,0,0:0:0:0:
164,124,47048,1,0,0:0:0:0:
304,96,47220,1,0,0:0:0:0:
436,156,47391,2,0,P|464:204|428:160,1,140
324,260,47906,5,0,0:0:0:0:
256,128,48077,1,0,0:0:0:0:
192,260,48248,1,0,0:0:0:0:
336,172,48420,1,0,0:0:0:0:
168,172,48591,1,0,0:0:0:0:
124,88,48763,2,0,P|200:32|224:52,1,140
352,72,49277,5,0,0:0:0:0:
416,176,49448,2,0,P|432:212|408:208,1,70
256,172,49791,2,0,P|236:208|272:216,1,70
316,108,50134,2,0,P|360:96|360:136,1,70
364,240,50477,2,0,P|324:256|304:240,1,70
164,244,50820,6,0,P|124:212|184:224,1,140
288,208,51334,1,0,0:0:0:0:
392,152,51506,2,0,P|404:116|380:116,1,70
284,108,51848,5,0,0:0:0:0:
184,132,52020,1,0,0:0:0:0:
104,196,52191,1,0,0:0:0:0:
136,292,52363,1,0,0:0:0:0:
240,320,52534,1,0,0:0:0:0:
340,324,52706,1,0,0:0:0:0:
432,288,52877,2,0,P|468:248|408:200,1,140
336,196,53391,5,0,0:0:0:0:
208,196,53563,2,0,L|272:144,1,70
332,92,53906,1,0,0:0:0:0:
240,60,54077,2,0,L|140:60,1,70
44,88,54420,5,0,0:0:0:0:
40,188,54591,1,0,0:0:0:0:
32,292,54763,1,0,0:0:0:0:
120,356,54934,1,0,0:0:0:0:
228,348,55106,1,0,0:0:0:0:
328,308,55277,1,0,0:0:0:0:
416,248,55448,1,0,0:0:0:0:
448,156,55620,2,0,P|356:124|444:8,1,280
420,84,56477,5,0,0:0:0:0:
304,156,56648,1,0,0:0:0:0:
216,224,56820,1,0,0:0:0:0:
136,292,56991,1,0,0:0:0:0:
52,356,57163,1,0,0:0:0:0:
52,248,57334,1,0,0:0:0:0:
52,152,57506,2,0,P|80:120|100:136,1,70
232,92,57848,5,0,0:0:0:0:
384,80,58020,1,0,0:0:0:0:
368,192,58191,1,0,0:0:0:0:
312,288,58363,2,0,P|260:288|256:268,1,70
160,240,58706,1,0,0:0:0:0:
200,156,58877,2,0,P|220:196|296:172,1,140
288,48,59391,5,0,0:0:0:0:
176,64,59563,1,0,0:0:0:0:
96,132,59734,1,0,0:0:0:0:
72,236,59906,1,0,0:0:0:0:
256,192,59991,12,0,61620,0:0:0:0:
256,192,61791,5,0,0:0:0:0:
32,32,62134,1,0,0:0:0:0:
320,56,62477,5,0,0:0:0:0:
376,152,62648,1,4,0:0:0:0:
256,192,62991,5,0,0:0:0:0:
40,352,63506,1,0,0:0:0:0:
320,328,63848,5,0,0:0:0:0:
376,232,64020,1,4,0:0:0:0:
256,192,64363,5,0,0:0:0:0:
488,32,64877,1,0,0:0:0:0:
128,92,65220,1,0,0:0:0:0:
256,192,65306,12,0,66934,0:0:0:0:
156,280,67106,5,0,0:0:0:0:
256,88,67277,1,0,0:0:0:0:
344,284,67448,1,0,0:0:0:0:
136,148,67620,1,0,0:0:0:0:
368,148,67791,1,0,0:0:0:0:
256,188,67963,5,4,0:0:0:0:
