osu file format v14

[General]
AudioFilename: Danganronpa 2-Welcome DANGAN IsLand!! OP Version www.123savemp3.net .mp3
AudioLeadIn: 0
PreviewTime: 29006
Countdown: 1
SampleSet: Normal
StackLeniency: 0.7
Mode: 0
LetterboxInBreaks: 1
WidescreenStoryboard: 1

[Editor]
DistanceSpacing: 1.3
BeatDivisor: 4
GridSize: 4
TimelineZoom: 1.2

[Metadata]
Title:Welcome DANGAN IsLand!! OP Version
TitleUnicode:Welcome DANGAN IsLand!! 【OP Version】
Artist:Masafumi Takada
ArtistUnicode:Masafumi Takada
Creator:MondoKuma
Version:Easy
Source:Dangan Ronpa
Tags:Super Dangan Ronpa Two Goodbye Despair Trigger Happy Havoc
BeatmapID:834986
BeatmapSetID:380561

[Difficulty]
HPDrainRate:2
CircleSize:2
OverallDifficulty:1
ApproachRate:3
SliderMultiplier:1.1
SliderTickRate:1

[Events]
//Background and Video events
0,0,"Dangan.Ronpa.full.1669805.jpg",0,0
//Break Periods
2,27705,38408
//Storyboard Layer 0 (Background)
//Storyboard Layer 1 (Fail)
//Storyboard Layer 2 (Pass)
//Storyboard Layer 3 (Foreground)
//Storyboard Sound Samples

[TimingPoints]
1448.87273847082,342.857586206897,4,1,0,100,1,0

[HitObjects]
256,192,77,12,0,1448,0:0:0:0:
296,104,2648,6,0,P|308:144|284:272,1,165
136,260,4020,6,0,P|104:152|128:108,1,165
376,128,5391,6,0,P|408:184|384:284,1,165
388,278,6248,1,0,0:0:0:0:
164,280,6934,6,0,P|176:224|216:180,1,110
360,188,7620,2,0,P|368:140|348:72,1,110
180,84,8306,2,0,P|176:136|200:196,1,110
336,192,8991,2,0,P|368:256|352:304,1,110
232,304,9677,6,0,P|232:208|248:184,1,110
372,200,10363,2,0,P|368:120|344:88,1,110
216,96,11048,2,0,P|248:168|244:200,1,110
120,196,11734,2,0,P|132:280|152:296,1,110
304,276,12420,6,0,P|376:240|364:160,1,165
296,168,13106,2,0,P|288:96|320:64,1,110
456,72,13791,6,0,P|480:168|472:192,1,110
324,180,14477,2,0,P|336:300|332:312,1,110
200,248,15163,2,0,P|144:192|164:164,1,110
268,84,15848,2,0,P|336:104|348:136,1,110
300,280,16534,5,0,0:0:0:0:
256,188,16877,1,0,0:0:0:0:
356,168,17220,1,0,0:0:0:0:
400,260,17563,1,0,0:0:0:0:
236,292,17906,6,0,P|192:240|200:196,1,110
328,192,18591,2,0,P|328:112|312:84,1,110
176,88,19277,2,0,P|184:160|220:200,1,110
352,192,19963,2,0,P|360:244|340:296,1,110
264,192,20648,5,0,0:0:0:0:
348,136,20991,1,0,0:0:0:0:
420,208,21334,1,0,0:0:0:0:
336,256,21677,1,0,0:0:0:0:
244,280,22020,5,0,0:0:0:0:
184,208,22363,1,0,0:0:0:0:
228,128,22706,2,0,P|292:104|332:96,1,110
412,216,23391,6,0,P|400:272|344:300,1,110
296,144,24248,2,0,P|212:200|212:220,1,110
160,88,24934,6,0,P|236:52|268:52,1,110
364,100,26134,5,0,0:0:0:0:
392,200,26563,1,0,0:0:0:0:
396,300,26820,1,0,0:0:0:0:
324,300,27163,2,0,P|284:244|296:208,1,110
176,188,39848,6,0,P|216:136|276:128,1,110
408,124,40534,2,0,P|448:160|432:228,1,110
316,272,41220,2,0,P|224:228|220:208,1,110
272,76,41906,2,0,P|336:92|348:140,1,110
144,208,42591,6,0,P|128:128|152:112,1,110
280,116,43277,2,0,P|304:184|276:228,1,110
184,288,43963,2,0,P|268:304|296:272,1,110
380,268,44648,2,0,P|412:184|408:160,1,110
280,104,45334,6,0,P|240:152|252:212,1,110
176,292,46020,2,0,P|160:220|180:196,1,110
184,88,46706,2,0,P|264:92|276:128,1,110
300,204,47391,2,0,P|352:248|388:224,1,110
380,84,48077,6,0,P|304:104|292:132,1,110
268,264,48763,2,0,P|204:240|192:200,1,110
112,168,49448,2,0,P|128:132|188:80,1,110
320,112,50134,2,0,P|372:168|348:208,1,110
216,192,50820,6,0,P|216:104|240:92,1,110
352,100,51506,2,0,P|356:168|328:196,1,110
200,196,52191,2,0,P|184:272|216:312,1,110
336,296,52877,2,0,P|444:252|448:248,1,110
304,192,53563,6,0,P|272:136|224:124,1,110
148,124,54248,2,0,P|160:72|232:64,1,110
308,132,54934,2,0,P|312:204|356:232,1,110
256,300,55620,2,0,P|184:264|176:228,1,110
228,144,56306,5,0,0:0:0:0:
324,112,56648,1,0,0:0:0:0:
412,68,56991,1,0,0:0:0:0:
452,156,57334,1,0,0:0:0:0:
420,240,57677,5,0,0:0:0:0:
328,220,58020,1,0,0:0:0:0:
240,192,58363,1,0,0:0:0:0:
148,180,58706,1,0,0:0:0:0:
64,140,59048,5,0,0:0:0:0:
24,60,59391,1,0,0:0:0:0:
120,48,59734,1,0,0:0:0:0:
212,72,60077,1,0,0:0:0:0:
256,192,60420,12,0,61620,0:0:0:0:
256,192,61791,6,0,P|312:204|336:272,1,110
224,284,62477,2,0,P|168:260|168:216,1,110
236,196,62991,6,0,P|216:136|120:76,1,165
92,192,63848,2,0,P|92:280|104:292,1,110
172,292,64363,6,0,P|240:280|288:200,1,165
180,144,65220,2,0,P|252:112|276:124,1,110
256,192,65734,12,0,66934,0:0:0:0:
204,192,67106,6,0,P|280:184|320:200,1,110
312,280,67620,2,0,P|400:284|440:224,1,165
