osu file format v12

[General]
AudioFilename: CarnivalPhantasmED.mp3
AudioLeadIn: 1500
PreviewTime: 56713
Countdown: 0
SampleSet: Soft
StackLeniency: 0.6
Mode: 0
LetterboxInBreaks: 0

[Editor]
DistanceSpacing: 0.9
BeatDivisor: 4
GridSize: 4

[Metadata]
Title:Fellows (TV Size)
TitleUnicode:Fellows (TV Size)
Artist:Masaaki Endoh
ArtistUnicode:遠藤 正明
Creator:NoHitter
Version:Hard
Source:Carnival Phantasm
Tags:ED ending fate stay night hollow ataraxia melty blood tsukihime type moon
BeatmapID:169542
BeatmapSetID:55979

[Difficulty]
HPDrainRate:6
CircleSize:4
OverallDifficulty:6
ApproachRate:7
SliderMultiplier:1.44
SliderTickRate:2

[Events]
//Background and Video events
Video,-600,"Fellows.avi"
0,0,"bg.png",0,0
//Break Periods
//Storyboard Layer 0 (Background)
//Storyboard Layer 1 (Fail)
//Storyboard Layer 2 (Pass)
//Storyboard Layer 3 (Foreground)
//Storyboard Sound Samples
//Background Colour Transformations
3,100,163,162,255

[TimingPoints]
3860,444.444444444444,4,2,1,80,1,0
10526,-100,4,1,1,50,0,0
10970,-100,4,2,1,80,0,0
42971,-100,4,2,1,60,0,0
49860,-100,4,2,1,70,0,0
53638,-100,4,2,1,80,0,0
55415,-100,4,2,1,90,0,0
57193,-100,4,2,1,100,0,1
70526,-100,4,1,1,50,0,1
70971,-100,4,2,1,100,0,0
71415,-100,4,2,1,100,0,1
84749,-100,4,1,1,50,0,1
85193,-100,4,2,1,100,0,1
85638,-100,4,2,1,90,0,1
86082,-100,4,2,1,75,0,1
86526,-100,4,2,1,65,0,1
86970,-100,4,2,1,55,0,1
87414,-100,4,2,1,45,0,1
87858,-100,4,2,1,35,0,1
88302,-100,4,2,1,25,0,1
88746,-100,4,2,1,15,0,1
89193,-100,4,2,1,5,0,0

[Colours]
Combo1 : 189,101,36
Combo2 : 202,21,26
Combo3 : 74,133,22
Combo4 : 1,79,194

[HitObjects]
256,192,304,12,8,2971,0:0:0:0:
196,56,3859,6,0,B|224:12|288:12|316:56,1,144,4|8,0:0|0:0,0:0:0:0:
416,164,4748,2,0,B|483:231,2,72,2|0|8,0:0|0:0|0:0,0:0:0:0:
366,111,5415,1,2,0:0:0:0:
318,164,5637,5,0,0:0:0:0:
366,217,5860,1,0,0:0:0:0:
317,270,6082,2,0,B|289:314|225:314|197:270,2,144,8|2|8,0:0|0:0|0:0,0:0:0:0:
256,228,7193,1,0,0:0:0:0:
256,156,7415,6,0,B|256:56,1,72,2|0,0:0|0:0,0:0:0:0:
188,64,7860,2,0,B|112:52|48:88,1,144,8|2,0:0|0:0,0:0:0:0:
28,156,8526,1,0,0:0:0:0:
40,228,8748,1,8,0:0:0:0:
56,300,8971,5,2,0:0:0:0:
196,268,9415,2,0,B|296:244,1,72,2|8,0:0|0:0,0:0:0:0:
248,180,9860,2,0,B|177:196,1,72,2|0,0:0|0:0,0:0:0:0:
160,128,10304,2,0,B|260:104,1,72,2|8,0:0|0:0,0:0:0:0:
96,44,10971,5,4,0:0:0:0:
24,168,11415,1,8,0:0:0:0:
84,300,11860,1,2,0:0:0:0:
156,304,12082,1,0,0:0:0:0:
216,344,12304,1,8,0:0:0:0:
332,256,12748,2,0,B|343:205|403:183|444:214,1,144,2|8,0:0|0:0,0:0:0:0:
376,88,13637,5,2,0:0:0:0:
312,52,13860,1,0,0:0:0:0:
240,60,14082,1,8,0:0:0:0:
184,108,14304,2,0,B|173:159|113:181|72:150,1,144,2|0,0:0|0:0,0:0:0:0:
112,88,14971,2,0,B|168:232,1,144,8|2,0:0|0:0,0:0:0:0:
220,356,15860,2,0,B|256:352|296:356,1,72,8|2,0:0|0:0,0:0:0:0:
424,296,16526,2,0,B|388:300|348:296,1,72,2|8,0:0|0:0,0:0:0:0:
256,188,17193,5,2,0:0:0:0:
232,120,17415,1,0,0:0:0:0:
304,132,17637,1,8,0:0:0:0:
280,64,17860,2,0,B|348:40|424:48,1,144,2|0,0:0|0:0,0:0:0:0:
468,104,18526,1,8,0:0:0:0:
432,168,18748,2,0,B|364:192|288:184,1,144,2|2,0:0|0:0,0:0:0:0:
220,172,19415,2,0,B|146:164|78:188,1,144,8|2,0:0|0:0,0:0:0:0:
24,320,20304,1,8,0:0:0:0:
168,304,20748,5,2,0:0:0:0:
240,296,20971,1,0,0:0:0:0:
300,336,21193,1,8,0:0:0:0:
368,312,21415,2,0,B|374:264|332:252|286:244|295:200,1,144,2|0,0:0|0:0,0:0:0:0:
364,180,22082,1,8,0:0:0:0:
436,160,22304,2,0,B|442:112|400:100|354:92|363:48,1,144,2|0,0:0|0:0,0:0:0:0:
432,28,22971,1,8,0:0:0:0:
288,36,23415,1,2,0:0:0:0:
216,24,23637,1,0,0:0:0:0:
148,44,23859,1,8,0:0:0:0:
60,152,24304,5,2,0:0:0:0:
40,220,24526,2,0,B|20:292,2,72,0|8|2,0:0|0:0|0:0,0:0:0:0:
184,200,25415,2,0,B|164:104,2,72,2|8|2,0:0|0:0|0:0,0:0:0:0:
304,276,26304,2,0,B|324:360,2,72,2|8|2,0:0|0:0|0:0,0:0:0:0:
476,144,27415,1,8,0:0:0:0:
336,180,27859,5,10,0:0:0:0:
268,208,28082,1,0,0:0:0:0:
276,136,28304,1,8,0:0:0:0:
208,164,28526,2,0,B|148:215|72:184,1,144,2|0,0:0|0:0,0:0:0:0:
24,240,29193,1,8,0:0:0:0:
24,240,29415,2,0,B|80:376,1,144,2|0,0:0|0:0,0:0:0:0:
144,344,30082,1,8,0:0:0:0:
216,352,30304,2,0,B|284:324|356:324,1,144,2|0,0:0|0:0,0:0:0:0:
428,328,30971,1,8,0:0:0:0:
468,136,31415,6,0,B|484:48,2,72,2|0|8,0:0|0:0|0:0,0:0:0:0:
452,208,32082,1,2,0:0:0:0:
324,144,32526,2,0,B|248:136,1,72,2|8,0:0|0:0,0:0:0:0:
180,128,32971,1,2,0:0:0:0:
80,232,33415,2,0,B|64:312,1,72,2|8,0:0|0:0,0:0:0:0:
52,372,33859,1,2,0:0:0:0:
232,252,34526,1,8,0:0:0:0:
108,176,34971,5,2,0:0:0:0:
161,128,35193,1,0,0:0:0:0:
231,109,35415,1,8,0:0:0:0:
300,124,35637,2,0,B|342:155|402:133|413:82,1,144,2|0,0:0|0:0,0:0:0:0:
432,12,36304,1,8,0:0:0:0:
432,12,36526,2,0,B|483:23|505:83|474:125,1,144,2|2,0:0|0:0,0:0:0:0:
440,188,37193,1,8,0:0:0:0:
492,236,37415,1,2,0:0:0:0:
256,316,38082,1,8,0:0:0:0:
256,316,38304,1,2,0:0:0:0:
152,220,38748,6,0,B|96:172,2,72,2|8|4,0:0|0:0|0:0,0:0:0:0:
256,120,39637,2,0,B|256:200,2,72,2|8|4,0:0|0:0|0:0,0:0:0:0:
360,220,40526,2,0,B|416:172,2,72,2|8|4,0:0|0:0|0:0,0:0:0:0:
184,344,41637,5,8,0:0:0:0:
68,256,42082,2,0,B|40:204|32:184,1,72,2|0,0:0|0:0,0:0:0:0:
52,120,42526,1,8,0:0:0:0:
112,80,42748,2,0,B|213:30|323:57,1,216,2|0,0:0|0:0,0:0:0:0:
328,128,43637,2,0,B|227:179|116:153,1,216,2|0,0:0|0:0,0:0:0:0:
52,120,44526,1,2,0:0:0:0:
56,264,44971,1,2,0:0:0:0:
56,264,45193,1,0,0:0:0:0:
184,220,45637,5,2,0:0:0:0:
220,284,45859,1,0,0:0:0:0:
292,284,46082,1,0,0:0:0:0:
328,220,46304,2,0,B|316:139|416:91|475:161,1,216,2|0,0:0|0:0,0:0:0:0:
512,228,47193,2,0,B|518:319|412:353|365:288,1,216,2|0,0:0|0:0,0:0:0:0:
328,352,48082,1,2,0:0:0:0:
184,352,48526,1,2,0:0:0:0:
184,352,48748,1,0,0:0:0:0:
256,232,49193,5,2,0:0:0:0:
256,160,49415,1,0,0:0:0:0:
256,88,49637,1,0,0:0:0:0:
260,16,49859,2,0,B|332:8|400:40,1,144,2|0,0:0|0:0,0:0:0:0:
452,92,50526,1,8,0:0:0:0:
400,144,50748,2,0,B|344:208|392:276,1,144,2|0,0:0|0:0,0:0:0:0:
464,284,51415,1,8,0:0:0:0:
444,212,51637,2,0,B|280:200,1,144,2|0,0:0|0:0,0:0:0:0:
228,196,52304,1,8,0:0:0:0:
156,192,52526,5,2,0:0:0:0:
136,48,52971,1,2,0:0:0:0:
88,104,53193,1,8,0:0:0:0:
64,36,53415,1,0,0:0:0:0:
16,96,53637,5,4,0:0:0:0:
104,244,54082,1,8,0:0:0:0:
252,160,54526,1,8,0:0:0:0:
412,224,54971,1,8,0:0:0:0:
264,328,55415,5,4,0:0:0:0:
144,148,55859,1,4,0:0:0:0:
356,104,56304,1,4,0:0:0:0:
256,260,57193,6,0,B|286:222|255:189|222:158|253:126,1,144,4|8,0:0|0:0,0:0:0:0:
288,64,57859,1,0,0:0:0:0:
356,28,58082,1,2,0:0:0:0:
428,20,58304,1,0,0:0:0:0:
496,48,58526,1,8,0:0:0:0:
376,140,58971,5,2,0:0:0:0:
240,100,59415,1,8,0:0:0:0:
112,164,59859,1,2,0:0:0:0:
48,196,60082,2,8,B|64:284,1,72
184,360,60748,6,0,B|256:384|328:360,1,144,4|8,0:0|0:0,0:0:0:0:
388,324,61415,1,0,0:0:0:0:
432,264,61637,2,0,B|456:192|432:119,1,144,2|8,0:0|0:0,0:0:0:0:
328,24,62526,5,2,0:0:0:0:
260,48,62748,1,0,0:0:0:0:
192,76,62971,1,8,0:0:0:0:
308,164,63415,1,2,0:0:0:0:
292,236,63637,2,8,B|276:324,1,72
144,340,64304,5,4,0:0:0:0:
36,244,64748,1,8,0:0:0:0:
88,196,64971,1,0,0:0:0:0:
136,144,65193,2,0,B|108:60,2,72,2|0|8,0:0|0:0|0:0,0:0:0:0:
160,212,65859,1,0,0:0:0:0:
184,280,66082,6,0,B|203:328|266:339|302:300,1,144,2|8,0:0|0:0,0:0:0:0:
372,172,66971,1,2,0:0:0:0:
441,151,67193,1,8,0:0:0:0:
498,194,67415,1,8,0:0:0:0:
468,260,67637,1,0,0:0:0:0:
444,328,67859,6,0,B|363:301,1,72,4|0,0:0|0:0,0:0:0:0:
308,280,68304,1,8,0:0:0:0:
164,292,68748,2,0,B|80:284,1,72,2|0,0:0|0:0,0:0:0:0:
20,276,69193,1,8,0:0:0:0:
4,132,69637,5,2,0:0:0:0:
52,76,69859,1,0,0:0:0:0:
124,64,70082,1,8,0:0:0:0:
192,92,70304,1,0,0:0:0:0:
264,108,70526,2,0,B|348:100,1,72,0|8,0:0|0:0,0:0:0:0:
408,92,70971,1,8,0:0:0:0:
480,84,71193,1,8,0:0:0:0:
452,152,71415,6,0,B|408:228|484:276,1,144,4|8,0:0|0:0,0:0:0:0:
368,360,72304,2,0,B|412:284|336:236,1,144,2|8,0:0|0:0,0:0:0:0:
280,192,72971,1,0,0:0:0:0:
256,120,73193,5,2,0:0:0:0:
124,64,73637,1,8,0:0:0:0:
4,144,74082,1,2,0:0:0:0:
60,188,74304,1,8,0:0:0:0:
12,244,74526,1,8,0:0:0:0:
72,284,74748,1,0,0:0:0:0:
20,336,74971,5,4,0:0:0:0:
88,356,75193,2,0,B|168:344,1,72,0|8,0:0|0:0,0:0:0:0:
300,324,75859,2,0,B|323:370|386:375|419:333,1,144,2|8,0:0|0:0,0:0:0:0:
484,204,76748,5,2,0:0:0:0:
380,104,77193,1,8,0:0:0:0:
232,88,77637,2,0,B|140:76,1,72,2|8,0:0|0:0,0:0:0:0:
88,68,78082,2,0,B|-4:56,1,72,8|2,0:0|0:0,0:0:0:0:
44,136,78526,6,0,B|84:208|24:268,1,144,4|8,0:0|0:0,0:0:0:0:
132,364,79415,2,0,B|92:292|152:232,1,144,2|8,0:0|0:0,0:0:0:0:
204,184,80082,1,0,0:0:0:0:
280,172,80304,5,2,0:0:0:0:
268,316,80748,1,8,0:0:0:0:
400,252,81193,2,0,B|492:256,2,72,2|8|8,0:0|0:0|0:0,0:0:0:0:
328,248,81859,1,0,0:0:0:0:
256,242,82082,6,0,B|183:243|113:229,1,144,4|8,0:0|0:0,0:0:0:0:
200,116,82971,1,2,0:0:0:0:
262,79,83193,1,0,0:0:0:0:
333,85,83415,1,8,0:0:0:0:
387,131,83637,6,0,B|431:159|431:223|387:251,1,144,2|2,0:0|0:0,0:0:0:0:
346,191,84304,1,8,0:0:0:0:
225,269,84748,1,0,0:0:0:0:
157,241,84971,1,0,0:0:0:0:
105,291,85193,1,8,0:0:0:0:
141,353,85415,1,8,0:0:0:0:
212,341,85637,1,4,0:0:0:0:
256,192,85748,12,0,89193,0:0:0:0:
