osu file format v12

[General]
AudioFilename: Abaranger - Opening.mp3
AudioLeadIn: 0
PreviewTime: 58323
Countdown: 0
SampleSet: Normal
StackLeniency: 0.7
Mode: 1
LetterboxInBreaks: 0
WidescreenStoryboard: 0

[Editor]
DistanceSpacing: 1.9
BeatDivisor: 4
GridSize: 32

[Metadata]
Title:Bakuryuu Sentai Abaranger (TV Size)
TitleUnicode:爆竜戦隊アバレンジャー (TV Size)
Artist:Masaaki Endoh
ArtistUnicode:遠藤正明
Creator:DakeDekaane
Version:Muzukashii
Source:爆竜戦隊アバレンジャー
Tags:Endou Super Sentai Series Tokusatsu Opening OP Toei
BeatmapID:248616
BeatmapSetID:91895

[Difficulty]
HPDrainRate:5
CircleSize:4
OverallDifficulty:5
ApproachRate:5
SliderMultiplier:1.4
SliderTickRate:1

[Events]
//Background and Video events
0,0,"__hr_abaranger.jpg",0,50
//Break Periods
//Storyboard Layer 0 (Background)
//Storyboard Layer 1 (Fail)
//Storyboard Layer 2 (Pass)
//Storyboard Layer 3 (Foreground)
//Storyboard Sound Samples
//Background Colour Transformations
3,100,163,162,255

[TimingPoints]
900,368.098159509202,4,1,0,80,1,0
9734,368.098159509202,4,1,0,80,1,0
58322,-100,4,1,0,80,0,1
83353,-100,4,1,0,80,0,0
86298,-100,4,1,0,80,0,1
90715,-100,4,1,0,80,0,0

[Colours]
Combo1 : 255,255,0
Combo2 : 255,255,0

[HitObjects]
256,192,9734,1,4,0:0:0:0:
256,192,11206,1,4,0:0:0:0:
256,192,12678,1,4,0:0:0:0:
256,192,13599,1,4,0:0:0:0:
256,192,13967,1,12,0:0:0:0:
256,192,14335,1,0,0:0:0:0:
256,192,14703,1,12,0:0:0:0:
256,192,15623,1,0,0:0:0:0:
256,192,15991,1,0,0:0:0:0:
256,192,16359,1,0,0:0:0:0:
256,192,16727,1,0,0:0:0:0:
256,192,17095,1,0,0:0:0:0:
256,192,17464,1,0,0:0:0:0:
256,192,17648,1,12,0:0:0:0:
256,192,18016,1,0,0:0:0:0:
256,192,18200,1,0,0:0:0:0:
256,192,18568,1,8,0:0:0:0:
256,192,18752,1,8,0:0:0:0:
256,192,18936,1,0,0:0:0:0:
256,192,19120,1,0,0:0:0:0:
256,192,19212,1,0,0:0:0:0:
256,192,19304,1,0,0:0:0:0:
256,192,19672,1,8,0:0:0:0:
256,192,19856,1,8,0:0:0:0:
256,192,20040,1,0,0:0:0:0:
256,192,20224,1,0,0:0:0:0:
256,192,20316,1,0,0:0:0:0:
256,192,20408,1,0,0:0:0:0:
256,192,20776,1,12,0:0:0:0:
256,192,20960,1,12,0:0:0:0:
256,192,21513,1,4,0:0:0:0:
256,192,21881,1,8,0:0:0:0:
256,192,22249,1,0,0:0:0:0:
256,192,22433,1,0,0:0:0:0:
256,192,22617,1,8,0:0:0:0:
256,192,22985,1,0,0:0:0:0:
256,192,23353,1,8,0:0:0:0:
256,192,23537,1,0,0:0:0:0:
256,192,24089,1,8,0:0:0:0:
256,192,24457,1,0,0:0:0:0:
256,192,24826,1,8,0:0:0:0:
256,192,25010,1,0,0:0:0:0:
256,192,25378,1,0,0:0:0:0:
256,192,25562,1,8,0:0:0:0:
256,192,25746,1,0,0:0:0:0:
256,192,25930,1,0,0:0:0:0:
256,192,26298,1,8,0:0:0:0:
256,192,26666,1,0,0:0:0:0:
256,192,26850,1,0,0:0:0:0:
256,192,27034,1,8,0:0:0:0:
256,192,27402,1,0,0:0:0:0:
256,192,27770,1,8,0:0:0:0:
256,192,28138,1,0,0:0:0:0:
256,192,28322,1,0,0:0:0:0:
256,192,28507,1,8,0:0:0:0:
256,192,28875,1,0,0:0:0:0:
256,192,29243,1,8,0:0:0:0:
256,192,29427,1,0,0:0:0:0:
256,192,29795,1,0,0:0:0:0:
256,192,30163,1,0,0:0:0:0:
256,192,30347,1,8,0:0:0:0:
256,192,30531,1,8,0:0:0:0:
256,192,30715,1,0,0:0:0:0:
256,192,30899,1,8,0:0:0:0:
256,192,31083,1,0,0:0:0:0:
256,192,31451,1,8,0:0:0:0:
256,192,31635,1,0,0:0:0:0:
256,192,32003,1,8,0:0:0:0:
256,192,32372,1,8,0:0:0:0:
256,192,32740,1,8,0:0:0:0:
256,192,33108,1,8,0:0:0:0:
256,192,33292,1,4,0:0:0:0:
256,192,33660,1,8,0:0:0:0:
256,192,34028,1,0,0:0:0:0:
256,192,34212,1,0,0:0:0:0:
256,192,34396,1,8,0:0:0:0:
256,192,34764,1,0,0:0:0:0:
256,192,35132,1,8,0:0:0:0:
256,192,35316,1,0,0:0:0:0:
256,192,35868,1,8,0:0:0:0:
256,192,36237,1,0,0:0:0:0:
256,192,36605,1,8,0:0:0:0:
256,192,36789,1,0,0:0:0:0:
256,192,37157,1,0,0:0:0:0:
256,192,37341,1,8,0:0:0:0:
256,192,37525,1,8,0:0:0:0:
256,192,37893,1,0,0:0:0:0:
256,192,38077,1,8,0:0:0:0:
256,192,38261,1,8,0:0:0:0:
256,192,38629,1,0,0:0:0:0:
256,192,38813,1,8,0:0:0:0:
256,192,38997,1,8,0:0:0:0:
256,192,39181,1,0,0:0:0:0:
256,192,39549,1,8,0:0:0:0:
256,192,39918,1,0,0:0:0:0:
256,192,40102,1,0,0:0:0:0:
256,192,40286,1,8,0:0:0:0:
256,192,40654,1,0,0:0:0:0:
256,192,41022,1,8,0:0:0:0:
256,192,41206,1,0,0:0:0:0:
256,192,41574,1,0,0:0:0:0:
256,192,41758,1,8,0:0:0:0:
256,192,42126,1,0,0:0:0:0:
256,192,42494,1,8,0:0:0:0:
256,192,42678,1,0,0:0:0:0:
256,192,43046,1,0,0:0:0:0:
256,192,43230,1,8,0:0:0:0:
256,192,43414,1,0,0:0:0:0:
256,192,43599,1,0,0:0:0:0:
256,192,43783,1,8,0:0:0:0:
256,192,43875,1,8,0:0:0:0:
256,192,43967,1,8,0:0:0:0:
256,192,44335,1,0,0:0:0:0:
256,192,44703,1,12,0:0:0:0:
256,192,45071,1,8,0:0:0:0:
256,192,45255,1,8,0:0:0:0:
256,192,45991,1,0,0:0:0:0:
256,192,46175,1,8,0:0:0:0:
256,192,46359,1,0,0:0:0:0:
256,192,46727,1,8,0:0:0:0:
256,192,47095,1,8,0:0:0:0:
256,192,47648,1,8,0:0:0:0:
256,192,48016,1,8,0:0:0:0:
256,192,48200,1,8,0:0:0:0:
256,192,48384,1,0,0:0:0:0:
256,192,48752,1,0,0:0:0:0:
256,192,48936,1,8,0:0:0:0:
256,192,49304,1,8,0:0:0:0:
256,192,49672,1,8,0:0:0:0:
256,192,49856,1,0,0:0:0:0:
256,192,50224,1,8,0:0:0:0:
256,192,50592,1,0,0:0:0:0:
256,192,50776,1,0,0:0:0:0:
256,192,50960,1,8,0:0:0:0:
256,192,51329,1,0,0:0:0:0:
256,192,51513,1,8,0:0:0:0:
256,192,51881,1,0,0:0:0:0:
256,192,52065,1,8,0:0:0:0:
256,192,52249,1,0,0:0:0:0:
256,192,52433,1,0,0:0:0:0:
256,192,52617,1,8,0:0:0:0:
256,192,52985,1,8,0:0:0:0:
256,192,53353,1,8,0:0:0:0:
256,192,53537,1,0,0:0:0:0:
256,192,53905,1,0,0:0:0:0:
256,192,54089,1,0,0:0:0:0:
256,192,54273,1,8,0:0:0:0:
256,192,54641,1,0,0:0:0:0:
256,192,55010,1,8,0:0:0:0:
256,192,55194,12,0,56482,0:0:0:0:
256,192,56850,5,8,0:0:0:0:
256,192,57034,1,8,0:0:0:0:
256,192,57218,1,0,0:0:0:0:
256,192,57402,1,8,0:0:0:0:
256,192,57586,1,0,0:0:0:0:
256,192,57770,1,0,0:0:0:0:
256,192,57954,1,8,0:0:0:0:
256,192,58322,1,4,0:0:0:0:
256,192,58691,1,0,0:0:0:0:
256,192,58875,1,0,0:0:0:0:
256,192,59059,1,8,0:0:0:0:
256,192,59427,1,0,0:0:0:0:
256,192,59795,1,8,0:0:0:0:
256,192,60163,1,0,0:0:0:0:
256,192,60347,1,0,0:0:0:0:
256,192,60531,1,8,0:0:0:0:
256,192,60715,1,0,0:0:0:0:
256,192,60807,1,0,0:0:0:0:
256,192,60899,1,0,0:0:0:0:
256,192,61083,1,0,0:0:0:0:
256,192,61267,1,8,0:0:0:0:
256,192,61635,1,0,0:0:0:0:
256,192,61819,1,0,0:0:0:0:
256,192,62003,8,0,63844,0:0:0:0:
256,192,64212,5,8,0:0:0:0:
256,192,64580,1,0,0:0:0:0:
256,192,64764,1,0,0:0:0:0:
256,192,64948,1,8,0:0:0:0:
256,192,65684,1,8,0:0:0:0:
256,192,66053,1,0,0:0:0:0:
256,192,66237,1,0,0:0:0:0:
256,192,66421,1,8,0:0:0:0:
256,192,67157,1,8,0:0:0:0:
256,192,67525,1,0,0:0:0:0:
256,192,67709,1,0,0:0:0:0:
256,192,67893,1,8,0:0:0:0:
256,192,68261,1,0,0:0:0:0:
256,192,68629,1,8,0:0:0:0:
256,192,68813,1,0,0:0:0:0:
256,192,69181,1,8,0:0:0:0:
256,192,69549,1,8,0:0:0:0:
256,192,69918,1,8,0:0:0:0:
256,192,70102,1,4,0:0:0:0:
256,192,70470,1,0,0:0:0:0:
256,192,70654,1,0,0:0:0:0:
256,192,70838,1,8,0:0:0:0:
256,192,71206,1,0,0:0:0:0:
256,192,71390,1,0,0:0:0:0:
256,192,71574,1,8,0:0:0:0:
256,192,71942,1,8,0:0:0:0:
256,192,72126,1,8,0:0:0:0:
256,192,72678,1,8,0:0:0:0:
256,192,73046,1,0,0:0:0:0:
256,192,73414,1,8,0:0:0:0:
256,192,73967,1,8,0:0:0:0:
256,192,74151,1,0,0:0:0:0:
256,192,74335,1,12,0:0:0:0:
256,192,75071,1,12,0:0:0:0:
256,192,75439,1,0,0:0:0:0:
256,192,75623,1,8,0:0:0:0:
256,192,75807,1,8,0:0:0:0:
256,192,75899,1,8,0:0:0:0:
256,192,75991,1,8,0:0:0:0:
256,192,76359,1,0,0:0:0:0:
256,192,76543,1,0,0:0:0:0:
256,192,76727,1,8,0:0:0:0:
256,192,77095,1,0,0:0:0:0:
256,192,77280,1,0,0:0:0:0:
256,192,77464,1,8,0:0:0:0:
256,192,77832,1,0,0:0:0:0:
256,192,78016,1,0,0:0:0:0:
256,192,78200,1,8,0:0:0:0:
256,192,78384,1,0,0:0:0:0:
256,192,78476,1,0,0:0:0:0:
256,192,78568,1,0,0:0:0:0:
256,192,78752,1,0,0:0:0:0:
256,192,78936,1,12,0:0:0:0:
256,192,79304,1,12,0:0:0:0:
256,192,80040,1,0,0:0:0:0:
256,192,80408,2,0,B|512:192|512:192|512:0|512:0|384:0,1,560
256,192,83353,1,0,0:0:0:0:
256,192,83537,1,0,0:0:0:0:
256,192,83721,1,0,0:0:0:0:
256,192,84089,1,0,0:0:0:0:
256,192,84457,1,0,0:0:0:0:
256,192,84641,1,12,0:0:0:0:
256,192,85010,1,12,0:0:0:0:
256,192,85194,1,12,0:0:0:0:
256,192,86298,1,8,0:0:0:0:
256,192,86482,1,0,0:0:0:0:
256,192,86666,1,8,0:0:0:0:
256,192,87034,1,8,0:0:0:0:
256,192,87218,1,0,0:0:0:0:
256,192,87402,1,0,0:0:0:0:
256,192,87586,1,8,0:0:0:0:
256,192,87954,1,0,0:0:0:0:
256,192,88138,1,8,0:0:0:0:
256,192,88507,1,0,0:0:0:0:
256,192,88691,1,0,0:0:0:0:
256,192,88875,1,8,0:0:0:0:
256,192,89243,1,8,0:0:0:0:
256,192,89427,1,8,0:0:0:0:
256,192,89611,1,0,0:0:0:0:
256,192,89795,1,0,0:0:0:0:
256,192,89887,1,0,0:0:0:0:
256,192,89979,1,0,0:0:0:0:
256,192,90347,1,12,0:0:0:0:
256,192,90531,1,12,0:0:0:0:
