osu file format v12

[General]
AudioFilename: Abaranger - Opening.mp3
AudioLeadIn: 0
PreviewTime: 58323
Countdown: 0
SampleSet: Normal
StackLeniency: 0.7
Mode: 1
LetterboxInBreaks: 0
WidescreenStoryboard: 0

[Editor]
DistanceSpacing: 1.9
BeatDivisor: 4
GridSize: 32

[Metadata]
Title:Bakuryuu Sentai Abaranger (TV Size)
TitleUnicode:爆竜戦隊アバレンジャー (TV Size)
Artist:Masaaki Endoh
ArtistUnicode:遠藤正明
Creator:DakeDekaane
Version:Kantan
Source:爆竜戦隊アバレンジャー
Tags:Endou Super Sentai Series Tokusatsu Opening OP Toei
BeatmapID:248615
BeatmapSetID:91895

[Difficulty]
HPDrainRate:3
CircleSize:4
OverallDifficulty:3
ApproachRate:5
SliderMultiplier:1.4
SliderTickRate:1

[Events]
//Background and Video events
0,0,"__hr_abaranger.jpg",0,50
//Break Periods
//Storyboard Layer 0 (Background)
//Storyboard Layer 1 (Fail)
//Storyboard Layer 2 (Pass)
//Storyboard Layer 3 (Foreground)
//Storyboard Sound Samples
//Background Colour Transformations
3,100,163,162,255

[TimingPoints]
900,368.098159509202,4,1,0,80,1,0
9734,368.098159509202,4,1,0,80,1,0
58322,-100,4,1,0,80,0,1
83353,-100,4,1,0,80,0,0
86298,-100,4,1,0,80,0,1
90715,-100,4,1,0,80,0,0

[Colours]
Combo1 : 255,255,0
Combo2 : 255,255,0

[HitObjects]
256,192,9734,1,4,0:0:0:0:
256,192,11206,1,4,0:0:0:0:
256,192,12678,1,4,0:0:0:0:
256,192,13967,1,12,0:0:0:0:
256,192,14703,1,12,0:0:0:0:
256,192,15623,1,0,0:0:0:0:
256,192,16359,1,0,0:0:0:0:
256,192,17095,1,0,0:0:0:0:
256,192,18568,1,12,0:0:0:0:
256,192,19672,1,12,0:0:0:0:
256,192,20776,1,12,0:0:0:0:
256,192,21513,1,4,0:0:0:0:
256,192,22249,1,0,0:0:0:0:
256,192,22985,1,0,0:0:0:0:
256,192,24457,1,0,0:0:0:0:
256,192,25194,1,0,0:0:0:0:
256,192,25930,1,8,0:0:0:0:
256,192,27402,1,0,0:0:0:0:
256,192,27770,1,0,0:0:0:0:
256,192,28138,1,0,0:0:0:0:
256,192,28875,1,0,0:0:0:0:
256,192,29243,1,0,0:0:0:0:
256,192,29611,1,8,0:0:0:0:
256,192,30347,1,0,0:0:0:0:
256,192,33292,1,8,0:0:0:0:
256,192,34028,1,0,0:0:0:0:
256,192,34764,1,0,0:0:0:0:
256,192,36237,1,0,0:0:0:0:
256,192,36973,1,0,0:0:0:0:
256,192,37709,1,8,0:0:0:0:
256,192,39181,1,0,0:0:0:0:
256,192,39918,1,8,0:0:0:0:
256,192,40654,1,0,0:0:0:0:
256,192,42126,1,0,0:0:0:0:
256,192,42862,1,8,0:0:0:0:
256,192,43599,1,0,0:0:0:0:
256,192,44335,1,0,0:0:0:0:
256,192,44703,1,0,0:0:0:0:
256,192,45071,1,8,0:0:0:0:
256,192,46727,1,0,0:0:0:0:
256,192,47095,1,0,0:0:0:0:
256,192,48016,1,8,0:0:0:0:
256,192,49672,1,8,0:0:0:0:
256,192,50224,1,8,0:0:0:0:
256,192,50960,1,8,0:0:0:0:
256,192,52433,1,8,0:0:0:0:
256,192,53905,1,0,0:0:0:0:
256,192,54641,1,0,0:0:0:0:
256,192,55194,12,0,56850,0:0:0:0:
256,192,58322,1,4,0:0:0:0:
256,192,59059,1,8,0:0:0:0:
256,192,59795,1,0,0:0:0:0:
256,192,60163,1,0,0:0:0:0:
256,192,60531,1,8,0:0:0:0:
256,192,61267,1,0,0:0:0:0:
256,192,62003,12,0,63844,0:0:0:0:
256,192,64212,1,0,0:0:0:0:
256,192,64948,1,8,0:0:0:0:
256,192,65684,1,0,0:0:0:0:
256,192,66421,1,8,0:0:0:0:
256,192,67157,1,0,0:0:0:0:
256,192,67525,1,0,0:0:0:0:
256,192,67893,1,0,0:0:0:0:
256,192,68629,1,8,0:0:0:0:
256,192,68997,1,8,0:0:0:0:
256,192,69365,1,8,0:0:0:0:
256,192,70102,1,4,0:0:0:0:
256,192,70838,1,4,0:0:0:0:
256,192,71574,1,4,0:0:0:0:
256,192,72678,1,0,0:0:0:0:
256,192,73046,1,0,0:0:0:0:
256,192,73414,1,8,0:0:0:0:
256,192,74335,1,12,0:0:0:0:
256,192,75071,1,12,0:0:0:0:
256,192,75991,1,4,0:0:0:0:
256,192,76727,1,4,0:0:0:0:
256,192,77464,1,4,0:0:0:0:
256,192,78936,1,12,0:0:0:0:
256,192,79304,1,12,0:0:0:0:
256,192,80408,6,0,B|512:192|512:192|512:0|512:0|384:0,1,560
256,192,83353,1,0,0:0:0:0:
256,192,84641,1,8,0:0:0:0:
256,192,85194,1,8,0:0:0:0:
256,192,86298,2,0,B|512:192|512:192|512:0|512:0|384:0,1,560
256,192,88507,1,0,0:0:0:0:
256,192,88875,1,0,0:0:0:0:
256,192,89243,1,4,0:0:0:0:
256,192,90347,1,12,0:0:0:0:
