osu file format v14

[General]
AudioFilename: Masa-Kitsune no yomeiri.mp3
AudioLeadIn: 0
PreviewTime: 106128
Countdown: 1
SampleSet: Soft
StackLeniency: 0.7
Mode: 1
LetterboxInBreaks: 1
WidescreenStoryboard: 0

[Editor]
DistanceSpacing: 1.2
BeatDivisor: 3
GridSize: 4
TimelineZoom: 4.699997

[Metadata]
Title:Kitsune no Yomeiri
TitleUnicode:Kitsune no Yomeiri
Artist:Masa
ArtistUnicode:Masa
Creator:asuasu_yura
Version:Inner Oni
Source:Vocaloid
Tags:
BeatmapID:743086
BeatmapSetID:335722

[Difficulty]
HPDrainRate:5
CircleSize:5
OverallDifficulty:5
ApproachRate:5
SliderMultiplier:1.4
SliderTickRate:1

[Events]
//Background and Video events
0,0,"BG.jpg",0,0
//Break Periods
//Storyboard Layer 0 (Background)
//Storyboard Layer 1 (Fail)
//Storyboard Layer 2 (Pass)
//Storyboard Layer 3 (Foreground)
//Storyboard Sound Samples

[TimingPoints]
2128,250,4,2,1,90,1,0
18190,-125,4,2,1,90,0,0
26169,-100,4,2,1,90,0,0
34128,-100,4,2,1,90,0,1
50378,-100,4,2,1,50,0,0
53628,-100,4,2,1,90,0,0
54190,-100,4,2,1,90,0,1
70190,-125,4,2,1,90,0,0
73599,-100,4,2,1,90,0,0
90190,-100,4,2,1,90,0,1
106253,-125,4,2,1,50,0,0
109815,-100,4,2,1,90,0,0
126190,-125,4,2,1,50,0,0
129565,-100,4,2,1,90,0,0
130190,-100,4,2,1,90,0,1
146378,-111.111111111111,4,2,1,80,0,0
148128,-117.647058823529,4,2,1,60,0,0
150128,-125,4,2,1,40,0,0
152128,-133.333333333333,4,2,1,10,0,0
153628,-142.857142857143,4,3,1,5,0,0

[HitObjects]
256,188,2128,5,0,0:0:0:0:
256,188,2190,1,0,0:0:0:0:
256,188,2253,1,2,0:0:0:0:
256,188,2378,1,2,0:0:0:0:
256,188,2503,1,0,0:0:0:0:
256,188,2628,1,2,0:0:0:0:
256,188,2753,1,2,0:0:0:0:
256,188,2878,1,0,0:0:0:0:
256,188,3003,1,0,0:0:0:0:
256,188,3128,1,2,0:0:0:0:
256,188,3190,1,2,0:0:0:0:
256,188,3253,1,0,0:0:0:0:
256,188,3378,1,2,0:0:0:0:
256,188,3503,1,2,0:0:0:0:
256,188,3628,1,0,0:0:0:0:
256,188,3753,1,2,0:0:0:0:
256,188,3878,1,2,0:0:0:0:
256,188,4003,1,0,0:0:0:0:
256,188,4128,1,2,0:0:0:0:
256,188,4190,1,2,0:0:0:0:
256,188,4253,1,2,0:0:0:0:
256,188,4378,1,2,0:0:0:0:
256,188,4503,1,2,0:0:0:0:
256,188,4628,1,0,0:0:0:0:
256,188,4753,1,0,0:0:0:0:
256,188,4878,1,2,0:0:0:0:
256,188,5003,1,0,0:0:0:0:
256,188,5128,1,2,0:0:0:0:
256,188,5190,1,0,0:0:0:0:
256,188,5253,1,2,0:0:0:0:
256,188,5378,1,2,0:0:0:0:
256,188,5503,1,2,0:0:0:0:
256,188,5628,1,0,0:0:0:0:
256,188,5753,1,0,0:0:0:0:
256,188,5878,1,2,0:0:0:0:
256,188,6003,1,2,0:0:0:0:
256,188,6128,1,2,0:0:0:0:
256,188,6190,1,2,0:0:0:0:
256,188,6253,1,2,0:0:0:0:
256,188,6378,1,2,0:0:0:0:
256,188,6503,1,0,0:0:0:0:
256,188,6628,1,0,0:0:0:0:
256,188,6753,1,2,0:0:0:0:
256,188,6878,1,2,0:0:0:0:
256,188,7003,1,0,0:0:0:0:
256,188,7128,1,2,0:0:0:0:
256,188,7190,1,2,0:0:0:0:
256,188,7253,1,2,0:0:0:0:
256,188,7378,1,2,0:0:0:0:
256,188,7503,1,0,0:0:0:0:
256,188,7628,1,0,0:0:0:0:
256,188,7753,1,0,0:0:0:0:
256,188,7878,1,2,0:0:0:0:
256,188,8003,1,2,0:0:0:0:
256,188,8128,1,0,0:0:0:0:
256,188,8378,1,2,0:0:0:0:
256,188,8503,1,2,0:0:0:0:
256,188,9128,1,0,0:0:0:0:
256,188,9378,1,2,0:0:0:0:
256,188,9503,1,2,0:0:0:0:
256,188,10128,1,0,0:0:0:0:
256,188,10190,1,0,0:0:0:0:
256,188,10253,1,2,0:0:0:0:
256,188,10378,1,2,0:0:0:0:
256,188,10503,1,0,0:0:0:0:
256,188,10628,1,0,0:0:0:0:
256,188,10753,1,2,0:0:0:0:
256,188,10878,1,0,0:0:0:0:
256,188,11003,1,0,0:0:0:0:
256,188,11128,1,2,0:0:0:0:
256,188,11190,1,2,0:0:0:0:
256,188,11253,1,2,0:0:0:0:
256,188,11378,1,2,0:0:0:0:
256,188,11503,1,0,0:0:0:0:
256,188,11628,1,2,0:0:0:0:
256,188,11690,1,0,0:0:0:0:
256,188,11753,1,0,0:0:0:0:
256,188,11815,1,0,0:0:0:0:
256,188,11878,1,2,0:0:0:0:
256,188,12003,1,2,0:0:0:0:
256,188,12128,1,0,0:0:0:0:
256,188,12190,1,0,0:0:0:0:
256,188,12253,1,2,0:0:0:0:
256,188,12378,1,2,0:0:0:0:
256,188,12503,1,0,0:0:0:0:
256,188,12628,1,2,0:0:0:0:
256,188,12690,1,2,0:0:0:0:
256,188,12753,1,2,0:0:0:0:
256,188,12815,1,2,0:0:0:0:
256,188,12878,1,0,0:0:0:0:
256,188,12940,1,0,0:0:0:0:
256,188,13003,1,0,0:0:0:0:
256,188,13065,1,0,0:0:0:0:
256,188,13128,1,2,0:0:0:0:
256,188,13253,1,2,0:0:0:0:
256,188,13378,1,2,0:0:0:0:
256,188,13503,1,0,0:0:0:0:
256,188,13628,1,2,0:0:0:0:
256,188,13690,1,2,0:0:0:0:
256,188,13753,1,0,0:0:0:0:
256,188,13815,1,0,0:0:0:0:
256,188,13878,1,2,0:0:0:0:
256,188,14003,1,2,0:0:0:0:
256,188,14065,1,2,0:0:0:0:
256,188,14128,1,0,0:0:0:0:
256,188,14253,1,0,0:0:0:0:
256,188,14378,1,2,0:0:0:0:
256,188,14503,1,0,0:0:0:0:
256,188,14628,1,2,0:0:0:0:
256,188,14690,1,2,0:0:0:0:
256,188,14753,1,0,0:0:0:0:
256,188,14878,1,2,0:0:0:0:
256,188,15003,1,2,0:0:0:0:
256,188,15128,1,0,0:0:0:0:
256,188,15190,1,2,0:0:0:0:
256,188,15253,1,2,0:0:0:0:
256,188,15378,1,2,0:0:0:0:
256,188,15503,1,0,0:0:0:0:
256,188,15628,1,2,0:0:0:0:
256,188,15690,1,0,0:0:0:0:
256,188,15753,1,0,0:0:0:0:
256,188,15815,1,0,0:0:0:0:
256,188,15878,1,2,0:0:0:0:
256,188,15940,1,2,0:0:0:0:
256,188,16003,1,2,0:0:0:0:
256,188,16065,1,2,0:0:0:0:
256,188,16128,1,0,0:0:0:0:
256,188,16253,1,2,0:0:0:0:
256,188,16378,1,2,0:0:0:0:
256,188,16503,1,0,0:0:0:0:
256,188,16628,1,2,0:0:0:0:
256,188,16690,1,0,0:0:0:0:
256,188,16753,1,0,0:0:0:0:
256,188,16878,1,2,0:0:0:0:
256,188,17003,1,0,0:0:0:0:
256,188,17128,1,2,0:0:0:0:
256,188,17190,1,2,0:0:0:0:
256,188,17253,1,2,0:0:0:0:
256,188,17315,1,2,0:0:0:0:
256,188,17378,1,0,0:0:0:0:
256,188,17440,1,0,0:0:0:0:
256,188,17503,1,2,0:0:0:0:
256,188,17565,1,0,0:0:0:0:
256,188,17628,1,2,0:0:0:0:
256,188,17878,1,2,0:0:0:0:
256,188,18044,1,2,0:0:0:0:
256,188,18128,1,0,0:0:0:0:
256,188,18294,1,0,0:0:0:0:
256,188,18378,1,0,0:0:0:0:
256,188,18544,1,0,0:0:0:0:
256,188,18628,1,0,0:0:0:0:
256,188,18794,1,0,0:0:0:0:
256,188,18878,1,2,0:0:0:0:
256,188,19044,1,2,0:0:0:0:
256,188,19128,1,0,0:0:0:0:
256,188,19294,1,0,0:0:0:0:
256,188,19378,1,2,0:0:0:0:
256,188,19544,1,2,0:0:0:0:
256,188,19628,1,0,0:0:0:0:
256,188,19711,1,0,0:0:0:0:
256,188,19794,1,0,0:0:0:0:
256,188,19878,1,2,0:0:0:0:
256,188,19961,1,2,0:0:0:0:
256,188,20044,1,2,0:0:0:0:
256,188,20128,1,0,0:0:0:0:
256,188,20294,1,0,0:0:0:0:
256,188,20378,1,2,0:0:0:0:
256,188,20544,1,2,0:0:0:0:
256,188,20628,1,0,0:0:0:0:
256,188,20794,1,0,0:0:0:0:
256,188,20878,1,2,0:0:0:0:
256,188,21044,1,2,0:0:0:0:
256,188,21128,1,0,0:0:0:0:
256,188,21294,1,0,0:0:0:0:
256,188,21378,1,2,0:0:0:0:
256,188,21544,1,0,0:0:0:0:
256,188,21628,1,2,0:0:0:0:
256,188,21711,1,2,0:0:0:0:
256,188,21794,1,2,0:0:0:0:
256,188,21878,1,2,0:0:0:0:
256,188,22044,1,2,0:0:0:0:
256,188,22128,1,0,0:0:0:0:
256,188,22294,1,0,0:0:0:0:
256,188,22378,1,2,0:0:0:0:
256,188,22544,1,2,0:0:0:0:
256,188,22628,1,0,0:0:0:0:
256,188,22711,1,0,0:0:0:0:
256,188,22794,1,0,0:0:0:0:
256,188,22878,1,2,0:0:0:0:
256,188,23044,1,2,0:0:0:0:
256,188,23128,1,2,0:0:0:0:
256,188,23294,1,2,0:0:0:0:
256,188,23378,1,2,0:0:0:0:
256,188,23544,1,2,0:0:0:0:
256,188,23628,1,0,0:0:0:0:
256,188,23711,1,0,0:0:0:0:
256,188,23794,1,0,0:0:0:0:
256,188,23878,1,2,0:0:0:0:
256,188,23961,1,2,0:0:0:0:
256,188,24044,1,2,0:0:0:0:
256,188,24128,1,0,0:0:0:0:
256,188,24294,1,0,0:0:0:0:
256,188,24378,1,2,0:0:0:0:
256,188,24544,1,2,0:0:0:0:
256,188,24628,1,0,0:0:0:0:
256,188,24794,1,0,0:0:0:0:
256,188,24878,1,2,0:0:0:0:
256,188,25044,1,2,0:0:0:0:
256,188,25128,1,0,0:0:0:0:
256,188,25294,1,0,0:0:0:0:
256,188,25378,1,2,0:0:0:0:
256,188,25544,1,2,0:0:0:0:
256,188,25628,1,0,0:0:0:0:
256,188,25711,1,0,0:0:0:0:
256,188,25794,1,0,0:0:0:0:
256,188,25878,1,2,0:0:0:0:
256,188,25961,1,2,0:0:0:0:
256,188,26044,1,2,0:0:0:0:
256,188,26128,1,0,0:0:0:0:
256,188,26253,1,2,0:0:0:0:
256,188,26315,1,2,0:0:0:0:
256,188,26378,1,2,0:0:0:0:
256,188,26503,1,0,0:0:0:0:
256,188,26628,1,2,0:0:0:0:
256,188,26690,1,2,0:0:0:0:
256,188,26753,1,0,0:0:0:0:
256,188,26815,1,0,0:0:0:0:
256,188,26878,1,2,0:0:0:0:
256,188,27003,1,2,0:0:0:0:
256,188,27128,1,0,0:0:0:0:
256,188,27190,1,0,0:0:0:0:
256,188,27253,1,2,0:0:0:0:
256,188,27315,1,2,0:0:0:0:
256,188,27378,1,0,0:0:0:0:
256,188,27503,1,0,0:0:0:0:
256,188,27628,1,2,0:0:0:0:
256,188,27690,1,2,0:0:0:0:
256,188,27753,1,2,0:0:0:0:
256,188,27815,1,2,0:0:0:0:
256,188,27878,1,0,0:0:0:0:
256,188,27940,1,0,0:0:0:0:
256,188,28003,1,0,0:0:0:0:
256,188,28065,1,0,0:0:0:0:
256,188,28128,1,2,0:0:0:0:
256,188,28253,1,0,0:0:0:0:
256,188,28315,1,0,0:0:0:0:
256,188,28378,1,2,0:0:0:0:
256,188,28503,1,0,0:0:0:0:
256,188,28628,1,2,0:0:0:0:
256,188,28690,1,2,0:0:0:0:
256,188,28753,1,0,0:0:0:0:
256,188,28815,1,0,0:0:0:0:
256,188,28878,1,2,0:0:0:0:
256,188,29003,1,2,0:0:0:0:
256,188,29128,1,0,0:0:0:0:
256,188,29190,1,2,0:0:0:0:
256,188,29253,1,2,0:0:0:0:
256,188,29315,1,2,0:0:0:0:
256,188,29378,1,0,0:0:0:0:
256,188,29503,1,0,0:0:0:0:
256,188,29628,1,2,0:0:0:0:
256,188,29690,1,2,0:0:0:0:
256,188,29753,1,2,0:0:0:0:
256,188,29815,1,2,0:0:0:0:
256,188,29878,1,0,0:0:0:0:
256,188,29940,1,2,0:0:0:0:
256,188,30003,1,0,0:0:0:0:
256,188,30065,1,0,0:0:0:0:
256,188,30128,1,2,0:0:0:0:
256,188,30253,1,0,0:0:0:0:
256,188,30315,1,0,0:0:0:0:
256,188,30378,1,2,0:0:0:0:
256,188,30503,1,2,0:0:0:0:
256,188,30565,1,2,0:0:0:0:
256,188,30628,1,0,0:0:0:0:
256,188,30753,1,0,0:0:0:0:
256,188,30878,1,2,0:0:0:0:
256,188,30940,1,2,0:0:0:0:
256,188,31003,1,0,0:0:0:0:
256,188,31065,1,0,0:0:0:0:
256,188,31128,1,2,0:0:0:0:
256,188,31253,1,0,0:0:0:0:
256,188,31315,1,0,0:0:0:0:
256,188,31378,1,2,0:0:0:0:
256,188,31503,1,0,0:0:0:0:
256,188,31628,1,2,0:0:0:0:
256,188,31690,1,2,0:0:0:0:
256,188,31753,1,2,0:0:0:0:
256,188,31815,1,2,0:0:0:0:
256,188,31878,1,0,0:0:0:0:
256,188,31940,1,0,0:0:0:0:
256,188,32003,1,0,0:0:0:0:
256,188,32065,1,0,0:0:0:0:
256,188,32128,1,2,0:0:0:0:
256,188,32253,1,0,0:0:0:0:
256,188,32315,1,0,0:0:0:0:
256,188,32378,1,2,0:0:0:0:
256,188,32503,1,0,0:0:0:0:
256,188,32565,1,0,0:0:0:0:
256,188,32628,1,2,0:0:0:0:
256,188,32753,1,2,0:0:0:0:
256,188,32878,1,0,0:0:0:0:
256,188,33003,1,0,0:0:0:0:
256,188,33128,1,2,0:0:0:0:
256,188,33190,1,2,0:0:0:0:
256,188,33253,1,0,0:0:0:0:
256,188,33315,1,0,0:0:0:0:
256,188,33378,1,2,0:0:0:0:
256,188,33440,1,0,0:0:0:0:
256,188,33503,1,2,0:0:0:0:
256,188,33565,1,2,0:0:0:0:
256,188,33628,1,0,0:0:0:0:
256,188,33753,1,0,0:0:0:0:
256,188,33878,1,2,0:0:0:0:
256,188,34003,1,2,0:0:0:0:
256,188,34128,1,0,0:0:0:0:
256,188,34190,1,2,0:0:0:0:
256,188,34253,1,2,0:0:0:0:
256,188,34378,1,2,0:0:0:0:
256,188,34503,1,0,0:0:0:0:
256,188,34628,1,2,0:0:0:0:
256,188,34690,1,2,0:0:0:0:
256,188,34753,1,0,0:0:0:0:
256,188,34878,1,2,0:0:0:0:
256,188,35003,1,0,0:0:0:0:
256,188,35128,1,2,0:0:0:0:
256,188,35190,1,2,0:0:0:0:
256,188,35253,1,0,0:0:0:0:
256,188,35315,1,0,0:0:0:0:
256,188,35378,1,2,0:0:0:0:
256,188,35440,1,2,0:0:0:0:
256,188,35503,1,2,0:0:0:0:
256,188,35565,1,2,0:0:0:0:
256,188,35628,1,0,0:0:0:0:
256,188,35753,1,0,0:0:0:0:
256,188,35878,1,2,0:0:0:0:
256,188,36003,1,0,0:0:0:0:
256,188,36128,5,2,0:0:0:0:
256,188,36190,1,2,0:0:0:0:
256,188,36253,1,2,0:0:0:0:
256,188,36378,1,2,0:0:0:0:
256,188,36503,1,0,0:0:0:0:
256,188,36628,1,0,0:0:0:0:
256,188,36690,1,0,0:0:0:0:
256,188,36753,1,2,0:0:0:0:
256,188,36878,1,2,0:0:0:0:
256,188,37003,1,0,0:0:0:0:
256,188,37128,1,2,0:0:0:0:
256,188,37190,1,0,0:0:0:0:
256,188,37253,1,0,0:0:0:0:
256,188,37315,1,0,0:0:0:0:
256,188,37378,1,2,0:0:0:0:
256,188,37503,1,0,0:0:0:0:
256,188,37565,1,0,0:0:0:0:
256,188,37628,1,2,0:0:0:0:
256,188,37690,1,2,0:0:0:0:
256,188,37753,1,2,0:0:0:0:
256,188,37815,1,2,0:0:0:0:
256,188,37878,1,0,0:0:0:0:
256,188,37940,1,0,0:0:0:0:
256,188,38003,1,0,0:0:0:0:
256,188,38065,1,0,0:0:0:0:
256,188,38128,1,2,0:0:0:0:
256,188,38253,5,2,0:0:0:0:
256,188,38378,1,2,0:0:0:0:
256,188,38503,1,0,0:0:0:0:
256,188,38628,1,2,0:0:0:0:
256,188,38690,1,2,0:0:0:0:
256,188,38753,1,0,0:0:0:0:
256,188,38815,1,0,0:0:0:0:
256,188,38878,1,2,0:0:0:0:
256,188,38940,1,0,0:0:0:0:
256,188,39003,1,0,0:0:0:0:
256,188,39065,1,0,0:0:0:0:
256,188,39128,1,2,0:0:0:0:
256,188,39253,1,2,0:0:0:0:
256,188,39378,1,0,0:0:0:0:
256,188,39503,1,0,0:0:0:0:
256,188,39628,1,2,0:0:0:0:
256,188,39690,1,0,0:0:0:0:
256,188,39753,1,0,0:0:0:0:
256,188,39815,1,0,0:0:0:0:
256,188,39878,1,2,0:0:0:0:
256,188,39940,1,2,0:0:0:0:
256,188,40003,1,2,0:0:0:0:
256,188,40065,1,2,0:0:0:0:
256,188,40128,1,0,0:0:0:0:
256,188,40253,1,0,0:0:0:0:
256,188,40315,1,0,0:0:0:0:
256,188,40378,1,2,0:0:0:0:
256,188,40503,1,0,0:0:0:0:
256,188,40565,1,0,0:0:0:0:
256,188,40628,1,2,0:0:0:0:
256,188,40753,1,2,0:0:0:0:
256,188,40878,1,0,0:0:0:0:
256,188,41003,1,0,0:0:0:0:
256,188,41128,1,2,0:0:0:0:
256,188,41190,1,2,0:0:0:0:
256,188,41253,1,0,0:0:0:0:
256,188,41315,1,0,0:0:0:0:
256,188,41378,1,2,0:0:0:0:
256,188,41440,1,2,0:0:0:0:
256,188,41503,1,2,0:0:0:0:
256,188,41565,1,2,0:0:0:0:
256,188,41628,1,0,0:0:0:0:
256,188,41753,1,0,0:0:0:0:
256,188,41878,1,2,0:0:0:0:
256,188,42003,1,0,0:0:0:0:
256,188,42128,1,2,0:0:0:0:
256,188,42190,1,2,0:0:0:0:
256,188,42253,1,2,0:0:0:0:
256,188,42378,1,2,0:0:0:0:
256,188,42503,1,0,0:0:0:0:
256,188,42628,1,0,0:0:0:0:
256,188,42690,1,0,0:0:0:0:
256,188,42753,1,2,0:0:0:0:
256,188,42878,1,2,0:0:0:0:
256,188,43003,1,0,0:0:0:0:
256,188,43253,1,2,0:0:0:0:
256,188,43315,1,2,0:0:0:0:
256,188,43378,1,2,0:0:0:0:
256,188,43503,1,0,0:0:0:0:
256,188,43628,1,0,0:0:0:0:
256,188,43690,1,0,0:0:0:0:
256,188,43753,1,0,0:0:0:0:
256,188,43815,1,0,0:0:0:0:
256,188,43878,1,2,0:0:0:0:
256,188,44003,1,2,0:0:0:0:
256,188,44065,1,2,0:0:0:0:
256,188,44128,1,0,0:0:0:0:
256,188,44253,1,0,0:0:0:0:
256,188,44315,1,0,0:0:0:0:
256,188,44378,1,2,0:0:0:0:
256,188,44503,1,0,0:0:0:0:
256,188,44628,1,2,0:0:0:0:
256,188,44690,1,2,0:0:0:0:
256,188,44753,1,0,0:0:0:0:
256,188,44815,1,0,0:0:0:0:
256,188,44878,1,2,0:0:0:0:
256,188,45003,1,0,0:0:0:0:
256,188,45128,1,0,0:0:0:0:
256,188,45190,1,0,0:0:0:0:
256,188,45253,1,2,0:0:0:0:
256,188,45315,1,2,0:0:0:0:
256,188,45378,1,0,0:0:0:0:
256,188,45503,1,0,0:0:0:0:
256,188,45628,1,0,0:0:0:0:
256,188,45690,1,0,0:0:0:0:
256,188,45753,1,0,0:0:0:0:
256,188,45815,1,0,0:0:0:0:
256,188,45878,1,2,0:0:0:0:
256,188,45940,1,0,0:0:0:0:
256,188,46003,1,0,0:0:0:0:
256,188,46065,1,0,0:0:0:0:
256,188,46128,1,2,0:0:0:0:
256,188,46253,1,0,0:0:0:0:
256,188,46378,1,0,0:0:0:0:
256,188,46503,1,2,0:0:0:0:
256,188,46628,1,0,0:0:0:0:
256,188,46690,1,0,0:0:0:0:
256,188,46753,1,0,0:0:0:0:
256,188,46815,1,0,0:0:0:0:
256,188,46878,1,2,0:0:0:0:
256,188,47003,1,0,0:0:0:0:
256,188,47128,1,2,0:0:0:0:
256,188,47190,1,2,0:0:0:0:
256,188,47253,1,0,0:0:0:0:
256,188,47315,1,0,0:0:0:0:
256,188,47378,1,2,0:0:0:0:
256,188,47503,1,0,0:0:0:0:
256,188,47628,1,0,0:0:0:0:
256,188,47690,1,0,0:0:0:0:
256,188,47753,1,0,0:0:0:0:
256,188,47815,1,0,0:0:0:0:
256,188,47878,1,2,0:0:0:0:
256,188,47940,1,0,0:0:0:0:
256,188,48003,1,0,0:0:0:0:
256,188,48065,1,0,0:0:0:0:
256,188,48128,1,2,0:0:0:0:
256,188,48253,1,0,0:0:0:0:
256,188,48378,1,2,0:0:0:0:
256,188,48503,1,0,0:0:0:0:
256,188,48628,1,2,0:0:0:0:
256,188,48690,1,2,0:0:0:0:
256,188,48753,1,0,0:0:0:0:
256,188,48815,1,0,0:0:0:0:
256,188,48878,1,2,0:0:0:0:
256,188,49003,1,0,0:0:0:0:
256,188,49128,1,0,0:0:0:0:
256,188,49190,1,0,0:0:0:0:
256,188,49253,1,0,0:0:0:0:
256,188,49315,1,0,0:0:0:0:
256,188,49378,1,2,0:0:0:0:
256,188,49440,1,2,0:0:0:0:
256,188,49503,1,0,0:0:0:0:
256,188,49628,1,2,0:0:0:0:
256,188,49690,1,2,0:0:0:0:
256,188,49753,1,2,0:0:0:0:
256,188,49815,1,2,0:0:0:0:
256,188,49878,1,0,0:0:0:0:
256,188,49940,1,0,0:0:0:0:
256,188,50003,1,0,0:0:0:0:
256,188,50065,1,0,0:0:0:0:
256,188,50128,1,2,0:0:0:0:
256,188,50378,1,0,0:0:0:0:
256,188,50628,1,0,0:0:0:0:
256,188,50878,1,0,0:0:0:0:
256,188,51128,1,0,0:0:0:0:
256,188,51253,1,2,0:0:0:0:
256,188,51378,1,2,0:0:0:0:
256,188,51503,1,0,0:0:0:0:
256,188,51628,1,2,0:0:0:0:
256,188,51753,1,2,0:0:0:0:
256,188,51878,1,0,0:0:0:0:
256,188,52003,1,2,0:0:0:0:
256,188,52128,1,0,0:0:0:0:
256,188,52378,1,0,0:0:0:0:
256,188,52628,1,0,0:0:0:0:
256,188,52878,1,0,0:0:0:0:
256,188,53128,1,0,0:0:0:0:
256,188,53253,1,2,0:0:0:0:
256,188,53378,1,2,0:0:0:0:
256,188,53503,1,0,0:0:0:0:
256,188,53628,1,2,0:0:0:0:
256,188,53690,1,2,0:0:0:0:
256,188,53753,1,2,0:0:0:0:
256,188,53815,1,2,0:0:0:0:
256,188,53878,1,2,0:0:0:0:
256,188,53940,1,2,0:0:0:0:
256,188,54003,1,2,0:0:0:0:
256,188,54065,1,2,0:0:0:0:
256,188,54128,1,0,0:0:0:0:
256,188,54253,1,2,0:0:0:0:
256,188,54315,1,2,0:0:0:0:
256,188,54378,1,0,0:0:0:0:
256,188,54503,1,0,0:0:0:0:
256,188,54628,1,2,0:0:0:0:
256,188,54690,1,2,0:0:0:0:
256,188,54753,1,0,0:0:0:0:
256,188,54815,1,0,0:0:0:0:
256,188,54878,1,2,0:0:0:0:
256,188,55003,1,0,0:0:0:0:
256,188,55128,1,0,0:0:0:0:
256,188,55190,1,2,0:0:0:0:
256,188,55253,1,0,0:0:0:0:
256,188,55315,1,0,0:0:0:0:
256,188,55378,1,2,0:0:0:0:
256,188,55440,1,0,0:0:0:0:
256,188,55503,1,0,0:0:0:0:
256,188,55565,1,2,0:0:0:0:
256,188,55628,1,0,0:0:0:0:
256,188,55753,1,2,0:0:0:0:
256,188,55878,1,2,0:0:0:0:
256,188,56003,1,0,0:0:0:0:
256,188,56128,1,2,0:0:0:0:
256,188,56190,1,2,0:0:0:0:
256,188,56253,1,0,0:0:0:0:
256,188,56315,1,0,0:0:0:0:
256,188,56378,1,2,0:0:0:0:
256,188,56440,1,2,0:0:0:0:
256,188,56503,1,2,0:0:0:0:
256,188,56565,1,2,0:0:0:0:
256,188,56628,1,0,0:0:0:0:
256,188,56753,1,0,0:0:0:0:
256,188,56878,1,2,0:0:0:0:
256,188,57003,1,0,0:0:0:0:
256,188,57128,1,0,0:0:0:0:
256,188,57190,1,0,0:0:0:0:
256,188,57253,1,0,0:0:0:0:
256,188,57315,1,0,0:0:0:0:
256,188,57378,1,2,0:0:0:0:
256,188,57440,1,2,0:0:0:0:
256,188,57503,1,0,0:0:0:0:
256,188,57565,1,0,0:0:0:0:
256,188,57628,1,2,0:0:0:0:
256,188,57753,1,2,0:0:0:0:
256,188,57878,1,0,0:0:0:0:
256,188,58003,1,0,0:0:0:0:
256,188,58128,1,2,0:0:0:0:
256,188,58378,1,2,0:0:0:0:
256,188,58565,1,2,0:0:0:0:
256,188,58628,1,0,0:0:0:0:
256,188,58753,1,0,0:0:0:0:
256,188,58878,1,2,0:0:0:0:
256,188,59003,1,2,0:0:0:0:
256,188,59128,1,0,0:0:0:0:
256,188,59190,1,0,0:0:0:0:
256,188,59253,1,0,0:0:0:0:
256,188,59315,1,0,0:0:0:0:
256,188,59378,1,2,0:0:0:0:
256,188,59440,1,2,0:0:0:0:
256,188,59503,1,0,0:0:0:0:
256,188,59628,1,2,0:0:0:0:
256,188,59690,1,0,0:0:0:0:
256,188,59753,1,0,0:0:0:0:
256,188,59815,1,0,0:0:0:0:
256,188,59878,1,2,0:0:0:0:
256,188,60003,1,2,0:0:0:0:
256,188,60128,1,2,0:0:0:0:
256,188,60190,1,2,0:0:0:0:
256,188,60253,1,0,0:0:0:0:
256,188,60378,1,2,0:0:0:0:
256,188,60503,1,2,0:0:0:0:
256,188,60628,1,0,0:0:0:0:
256,188,60690,1,0,0:0:0:0:
256,188,60753,1,0,0:0:0:0:
256,188,60815,1,0,0:0:0:0:
256,188,60878,1,2,0:0:0:0:
256,188,60940,1,0,0:0:0:0:
256,188,61003,1,2,0:0:0:0:
256,188,61065,1,2,0:0:0:0:
256,188,61128,1,0,0:0:0:0:
256,188,61253,1,2,0:0:0:0:
256,188,61378,1,2,0:0:0:0:
256,188,61503,1,0,0:0:0:0:
256,188,61628,1,2,0:0:0:0:
256,188,61690,1,2,0:0:0:0:
256,188,61753,1,0,0:0:0:0:
256,188,61815,1,0,0:0:0:0:
256,188,61878,1,2,0:0:0:0:
256,188,61940,1,2,0:0:0:0:
256,188,62003,1,2,0:0:0:0:
256,188,62065,1,2,0:0:0:0:
256,188,62128,1,0,0:0:0:0:
256,188,62253,1,2,0:0:0:0:
256,188,62378,1,2,0:0:0:0:
256,188,62503,1,0,0:0:0:0:
256,188,62628,1,0,0:0:0:0:
256,188,62690,1,0,0:0:0:0:
256,188,62753,1,0,0:0:0:0:
256,188,62815,1,0,0:0:0:0:
256,188,62878,1,2,0:0:0:0:
256,188,63003,1,0,0:0:0:0:
256,188,63128,1,2,0:0:0:0:
256,188,63190,1,2,0:0:0:0:
256,188,63253,1,2,0:0:0:0:
256,188,63315,1,2,0:0:0:0:
256,188,63378,1,0,0:0:0:0:
256,188,63503,1,0,0:0:0:0:
256,188,63628,1,2,0:0:0:0:
256,188,63753,1,2,0:0:0:0:
256,188,63878,1,0,0:0:0:0:
256,188,64003,1,0,0:0:0:0:
256,188,64128,1,0,0:0:0:0:
256,188,64190,1,0,0:0:0:0:
256,188,64253,1,0,0:0:0:0:
256,188,64315,1,0,0:0:0:0:
256,188,64378,1,2,0:0:0:0:
256,188,64440,1,2,0:0:0:0:
256,188,64503,1,2,0:0:0:0:
256,188,64565,1,2,0:0:0:0:
256,188,64628,1,0,0:0:0:0:
256,188,64690,1,0,0:0:0:0:
256,188,64753,1,0,0:0:0:0:
256,188,64815,1,0,0:0:0:0:
256,188,64878,1,2,0:0:0:0:
256,188,64940,1,2,0:0:0:0:
256,188,65003,1,2,0:0:0:0:
256,188,65065,1,2,0:0:0:0:
256,188,65128,1,0,0:0:0:0:
256,188,65378,1,12,0:0:0:0:
256,188,65565,1,2,0:0:0:0:
256,188,65628,1,0,0:0:0:0:
256,188,65753,1,0,0:0:0:0:
256,188,65878,1,2,0:0:0:0:
256,188,66003,5,2,0:0:0:0:
256,188,66128,1,0,0:0:0:0:
256,188,66190,1,0,0:0:0:0:
256,188,66253,1,0,0:0:0:0:
256,188,66378,1,2,0:0:0:0:
256,188,66503,1,0,0:0:0:0:
256,188,66628,1,2,0:0:0:0:
256,188,66690,1,2,0:0:0:0:
256,188,66753,1,2,0:0:0:0:
256,188,66878,1,2,0:0:0:0:
256,188,67003,1,0,0:0:0:0:
256,188,67128,1,2,0:0:0:0:
256,188,67190,1,2,0:0:0:0:
256,188,67253,1,0,0:0:0:0:
256,188,67315,1,0,0:0:0:0:
256,188,67378,1,2,0:0:0:0:
256,188,67503,1,0,0:0:0:0:
256,188,67628,1,2,0:0:0:0:
256,188,67690,1,2,0:0:0:0:
256,188,67753,1,2,0:0:0:0:
256,188,67815,1,2,0:0:0:0:
256,188,67878,1,0,0:0:0:0:
256,188,67940,1,0,0:0:0:0:
256,188,68003,1,0,0:0:0:0:
256,188,68065,1,0,0:0:0:0:
256,188,68128,1,2,0:0:0:0:
256,188,68253,1,2,0:0:0:0:
256,188,68378,1,2,0:0:0:0:
256,188,68503,1,0,0:0:0:0:
256,188,68628,1,0,0:0:0:0:
256,188,68690,1,2,0:0:0:0:
256,188,68753,1,0,0:0:0:0:
256,188,68815,1,0,0:0:0:0:
256,188,68878,1,2,0:0:0:0:
256,188,69003,1,2,0:0:0:0:
256,188,69128,1,0,0:0:0:0:
256,188,69253,1,0,0:0:0:0:
256,188,69378,1,2,0:0:0:0:
256,188,69503,1,0,0:0:0:0:
256,188,69628,1,2,0:0:0:0:
256,188,69690,1,2,0:0:0:0:
256,188,69753,1,2,0:0:0:0:
256,188,69815,1,2,0:0:0:0:
256,188,69878,1,0,0:0:0:0:
256,188,69940,1,0,0:0:0:0:
256,188,70003,1,0,0:0:0:0:
256,188,70065,1,0,0:0:0:0:
256,188,70128,1,2,0:0:0:0:
256,188,70294,1,0,0:0:0:0:
256,188,70378,1,0,0:0:0:0:
256,188,70544,1,2,0:0:0:0:
256,188,70628,1,0,0:0:0:0:
256,188,70794,1,0,0:0:0:0:
256,188,70878,1,2,0:0:0:0:
256,188,71044,1,2,0:0:0:0:
256,188,71128,1,0,0:0:0:0:
256,188,71294,1,0,0:0:0:0:
256,188,71378,1,2,0:0:0:0:
256,188,71544,1,2,0:0:0:0:
256,188,71628,1,0,0:0:0:0:
256,188,71711,1,0,0:0:0:0:
256,188,71794,1,0,0:0:0:0:
256,188,71878,1,2,0:0:0:0:
256,188,71961,1,2,0:0:0:0:
256,188,72044,1,2,0:0:0:0:
256,188,72128,1,0,0:0:0:0:
256,188,72294,1,0,0:0:0:0:
256,188,72378,1,2,0:0:0:0:
256,188,72544,1,2,0:0:0:0:
256,188,72628,1,0,0:0:0:0:
256,188,72711,1,0,0:0:0:0:
256,188,72794,1,0,0:0:0:0:
256,188,72878,1,2,0:0:0:0:
256,188,73044,1,2,0:0:0:0:
256,188,73128,1,0,0:0:0:0:
256,188,73294,1,0,0:0:0:0:
256,188,73378,1,2,0:0:0:0:
256,188,73544,1,0,0:0:0:0:
256,188,73628,1,2,0:0:0:0:
256,188,73690,1,2,0:0:0:0:
256,188,73753,1,2,0:0:0:0:
256,188,73815,1,2,0:0:0:0:
256,188,73878,1,0,0:0:0:0:
256,188,73940,1,0,0:0:0:0:
256,188,74003,1,0,0:0:0:0:
256,188,74065,1,0,0:0:0:0:
256,188,74128,1,2,0:0:0:0:
256,188,74253,1,0,0:0:0:0:
256,188,74315,1,0,0:0:0:0:
256,188,74378,1,2,0:0:0:0:
256,188,74503,1,0,0:0:0:0:
256,188,74628,1,2,0:0:0:0:
256,188,74690,1,2,0:0:0:0:
256,188,74753,1,0,0:0:0:0:
256,188,74815,1,0,0:0:0:0:
256,188,74878,1,2,0:0:0:0:
256,188,75003,1,0,0:0:0:0:
256,188,75128,1,0,0:0:0:0:
256,188,75190,1,0,0:0:0:0:
256,188,75253,1,0,0:0:0:0:
256,188,75315,1,0,0:0:0:0:
256,188,75378,1,2,0:0:0:0:
256,188,75503,1,0,0:0:0:0:
256,188,75628,1,2,0:0:0:0:
256,188,75690,1,2,0:0:0:0:
256,188,75753,1,2,0:0:0:0:
256,188,75815,1,2,0:0:0:0:
256,188,75878,1,2,0:0:0:0:
256,188,76003,1,2,0:0:0:0:
256,188,76065,1,2,0:0:0:0:
256,188,76128,1,0,0:0:0:0:
256,188,76253,1,0,0:0:0:0:
256,188,76378,1,2,0:0:0:0:
256,188,76503,1,0,0:0:0:0:
256,188,76628,1,2,0:0:0:0:
256,188,76690,1,2,0:0:0:0:
256,188,76753,1,0,0:0:0:0:
256,188,76815,1,0,0:0:0:0:
256,188,76878,1,2,0:0:0:0:
256,188,77003,1,0,0:0:0:0:
256,188,77128,1,2,0:0:0:0:
256,188,77190,1,2,0:0:0:0:
256,188,77253,1,2,0:0:0:0:
256,188,77315,1,2,0:0:0:0:
256,188,77378,1,0,0:0:0:0:
256,188,77440,1,0,0:0:0:0:
256,188,77503,1,2,0:0:0:0:
256,188,77565,1,2,0:0:0:0:
256,188,77628,1,0,0:0:0:0:
256,188,77878,1,2,0:0:0:0:
256,188,78003,1,2,0:0:0:0:
256,188,78128,1,0,0:0:0:0:
256,188,78190,1,0,0:0:0:0:
256,188,78253,1,0,0:0:0:0:
256,188,78315,1,0,0:0:0:0:
256,188,78378,1,0,0:0:0:0:
256,188,78503,1,0,0:0:0:0:
256,188,78628,1,2,0:0:0:0:
256,188,78690,1,2,0:0:0:0:
256,188,78753,1,0,0:0:0:0:
256,188,78815,1,0,0:0:0:0:
256,188,78878,1,2,0:0:0:0:
256,188,79003,1,0,0:0:0:0:
256,188,79128,1,2,0:0:0:0:
256,188,79190,1,2,0:0:0:0:
256,188,79253,1,2,0:0:0:0:
256,188,79315,1,2,0:0:0:0:
256,188,79378,1,0,0:0:0:0:
256,188,79440,1,0,0:0:0:0:
256,188,79503,1,0,0:0:0:0:
256,188,79565,1,0,0:0:0:0:
256,188,79628,1,2,0:0:0:0:
256,188,79753,1,2,0:0:0:0:
256,188,79815,1,2,0:0:0:0:
256,188,79878,1,2,0:0:0:0:
256,188,80003,1,2,0:0:0:0:
256,188,80128,1,0,0:0:0:0:
256,188,80378,1,2,0:0:0:0:
256,188,80503,1,2,0:0:0:0:
256,188,80753,1,2,0:0:0:0:
256,188,80878,1,0,0:0:0:0:
256,188,80940,1,0,0:0:0:0:
256,188,81003,1,0,0:0:0:0:
256,188,81065,1,0,0:0:0:0:
256,188,81128,1,2,0:0:0:0:
256,188,81378,1,2,0:0:0:0:
256,188,81503,1,2,0:0:0:0:
256,188,81628,1,2,0:0:0:0:
256,188,81690,1,2,0:0:0:0:
256,188,81753,1,0,0:0:0:0:
256,188,81878,1,2,0:0:0:0:
256,188,81940,1,2,0:0:0:0:
256,188,82003,1,0,0:0:0:0:
256,188,82128,1,0,0:0:0:0:
256,188,82190,1,0,0:0:0:0:
256,188,82253,1,0,0:0:0:0:
256,188,82315,1,0,0:0:0:0:
256,188,82378,1,2,0:0:0:0:
256,188,82503,1,2,0:0:0:0:
256,188,82628,5,2,0:0:0:0:
256,188,82690,1,0,0:0:0:0:
256,188,82753,1,0,0:0:0:0:
256,188,82815,1,0,0:0:0:0:
256,188,82878,1,2,0:0:0:0:
256,188,83003,1,0,0:0:0:0:
256,188,83128,1,2,0:0:0:0:
256,188,83190,1,2,0:0:0:0:
256,188,83253,1,2,0:0:0:0:
256,188,83315,1,2,0:0:0:0:
256,188,83378,1,0,0:0:0:0:
256,188,83440,1,0,0:0:0:0:
256,188,83503,1,0,0:0:0:0:
256,188,83565,1,0,0:0:0:0:
256,188,83628,1,2,0:0:0:0:
256,188,83753,1,2,0:0:0:0:
256,188,83815,1,2,0:0:0:0:
256,188,83878,1,2,0:0:0:0:
256,188,84003,1,2,0:0:0:0:
256,188,84128,1,0,0:0:0:0:
256,188,84190,1,2,0:0:0:0:
256,188,84253,1,2,0:0:0:0:
256,188,84315,1,2,0:0:0:0:
256,188,84378,1,0,0:0:0:0:
256,188,84440,1,2,0:0:0:0:
256,188,84503,1,2,0:0:0:0:
256,188,84565,1,2,0:0:0:0:
256,188,84628,1,0,0:0:0:0:
256,188,84753,1,2,0:0:0:0:
256,188,84815,1,2,0:0:0:0:
256,188,84878,1,0,0:0:0:0:
256,188,84940,1,0,0:0:0:0:
256,188,85003,1,0,0:0:0:0:
256,188,85065,1,0,0:0:0:0:
256,188,85128,1,2,0:0:0:0:
256,188,85253,1,2,0:0:0:0:
256,188,85378,1,2,0:0:0:0:
256,188,85503,1,0,0:0:0:0:
256,188,85628,1,0,0:0:0:0:
256,188,85690,1,0,0:0:0:0:
256,188,85753,1,2,0:0:0:0:
256,188,85815,1,2,0:0:0:0:
256,188,85878,1,0,0:0:0:0:
256,188,86003,1,2,0:0:0:0:
256,188,86065,1,2,0:0:0:0:
256,188,86128,1,0,0:0:0:0:
256,188,86253,1,0,0:0:0:0:
256,188,86378,1,2,0:0:0:0:
256,188,86503,1,0,0:0:0:0:
256,188,86628,1,2,0:0:0:0:
256,188,86690,1,2,0:0:0:0:
256,188,86753,1,2,0:0:0:0:
256,188,86878,1,2,0:0:0:0:
256,188,86940,1,2,0:0:0:0:
256,188,87003,1,2,0:0:0:0:
256,188,87128,1,0,0:0:0:0:
256,188,87253,1,0,0:0:0:0:
256,188,87378,1,2,0:0:0:0:
256,188,87503,1,0,0:0:0:0:
256,188,87628,1,2,0:0:0:0:
256,188,87690,1,2,0:0:0:0:
256,188,87753,1,2,0:0:0:0:
256,188,87815,1,2,0:0:0:0:
256,188,87878,1,2,0:0:0:0:
256,188,87940,1,2,0:0:0:0:
256,188,88003,1,2,0:0:0:0:
256,188,88065,1,2,0:0:0:0:
256,188,88128,1,0,0:0:0:0:
256,188,88253,1,0,0:0:0:0:
256,188,88378,1,2,0:0:0:0:
256,188,88503,1,2,0:0:0:0:
256,188,88628,1,0,0:0:0:0:
256,188,88753,1,0,0:0:0:0:
256,188,88878,1,2,0:0:0:0:
256,188,89003,1,0,0:0:0:0:
256,188,89128,1,2,0:0:0:0:
256,188,89190,1,2,0:0:0:0:
256,188,89253,1,2,0:0:0:0:
256,188,89315,1,2,0:0:0:0:
256,188,89378,1,0,0:0:0:0:
256,188,89503,1,2,0:0:0:0:
256,188,89565,1,2,0:0:0:0:
256,188,89628,1,0,0:0:0:0:
256,188,89690,1,0,0:0:0:0:
256,188,89753,1,0,0:0:0:0:
256,188,89815,1,0,0:0:0:0:
256,188,89878,1,2,0:0:0:0:
256,188,89940,1,2,0:0:0:0:
256,188,90003,1,2,0:0:0:0:
256,188,90065,1,2,0:0:0:0:
256,188,90128,1,0,0:0:0:0:
256,188,90253,1,2,0:0:0:0:
256,188,90315,1,2,0:0:0:0:
256,188,90378,1,0,0:0:0:0:
256,188,90503,1,2,0:0:0:0:
256,188,90565,1,0,0:0:0:0:
256,188,90628,1,0,0:0:0:0:
256,188,90690,1,0,0:0:0:0:
256,188,90753,5,0,0:0:0:0:
256,188,90815,1,0,0:0:0:0:
256,188,90878,1,2,0:0:0:0:
256,188,91003,1,2,0:0:0:0:
256,188,91065,1,2,0:0:0:0:
256,188,91128,1,0,0:0:0:0:
256,188,91253,1,0,0:0:0:0:
256,188,91315,1,0,0:0:0:0:
256,188,91378,1,2,0:0:0:0:
256,188,91503,1,0,0:0:0:0:
256,188,91628,1,2,0:0:0:0:
256,188,91690,1,2,0:0:0:0:
256,188,91753,1,0,0:0:0:0:
256,188,91815,1,0,0:0:0:0:
256,188,91878,1,2,0:0:0:0:
256,188,91940,1,0,0:0:0:0:
256,188,92003,1,2,0:0:0:0:
256,188,92065,1,2,0:0:0:0:
256,188,92128,1,0,0:0:0:0:
256,188,92253,1,0,0:0:0:0:
256,188,92315,1,0,0:0:0:0:
256,188,92378,1,2,0:0:0:0:
256,188,92503,1,2,0:0:0:0:
256,188,92565,1,2,0:0:0:0:
256,188,92628,1,0,0:0:0:0:
256,188,92753,1,0,0:0:0:0:
256,188,92815,1,0,0:0:0:0:
256,188,92878,1,2,0:0:0:0:
256,188,93003,1,2,0:0:0:0:
256,188,93128,1,0,0:0:0:0:
256,188,93190,1,0,0:0:0:0:
256,188,93253,1,0,0:0:0:0:
256,188,93315,1,0,0:0:0:0:
256,188,93378,1,2,0:0:0:0:
256,188,93440,1,0,0:0:0:0:
256,188,93503,1,0,0:0:0:0:
256,188,93565,1,0,0:0:0:0:
256,188,93628,1,2,0:0:0:0:
256,188,93690,1,2,0:0:0:0:
256,188,93753,1,2,0:0:0:0:
256,188,93815,1,2,0:0:0:0:
256,188,93878,1,2,0:0:0:0:
256,188,93940,1,2,0:0:0:0:
256,188,94003,1,2,0:0:0:0:
256,188,94065,1,2,0:0:0:0:
256,188,94128,1,0,0:0:0:0:
256,188,94253,1,2,0:0:0:0:
256,188,94315,1,2,0:0:0:0:
256,188,94378,1,2,0:0:0:0:
256,188,94503,1,0,0:0:0:0:
256,188,94628,1,2,0:0:0:0:
256,188,94690,1,2,0:0:0:0:
256,188,94753,1,0,0:0:0:0:
256,188,94815,1,0,0:0:0:0:
256,188,94878,1,2,0:0:0:0:
256,188,95003,1,0,0:0:0:0:
256,188,95065,1,0,0:0:0:0:
256,188,95128,1,2,0:0:0:0:
256,188,95253,1,2,0:0:0:0:
256,188,95315,1,0,0:0:0:0:
256,188,95378,1,2,0:0:0:0:
256,188,95503,1,2,0:0:0:0:
256,188,95565,1,2,0:0:0:0:
256,188,95628,1,0,0:0:0:0:
256,188,95690,1,0,0:0:0:0:
256,188,95753,1,0,0:0:0:0:
256,188,95815,1,0,0:0:0:0:
256,188,95878,1,2,0:0:0:0:
256,188,95940,1,2,0:0:0:0:
256,188,96003,1,2,0:0:0:0:
256,188,96065,1,2,0:0:0:0:
256,188,96128,1,0,0:0:0:0:
256,188,96253,1,0,0:0:0:0:
256,188,96315,1,0,0:0:0:0:
256,188,96378,1,2,0:0:0:0:
256,188,96503,1,0,0:0:0:0:
256,188,96628,1,2,0:0:0:0:
256,188,96690,1,0,0:0:0:0:
256,188,96753,1,0,0:0:0:0:
256,188,96815,1,0,0:0:0:0:
256,188,96878,1,2,0:0:0:0:
256,188,97003,1,0,0:0:0:0:
256,188,97128,1,2,0:0:0:0:
256,188,97190,1,2,0:0:0:0:
256,188,97253,1,0,0:0:0:0:
256,188,97315,1,0,0:0:0:0:
256,188,97378,1,2,0:0:0:0:
256,188,97503,1,0,0:0:0:0:
256,188,97628,1,2,0:0:0:0:
256,188,97690,1,2,0:0:0:0:
256,188,97753,1,0,0:0:0:0:
256,188,97878,1,2,0:0:0:0:
256,188,97940,1,2,0:0:0:0:
256,188,98003,1,0,0:0:0:0:
256,188,98128,1,0,0:0:0:0:
256,188,98190,1,0,0:0:0:0:
256,188,98253,1,0,0:0:0:0:
256,188,98315,1,0,0:0:0:0:
256,188,98378,1,2,0:0:0:0:
256,188,98503,1,0,0:0:0:0:
256,188,98628,1,2,0:0:0:0:
256,188,98690,1,2,0:0:0:0:
256,188,98753,1,0,0:0:0:0:
256,188,98815,1,0,0:0:0:0:
256,188,98878,1,2,0:0:0:0:
256,188,98940,1,0,0:0:0:0:
256,188,99003,1,0,0:0:0:0:
256,188,99065,1,0,0:0:0:0:
256,188,99128,1,2,0:0:0:0:
256,188,99253,1,0,0:0:0:0:
256,188,99315,1,0,0:0:0:0:
256,188,99378,1,2,0:0:0:0:
256,188,99503,1,0,0:0:0:0:
256,188,99628,1,2,0:0:0:0:
256,188,99690,1,2,0:0:0:0:
256,188,99753,1,0,0:0:0:0:
256,188,99815,1,0,0:0:0:0:
256,188,99878,1,2,0:0:0:0:
256,188,99940,1,0,0:0:0:0:
256,188,100003,1,2,0:0:0:0:
256,188,100065,1,2,0:0:0:0:
256,188,100128,1,0,0:0:0:0:
256,188,100253,1,2,0:0:0:0:
256,188,100315,1,2,0:0:0:0:
256,188,100378,1,0,0:0:0:0:
256,188,100503,1,0,0:0:0:0:
256,188,100565,1,0,0:0:0:0:
256,188,100628,1,2,0:0:0:0:
256,188,100753,1,2,0:0:0:0:
256,188,100878,1,0,0:0:0:0:
256,188,101003,1,0,0:0:0:0:
256,188,101065,1,0,0:0:0:0:
256,188,101128,1,2,0:0:0:0:
256,188,101253,1,2,0:0:0:0:
256,188,101378,1,0,0:0:0:0:
256,188,101503,1,0,0:0:0:0:
256,188,101628,1,2,0:0:0:0:
256,188,101690,1,2,0:0:0:0:
256,188,101753,1,0,0:0:0:0:
256,188,101815,1,0,0:0:0:0:
256,188,101878,1,2,0:0:0:0:
256,188,101940,1,2,0:0:0:0:
256,188,102003,1,2,0:0:0:0:
256,188,102065,1,2,0:0:0:0:
256,188,102128,1,0,0:0:0:0:
256,188,102253,1,0,0:0:0:0:
256,188,102378,1,2,0:0:0:0:
256,188,102503,1,0,0:0:0:0:
256,188,102628,1,2,0:0:0:0:
256,188,102690,1,2,0:0:0:0:
256,188,102753,1,0,0:0:0:0:
256,188,102815,1,0,0:0:0:0:
256,188,102878,1,2,0:0:0:0:
256,188,103003,1,0,0:0:0:0:
256,188,103065,1,0,0:0:0:0:
256,188,103128,1,2,0:0:0:0:
256,188,103253,1,2,0:0:0:0:
256,188,103378,1,0,0:0:0:0:
256,188,103503,1,0,0:0:0:0:
256,188,103628,1,2,0:0:0:0:
256,188,103690,1,0,0:0:0:0:
256,188,103753,1,0,0:0:0:0:
256,188,103815,1,0,0:0:0:0:
256,188,103878,1,2,0:0:0:0:
256,188,103940,1,0,0:0:0:0:
256,188,104003,1,2,0:0:0:0:
256,188,104065,1,2,0:0:0:0:
256,188,104128,1,0,0:0:0:0:
256,188,104253,1,0,0:0:0:0:
256,188,104378,1,2,0:0:0:0:
256,188,104503,1,0,0:0:0:0:
256,188,104628,1,2,0:0:0:0:
256,188,104690,1,0,0:0:0:0:
256,188,104753,1,0,0:0:0:0:
256,188,104815,1,0,0:0:0:0:
256,188,104878,1,2,0:0:0:0:
256,188,105003,1,0,0:0:0:0:
256,188,105065,1,0,0:0:0:0:
256,188,105128,1,2,0:0:0:0:
256,188,105253,1,2,0:0:0:0:
256,188,105315,1,0,0:0:0:0:
256,188,105378,1,2,0:0:0:0:
256,188,105503,1,0,0:0:0:0:
256,188,105565,1,0,0:0:0:0:
256,188,105628,1,2,0:0:0:0:
256,188,105690,1,2,0:0:0:0:
256,188,105753,1,2,0:0:0:0:
256,188,105815,1,2,0:0:0:0:
256,188,105878,1,0,0:0:0:0:
256,188,105940,1,0,0:0:0:0:
256,188,106003,1,0,0:0:0:0:
256,188,106065,1,0,0:0:0:0:
256,188,106128,1,2,0:0:0:0:
256,188,106378,1,2,0:0:0:0:
256,188,106503,1,2,0:0:0:0:
256,188,106628,1,0,0:0:0:0:
256,188,106753,1,2,0:0:0:0:
256,188,106878,1,0,0:0:0:0:
256,188,107128,1,0,0:0:0:0:
256,188,107253,1,2,0:0:0:0:
256,188,107503,1,0,0:0:0:0:
256,188,107628,1,2,0:0:0:0:
256,188,107753,1,2,0:0:0:0:
256,188,107878,1,2,0:0:0:0:
256,188,108003,1,2,0:0:0:0:
256,188,108128,1,0,0:0:0:0:
256,188,108378,1,2,0:0:0:0:
256,188,108503,1,2,0:0:0:0:
256,188,108628,1,0,0:0:0:0:
256,188,108753,1,2,0:0:0:0:
256,188,108878,1,0,0:0:0:0:
256,188,109003,1,2,0:0:0:0:
256,188,109128,1,0,0:0:0:0:
256,188,109253,1,2,0:0:0:0:
256,188,109503,1,0,0:0:0:0:
256,188,109628,1,2,0:0:0:0:
256,188,109753,1,2,0:0:0:0:
256,188,109878,1,0,0:0:0:0:
256,188,109940,1,0,0:0:0:0:
256,188,110003,1,0,0:0:0:0:
256,188,110065,1,0,0:0:0:0:
256,188,110128,1,2,0:0:0:0:
256,188,110253,1,2,0:0:0:0:
256,188,110378,1,0,0:0:0:0:
256,188,110503,1,2,0:0:0:0:
256,188,110628,1,2,0:0:0:0:
256,188,110690,1,2,0:0:0:0:
256,188,110753,1,0,0:0:0:0:
256,188,110815,1,0,0:0:0:0:
256,188,110878,1,2,0:0:0:0:
256,188,111003,1,2,0:0:0:0:
256,188,111128,1,0,0:0:0:0:
256,188,111190,1,0,0:0:0:0:
256,188,111253,1,2,0:0:0:0:
256,188,111315,1,2,0:0:0:0:
256,188,111378,1,0,0:0:0:0:
256,188,111503,1,0,0:0:0:0:
256,188,111628,1,2,0:0:0:0:
256,188,111690,1,2,0:0:0:0:
256,188,111753,1,0,0:0:0:0:
256,188,111878,1,2,0:0:0:0:
256,188,112003,1,2,0:0:0:0:
256,188,112128,1,0,0:0:0:0:
256,188,112190,1,0,0:0:0:0:
256,188,112253,1,0,0:0:0:0:
256,188,112315,1,0,0:0:0:0:
256,188,112378,1,2,0:0:0:0:
256,188,112440,1,2,0:0:0:0:
256,188,112503,1,2,0:0:0:0:
256,188,112565,1,2,0:0:0:0:
256,188,112628,1,0,0:0:0:0:
256,188,112753,1,2,0:0:0:0:
256,188,112815,1,2,0:0:0:0:
256,188,112878,1,0,0:0:0:0:
256,188,113003,1,2,0:0:0:0:
256,188,113128,1,0,0:0:0:0:
256,188,113253,1,0,0:0:0:0:
256,188,113315,1,0,0:0:0:0:
256,188,113378,1,2,0:0:0:0:
256,188,113503,1,0,0:0:0:0:
256,188,113628,1,2,0:0:0:0:
256,188,113690,1,2,0:0:0:0:
256,188,113753,1,0,0:0:0:0:
256,188,113815,1,0,0:0:0:0:
256,188,113878,1,2,0:0:0:0:
256,188,113940,1,2,0:0:0:0:
256,188,114003,1,2,0:0:0:0:
256,188,114065,1,2,0:0:0:0:
256,188,114128,1,0,0:0:0:0:
256,188,114378,1,2,0:0:0:0:
256,188,114565,1,2,0:0:0:0:
256,188,114628,1,0,0:0:0:0:
256,188,114753,1,0,0:0:0:0:
256,188,114815,1,0,0:0:0:0:
256,188,114878,1,2,0:0:0:0:
256,188,115003,1,0,0:0:0:0:
256,188,115128,1,0,0:0:0:0:
256,188,115190,1,0,0:0:0:0:
256,188,115253,1,2,0:0:0:0:
256,188,115315,1,2,0:0:0:0:
256,188,115378,1,0,0:0:0:0:
256,188,115503,1,2,0:0:0:0:
256,188,115565,1,2,0:0:0:0:
256,188,115628,1,0,0:0:0:0:
256,188,115690,1,0,0:0:0:0:
256,188,115753,1,0,0:0:0:0:
256,188,115815,1,0,0:0:0:0:
256,188,115878,1,2,0:0:0:0:
256,188,116003,1,2,0:0:0:0:
256,188,116128,1,0,0:0:0:0:
256,188,116253,1,2,0:0:0:0:
256,188,116315,1,2,0:0:0:0:
256,188,116378,1,0,0:0:0:0:
256,188,116503,1,2,0:0:0:0:
256,188,116628,1,0,0:0:0:0:
256,188,116690,1,2,0:0:0:0:
256,188,116753,1,2,0:0:0:0:
256,188,116878,1,2,0:0:0:0:
256,188,117003,1,0,0:0:0:0:
256,188,117128,1,2,0:0:0:0:
256,188,117190,1,0,0:0:0:0:
256,188,117253,1,0,0:0:0:0:
256,188,117315,1,0,0:0:0:0:
256,188,117378,1,2,0:0:0:0:
256,188,117440,1,0,0:0:0:0:
256,188,117503,1,2,0:0:0:0:
256,188,117565,1,2,0:0:0:0:
256,188,117628,1,0,0:0:0:0:
256,188,117753,1,2,0:0:0:0:
256,188,117815,1,2,0:0:0:0:
256,188,117878,1,0,0:0:0:0:
256,188,118003,1,0,0:0:0:0:
256,188,118128,1,0,0:0:0:0:
256,188,118253,1,0,0:0:0:0:
256,188,118315,1,0,0:0:0:0:
256,188,118378,1,2,0:0:0:0:
256,188,118503,1,0,0:0:0:0:
256,188,118628,1,2,0:0:0:0:
256,188,118690,1,0,0:0:0:0:
256,188,118753,1,2,0:0:0:0:
256,188,118815,1,0,0:0:0:0:
256,188,118878,1,2,0:0:0:0:
256,188,119003,1,0,0:0:0:0:
256,188,119128,1,2,0:0:0:0:
256,188,119190,1,0,0:0:0:0:
256,188,119253,1,0,0:0:0:0:
256,188,119315,1,0,0:0:0:0:
256,188,119378,1,2,0:0:0:0:
256,188,119440,1,0,0:0:0:0:
256,188,119503,1,2,0:0:0:0:
256,188,119565,1,2,0:0:0:0:
256,188,119628,1,0,0:0:0:0:
256,188,119753,1,2,0:0:0:0:
256,188,119815,1,2,0:0:0:0:
256,188,119878,1,0,0:0:0:0:
256,188,120003,1,2,0:0:0:0:
256,188,120128,1,0,0:0:0:0:
256,188,120190,1,0,0:0:0:0:
256,188,120253,1,0,0:0:0:0:
256,188,120315,1,0,0:0:0:0:
256,188,120378,1,2,0:0:0:0:
256,188,120440,1,2,0:0:0:0:
256,188,120503,1,2,0:0:0:0:
256,188,120565,1,2,0:0:0:0:
256,188,120628,1,0,0:0:0:0:
256,188,120690,1,0,0:0:0:0:
256,188,120753,1,0,0:0:0:0:
256,188,120815,1,0,0:0:0:0:
256,188,120878,1,2,0:0:0:0:
256,188,120940,1,2,0:0:0:0:
256,188,121003,1,2,0:0:0:0:
256,188,121065,1,2,0:0:0:0:
256,188,121128,1,0,0:0:0:0:
256,188,121378,1,12,0:0:0:0:
256,188,121565,1,2,0:0:0:0:
256,188,121628,1,0,0:0:0:0:
256,188,121753,1,0,0:0:0:0:
256,188,121815,1,0,0:0:0:0:
256,188,121878,1,2,0:0:0:0:
256,188,122003,1,0,0:0:0:0:
256,188,122128,1,0,0:0:0:0:
256,188,122190,1,2,0:0:0:0:
256,188,122253,1,0,0:0:0:0:
256,188,122378,1,2,0:0:0:0:
256,188,122503,1,0,0:0:0:0:
256,188,122628,1,2,0:0:0:0:
256,188,122690,1,2,0:0:0:0:
256,188,122753,1,0,0:0:0:0:
256,188,122815,1,0,0:0:0:0:
256,188,122878,1,2,0:0:0:0:
256,188,122940,1,2,0:0:0:0:
256,188,123003,1,2,0:0:0:0:
256,188,123065,1,2,0:0:0:0:
256,188,123128,1,0,0:0:0:0:
256,188,123190,1,0,0:0:0:0:
256,188,123253,1,0,0:0:0:0:
256,188,123315,1,0,0:0:0:0:
256,188,123378,1,2,0:0:0:0:
256,188,123440,1,0,0:0:0:0:
256,188,123503,1,0,0:0:0:0:
256,188,123565,1,0,0:0:0:0:
256,188,123628,1,2,0:0:0:0:
256,188,123753,1,2,0:0:0:0:
256,188,123878,1,0,0:0:0:0:
256,188,124003,1,2,0:0:0:0:
256,188,124128,1,0,0:0:0:0:
256,188,124190,1,0,0:0:0:0:
256,188,124253,1,0,0:0:0:0:
256,188,124315,1,0,0:0:0:0:
256,188,124378,1,2,0:0:0:0:
256,188,124440,1,0,0:0:0:0:
256,188,124503,1,0,0:0:0:0:
256,188,124565,1,0,0:0:0:0:
256,188,124628,1,2,0:0:0:0:
256,188,124690,1,2,0:0:0:0:
256,188,124753,1,2,0:0:0:0:
256,188,124815,1,2,0:0:0:0:
256,188,124878,1,0,0:0:0:0:
256,188,124940,1,0,0:0:0:0:
256,188,125003,1,0,0:0:0:0:
256,188,125065,1,0,0:0:0:0:
256,188,125128,1,2,0:0:0:0:
256,188,125253,1,2,0:0:0:0:
256,188,125378,1,0,0:0:0:0:
256,188,125503,1,0,0:0:0:0:
256,188,125628,1,2,0:0:0:0:
256,188,125690,1,0,0:0:0:0:
256,188,125753,1,0,0:0:0:0:
256,188,125815,1,0,0:0:0:0:
256,188,125878,1,2,0:0:0:0:
256,188,125940,1,0,0:0:0:0:
256,188,126003,1,2,0:0:0:0:
256,188,126065,1,2,0:0:0:0:
256,188,126128,1,0,0:0:0:0:
256,188,126378,1,2,0:0:0:0:
256,188,126503,1,2,0:0:0:0:
256,188,126628,1,0,0:0:0:0:
256,188,126753,1,2,0:0:0:0:
256,188,126878,1,0,0:0:0:0:
256,188,127128,1,0,0:0:0:0:
256,188,127253,1,2,0:0:0:0:
256,188,127378,1,0,0:0:0:0:
256,188,127503,1,0,0:0:0:0:
256,188,127628,1,2,0:0:0:0:
256,188,127753,1,2,0:0:0:0:
256,188,127878,1,0,0:0:0:0:
256,188,128003,1,0,0:0:0:0:
256,188,128128,1,2,0:0:0:0:
256,188,128253,1,2,0:0:0:0:
256,188,128378,1,2,0:0:0:0:
256,188,128503,1,2,0:0:0:0:
256,188,128628,1,0,0:0:0:0:
256,188,128878,1,2,0:0:0:0:
256,188,129003,1,2,0:0:0:0:
256,188,129128,1,0,0:0:0:0:
256,188,129253,1,0,0:0:0:0:
256,188,129378,1,2,0:0:0:0:
256,188,129503,1,0,0:0:0:0:
256,188,129628,1,2,0:0:0:0:
256,188,129690,1,2,0:0:0:0:
256,188,129753,1,2,0:0:0:0:
256,188,129815,1,2,0:0:0:0:
256,188,129878,1,2,0:0:0:0:
256,188,129940,1,2,0:0:0:0:
256,188,130003,1,2,0:0:0:0:
256,188,130065,1,2,0:0:0:0:
256,188,130128,1,0,0:0:0:0:
256,188,130253,1,0,0:0:0:0:
256,188,130315,1,0,0:0:0:0:
256,188,130378,1,2,0:0:0:0:
256,188,130503,1,0,0:0:0:0:
256,188,130565,1,0,0:0:0:0:
256,188,130628,1,0,0:0:0:0:
256,188,130690,1,0,0:0:0:0:
256,188,130753,1,2,0:0:0:0:
256,188,130815,1,2,0:0:0:0:
256,188,130878,1,0,0:0:0:0:
256,188,131003,1,2,0:0:0:0:
256,188,131065,1,2,0:0:0:0:
256,188,131128,1,0,0:0:0:0:
256,188,131253,1,0,0:0:0:0:
256,188,131378,1,2,0:0:0:0:
256,188,131503,1,0,0:0:0:0:
256,188,131628,1,2,0:0:0:0:
256,188,131690,1,2,0:0:0:0:
256,188,131753,1,0,0:0:0:0:
256,188,131815,1,0,0:0:0:0:
256,188,131878,1,2,0:0:0:0:
256,188,132003,1,2,0:0:0:0:
256,188,132065,1,2,0:0:0:0:
256,188,132128,1,0,0:0:0:0:
256,188,132253,1,0,0:0:0:0:
256,188,132315,1,0,0:0:0:0:
256,188,132378,1,2,0:0:0:0:
256,188,132503,1,0,0:0:0:0:
256,188,132565,1,0,0:0:0:0:
256,188,132628,1,2,0:0:0:0:
256,188,132753,1,2,0:0:0:0:
256,188,132878,1,0,0:0:0:0:
256,188,133003,1,0,0:0:0:0:
256,188,133128,1,2,0:0:0:0:
256,188,133190,1,0,0:0:0:0:
256,188,133253,1,0,0:0:0:0:
256,188,133315,1,0,0:0:0:0:
256,188,133378,1,2,0:0:0:0:
256,188,133440,1,0,0:0:0:0:
256,188,133503,1,2,0:0:0:0:
256,188,133565,1,2,0:0:0:0:
256,188,133628,1,0,0:0:0:0:
256,188,133753,1,0,0:0:0:0:
256,188,133878,1,2,0:0:0:0:
256,188,134003,1,2,0:0:0:0:
256,188,134128,1,0,0:0:0:0:
256,188,134190,1,2,0:0:0:0:
256,188,134253,1,0,0:0:0:0:
256,188,134378,1,2,0:0:0:0:
256,188,134440,1,0,0:0:0:0:
256,188,134503,1,2,0:0:0:0:
256,188,134628,1,0,0:0:0:0:
256,188,134690,1,2,0:0:0:0:
256,188,134753,1,0,0:0:0:0:
256,188,134815,1,0,0:0:0:0:
256,188,134878,1,2,0:0:0:0:
256,188,135003,1,0,0:0:0:0:
256,188,135128,1,2,0:0:0:0:
256,188,135190,1,2,0:0:0:0:
256,188,135253,1,0,0:0:0:0:
256,188,135315,1,0,0:0:0:0:
256,188,135378,1,2,0:0:0:0:
256,188,135503,1,0,0:0:0:0:
256,188,135565,1,0,0:0:0:0:
256,188,135628,1,2,0:0:0:0:
256,188,135753,1,0,0:0:0:0:
256,188,135878,1,2,0:0:0:0:
256,188,136003,1,2,0:0:0:0:
256,188,136128,1,0,0:0:0:0:
256,188,136190,1,0,0:0:0:0:
256,188,136253,1,0,0:0:0:0:
256,188,136315,1,0,0:0:0:0:
256,188,136378,1,2,0:0:0:0:
256,188,136503,1,2,0:0:0:0:
256,188,136628,1,2,0:0:0:0:
256,188,136690,1,0,0:0:0:0:
256,188,136753,1,0,0:0:0:0:
256,188,136815,1,0,0:0:0:0:
256,188,136878,1,2,0:0:0:0:
256,188,136940,1,0,0:0:0:0:
256,188,137003,1,0,0:0:0:0:
256,188,137065,1,0,0:0:0:0:
256,188,137128,1,2,0:0:0:0:
256,188,137253,1,2,0:0:0:0:
256,188,137378,1,0,0:0:0:0:
256,188,137503,1,0,0:0:0:0:
256,188,137628,1,2,0:0:0:0:
256,188,137690,1,0,0:0:0:0:
256,188,137753,1,0,0:0:0:0:
256,188,137815,1,0,0:0:0:0:
256,188,137878,1,2,0:0:0:0:
256,188,137940,1,0,0:0:0:0:
256,188,138003,1,0,0:0:0:0:
256,188,138065,1,0,0:0:0:0:
256,188,138128,1,2,0:0:0:0:
256,188,138253,1,2,0:0:0:0:
256,188,138378,1,0,0:0:0:0:
256,188,138503,1,0,0:0:0:0:
256,188,138628,1,2,0:0:0:0:
256,188,138690,1,2,0:0:0:0:
256,188,138753,1,0,0:0:0:0:
256,188,138815,1,0,0:0:0:0:
256,188,138878,1,2,0:0:0:0:
256,188,139003,1,0,0:0:0:0:
256,188,139128,1,2,0:0:0:0:
256,188,139190,1,0,0:0:0:0:
256,188,139253,1,2,0:0:0:0:
256,188,139315,1,2,0:0:0:0:
256,188,139378,1,0,0:0:0:0:
256,188,139503,1,0,0:0:0:0:
256,188,139628,1,2,0:0:0:0:
256,188,139690,1,0,0:0:0:0:
256,188,139753,1,0,0:0:0:0:
256,188,139815,1,0,0:0:0:0:
256,188,139878,1,2,0:0:0:0:
256,188,140003,1,2,0:0:0:0:
256,188,140128,1,0,0:0:0:0:
256,188,140190,1,2,0:0:0:0:
256,188,140253,1,0,0:0:0:0:
256,188,140315,1,0,0:0:0:0:
256,188,140378,1,2,0:0:0:0:
256,188,140503,1,2,0:0:0:0:
256,188,140628,1,0,0:0:0:0:
256,188,140753,1,0,0:0:0:0:
256,188,140878,1,2,0:0:0:0:
256,188,141003,1,2,0:0:0:0:
256,188,141128,1,0,0:0:0:0:
256,188,141190,1,0,0:0:0:0:
256,188,141253,1,0,0:0:0:0:
256,188,141315,1,0,0:0:0:0:
256,188,141378,1,2,0:0:0:0:
256,188,141440,1,0,0:0:0:0:
256,188,141503,1,0,0:0:0:0:
256,188,141565,1,0,0:0:0:0:
256,188,141628,1,2,0:0:0:0:
256,188,141753,1,2,0:0:0:0:
256,188,141878,1,0,0:0:0:0:
256,188,142003,1,2,0:0:0:0:
256,188,142128,1,0,0:0:0:0:
256,188,142190,1,0,0:0:0:0:
256,188,142253,1,0,0:0:0:0:
256,188,142315,1,0,0:0:0:0:
256,188,142378,1,0,0:0:0:0:
256,188,142503,1,0,0:0:0:0:
256,188,142628,1,2,0:0:0:0:
256,188,142753,1,2,0:0:0:0:
256,188,142878,1,0,0:0:0:0:
256,188,143003,1,0,0:0:0:0:
256,188,143128,1,2,0:0:0:0:
256,188,143190,1,2,0:0:0:0:
256,188,143253,1,2,0:0:0:0:
256,188,143315,1,2,0:0:0:0:
256,188,143378,1,0,0:0:0:0:
256,188,143503,1,2,0:0:0:0:
256,188,143565,1,2,0:0:0:0:
256,188,143628,1,0,0:0:0:0:
256,188,143690,1,0,0:0:0:0:
256,188,143753,1,0,0:0:0:0:
256,188,143815,1,0,0:0:0:0:
256,188,143878,1,2,0:0:0:0:
256,188,143940,1,2,0:0:0:0:
256,188,144003,1,2,0:0:0:0:
256,188,144065,1,2,0:0:0:0:
256,188,144128,1,0,0:0:0:0:
256,188,144253,1,0,0:0:0:0:
256,188,144315,1,0,0:0:0:0:
256,188,144378,1,2,0:0:0:0:
256,188,144503,1,0,0:0:0:0:
256,188,144565,1,0,0:0:0:0:
256,188,144628,1,2,0:0:0:0:
256,188,144753,1,2,0:0:0:0:
256,188,144878,1,0,0:0:0:0:
256,188,145003,1,0,0:0:0:0:
256,188,145128,1,0,0:0:0:0:
256,188,145190,1,0,0:0:0:0:
256,188,145253,1,0,0:0:0:0:
256,188,145315,1,0,0:0:0:0:
256,188,145378,1,2,0:0:0:0:
256,188,145440,1,0,0:0:0:0:
256,188,145503,1,0,0:0:0:0:
256,188,145565,1,0,0:0:0:0:
256,188,145628,1,2,0:0:0:0:
256,188,145690,1,0,0:0:0:0:
256,188,145753,1,0,0:0:0:0:
256,188,145815,1,0,0:0:0:0:
256,188,145878,1,2,0:0:0:0:
256,188,145940,1,0,0:0:0:0:
256,188,146003,1,2,0:0:0:0:
256,188,146065,1,2,0:0:0:0:
256,188,146128,1,0,0:0:0:0:
256,188,146378,1,2,0:0:0:0:
256,188,146503,1,2,0:0:0:0:
256,188,146628,1,0,0:0:0:0:
256,188,146753,1,2,0:0:0:0:
256,188,146878,1,0,0:0:0:0:
256,188,147003,1,2,0:0:0:0:
256,188,147128,1,2,0:0:0:0:
256,188,147378,1,2,0:0:0:0:
256,188,147628,1,2,0:0:0:0:
256,188,147878,1,2,0:0:0:0:
256,188,148128,1,0,0:0:0:0:
256,188,148378,1,2,0:0:0:0:
256,188,148503,1,2,0:0:0:0:
256,188,148628,1,0,0:0:0:0:
256,188,148753,1,2,0:0:0:0:
256,188,148878,1,0,0:0:0:0:
256,188,149003,1,2,0:0:0:0:
256,188,149128,1,2,0:0:0:0:
256,188,149378,1,2,0:0:0:0:
256,188,149628,1,2,0:0:0:0:
256,188,149878,1,2,0:0:0:0:
256,188,150128,1,0,0:0:0:0:
256,188,150378,1,2,0:0:0:0:
256,188,150503,1,2,0:0:0:0:
256,188,150628,1,0,0:0:0:0:
256,188,150753,1,2,0:0:0:0:
256,188,150878,1,0,0:0:0:0:
256,188,151003,1,2,0:0:0:0:
256,188,151128,1,2,0:0:0:0:
256,188,151378,1,2,0:0:0:0:
256,188,151628,1,2,0:0:0:0:
256,188,151878,1,2,0:0:0:0:
256,188,152128,1,0,0:0:0:0:
256,188,152378,1,2,0:0:0:0:
256,188,152503,1,2,0:0:0:0:
256,188,152628,1,0,0:0:0:0:
256,188,152753,1,2,0:0:0:0:
256,188,152878,1,0,0:0:0:0:
256,188,153003,1,2,0:0:0:0:
256,188,153128,1,2,0:0:0:0:
256,188,153378,1,2,0:0:0:0:
256,188,153628,1,2,0:0:0:0:
