osu file format v14

[General]
AudioFilename: Kitsune no Yomeiri.mp3
AudioLeadIn: 0
PreviewTime: 50034
Countdown: 1
SampleSet: None
StackLeniency: 0.7
Mode: 0
LetterboxInBreaks: 1
WidescreenStoryboard: 1

[Editor]
Bookmarks: 18034,34034,50034,54034,70034,74034,90034,106034,110034,126034,130034,146034,154034,169784,172034,188034,192034,208034,216034,224034
DistanceSpacing: 2
BeatDivisor: 4
GridSize: 4
TimelineZoom: 2.5

[Metadata]
Title:Kitsune no Yomeiri
TitleUnicode:狐の嫁入り
Artist:Masa
ArtistUnicode:まさ
Creator:Roll_Pan
Version:AR9.6
Source:
Tags:vocaloid 初音ミク hatsune miku gumi
BeatmapID:777073
BeatmapSetID:352624

[Difficulty]
HPDrainRate:4.5
CircleSize:4
OverallDifficulty:9
ApproachRate:9.6
SliderMultiplier:1.9
SliderTickRate:1

[Events]
//Background and Video events
0,0,"BG.jpg",0,0
//Break Periods
2,146234,153525
//Storyboard Layer 0 (Background)
//Storyboard Layer 1 (Fail)
//Storyboard Layer 2 (Pass)
//Storyboard Layer 3 (Foreground)
//Storyboard Sound Samples

[TimingPoints]
2034,250,4,2,1,70,1,0
22784,-133.333333333333,4,2,1,70,0,0
23034,-100,4,2,1,70,0,0
50034,-100,4,2,1,60,0,0
54034,-100,4,2,1,75,0,1
70034,-100,4,2,1,60,0,0
74034,-100,4,2,1,70,0,0
106034,-100,4,2,1,60,0,0
110034,-100,4,2,1,75,0,1
126034,-100,4,2,1,60,0,0
130034,-100,4,2,1,70,0,0
154034,-100,4,2,1,60,0,0
172034,-100,4,2,1,75,0,1
188034,-100,4,2,1,60,0,0
192034,-100,4,2,1,70,0,0
216034,-83.3333333333333,4,2,1,80,0,1
224034,-83.3333333333333,4,2,1,80,0,0

[Colours]
Combo1 : 255,192,0
Combo2 : 255,0,0
Combo3 : 255,128,0
Combo4 : 128,0,0

[HitObjects]
148,108,2034,6,0,P|204:96|252:112,1,95,6|0,0:0|0:0,0:0:0:0:
216,308,2284,1,2,0:0:0:0:
44,272,2409,1,0,0:0:0:0:
300,232,2534,2,0,L|312:332,1,95,2|0,0:0|0:0,0:0:0:0:
80,192,2784,2,0,L|68:92,1,95,2|0,0:0|0:0,0:0:0:0:
304,8,3034,5,2,0:0:0:0:
196,228,3159,1,0,0:0:0:0:
140,64,3284,1,2,0:0:0:0:
360,172,3409,1,0,0:0:0:0:
474,41,3534,1,2,0:0:0:0:
306,282,3659,1,0,0:0:0:0:
269,77,3784,1,2,0:0:0:0:
510,245,3909,1,0,0:0:0:0:
389,161,4034,6,0,L|280:152,1,95,2|0,0:0|0:0,0:0:0:0:
124,236,4284,1,2,0:0:0:0:
344,308,4409,1,0,0:0:0:0:
296,81,4534,2,0,P|248:88|220:136,1,95,2|0,0:0|0:0,0:0:0:0:
123,309,4784,2,0,P|171:302|199:254,1,95,2|0,0:0|0:0,0:0:0:0:
36,144,5034,5,2,0:0:0:0:
296,192,5159,1,0,0:0:0:0:
94,20,5284,1,2,0:0:0:0:
115,284,5409,1,0,0:0:0:0:
286,82,5534,2,0,P|356:104|396:228,1,190,2|2,0:0|0:0,0:0:0:0:
224,316,5909,1,0,0:0:0:0:
180,116,6034,6,0,P|168:72|188:12,1,95,6|0,0:0|0:0,0:0:0:0:
332,268,6284,2,0,P|344:312|324:372,1,95,2|0,0:0|0:0,0:0:0:0:
48,232,6534,2,0,P|36:188|56:128,1,95,2|0,0:0|0:0,0:0:0:0:
286,82,6784,1,2,0:0:0:0:
224,316,6909,1,0,0:0:0:0:
136,90,7034,5,2,0:0:0:0:
375,126,7159,2,0,L|480:140,1,95,0|2,0:0|0:0,0:0:0:0:
320,356,7409,1,0,0:0:0:0:
296,160,7534,2,0,P|292:100|324:56,1,95,2|0,0:0|0:0,0:0:0:0:
464,292,7784,2,0,P|468:352|436:396,1,95,2|0,0:0|0:0,0:0:0:0:
280,296,8034,6,0,P|220:272|112:328,1,190,2|2,0:0|0:0,0:0:0:0:
208,356,8409,2,0,L|176:168,1,190,2|2,0:0|0:0,0:0:0:0:
112,88,8784,2,0,P|156:68|216:80,1,95,2|0,0:0|0:0,0:0:0:0:
376,148,9034,5,2,0:0:0:0:
376,148,9159,2,0,L|380:40,2,95,0|2|0,0:0|0:0|0:0,0:0:0:0:
264,348,9534,1,2,0:0:0:0:
237,120,9659,1,0,0:0:0:0:
392,288,9784,1,2,0:0:0:0:
167,243,9909,1,0,0:0:0:0:
318,70,10034,6,0,P|360:56|428:72,1,95,6|0,0:0|0:0,0:0:0:0:
258,235,10284,2,0,P|216:249|148:233,1,95,2|0,0:0|0:0,0:0:0:0:
212,64,10534,1,2,0:0:0:0:
212,356,10659,1,0,0:0:0:0:
5,149,10784,1,2,0:0:0:0:
297,149,10909,1,0,0:0:0:0:
116,304,11034,6,0,L|8:292,1,95,2|0,0:0|0:0,0:0:0:0:
212,64,11284,2,0,L|320:76,1,95,2|0,0:0|0:0,0:0:0:0:
432,264,11534,1,2,0:0:0:0:
176,180,11659,1,0,0:0:0:0:
320,368,11784,1,2,0:0:0:0:
360,80,11909,1,0,0:0:0:0:
212,268,12034,6,0,L|104:244,1,95,6|0,0:0|0:0,0:0:0:0:
416,132,12284,2,0,L|524:156,1,95,2|0,0:0|0:0,0:0:0:0:
204,124,12534,2,0,P|200:72|228:16,1,95,2|0,0:0|0:0,0:0:0:0:
424,276,12784,2,0,P|428:328|400:384,1,95,2|0,0:0|0:0,0:0:0:0:
136,200,13034,5,2,0:0:0:0:
492,200,13159,1,0,0:0:0:0:
314,342,13284,1,2,0:0:0:0:
314,57,13409,1,0,0:0:0:0:
146,287,13534,1,2,0:0:0:0:
147,2,13659,1,0,0:0:0:0:
313,233,13784,1,2,0:0:0:0:
42,143,13909,1,0,0:0:0:0:
314,57,14034,6,0,P|384:52|428:68,1,95,6|0,0:0|0:0,0:0:0:0:
360,304,14284,2,0,P|290:309|246:293,1,95,2|0,0:0|0:0,0:0:0:0:
42,143,14534,1,2,0:0:0:0:
20,384,14659,2,0,L|124:372,1,95,0|2,0:0|0:0,0:0:0:0:
313,233,14909,1,0,0:0:0:0:
120,168,15034,6,0,L|112:56,1,95,2|0,0:0|0:0,0:0:0:0:
384,188,15284,2,0,P|388:240|372:292,1,95,2|0,0:0|0:0,0:0:0:0:
192,360,15534,1,2,0:0:0:0:
256,84,15659,1,0,0:0:0:0:
463,277,15784,1,2,0:0:0:0:
399,1,15909,1,0,0:0:0:0:
191,194,16034,6,0,P|144:216|92:212,1,95,2|0,0:0|0:0,0:0:0:0:
304,56,16284,2,0,L|416:68,1,95,2|0,0:0|0:0,0:0:0:0:
272,296,16534,2,0,L|177:306,1,95,2|0,0:0|0:0,0:0:0:0:
385,158,16784,2,0,P|432:136|484:140,1,95,2|0,0:0|0:0,0:0:0:0:
308,368,17034,5,2,0:0:0:0:
96,256,17159,2,0,P|80:304|96:360,1,95,0|2,0:0|0:0,0:0:0:0:
288,140,17409,1,0,0:0:0:0:
108,140,17534,2,0,P|52:152|0:144,1,95,2|0,0:0|0:0,0:0:0:0:
304,48,17784,2,0,P|360:36|412:44,1,95,2|0,0:0|0:0,0:0:0:0:
360,228,18034,6,0,P|296:248|228:232,1,126.666666666667,6|0,0:0|0:0,0:0:0:0:
56,132,18284,2,0,L|48:264,1,126.666666666667,2|0,0:0|0:0,0:0:0:0:
296,164,18534,1,2,0:0:0:0:
132,64,18700,1,0,0:0:0:0:
132,64,18784,2,0,P|68:40|-4:48,1,126.666666666667,2|0,0:0|0:0,0:0:0:0:
216,140,19034,6,0,L|232:-4,1,126.666666666667,2|0,0:0|0:0,0:0:0:0:
296,244,19284,2,0,L|280:388,1,126.666666666667,2|0,0:0|0:0,0:0:0:0:
192,248,19534,2,0,P|160:256|116:248,2,63.3333333333333,2|0|0,0:0|0:0|0:0,0:0:0:0:
320,136,19784,2,0,P|352:128|396:136,2,63.3333333333333,2|0|0,0:0|0:0|0:0,0:0:0:0:
272,352,20034,6,0,L|400:364,1,126.666666666667,2|0,0:0|0:0,0:0:0:0:
446,147,20284,2,0,L|318:135,1,126.666666666667,2|0,0:0|0:0,0:0:0:0:
144,180,20534,2,0,P|136:108|152:36,1,126.666666666667,2|0,0:0|0:0,0:0:0:0:
368,204,20784,2,0,P|376:276|360:348,1,126.666666666667,2|0,0:0|0:0,0:0:0:0:
196,324,21034,6,0,P|136:304|60:328,1,126.666666666667,2|0,0:0|0:0,0:0:0:0:
48,344,21284,2,0,L|32:208,1,126.666666666667,2|0,0:0|0:0,0:0:0:0:
56,64,21534,1,2,0:0:0:0:
108,36,21617,1,0,0:0:0:0:
167,37,21700,1,0,0:0:0:0:
217,67,21784,2,0,P|288:96|356:84,1,126.666666666667,2|0,0:0|0:0,0:0:0:0:
440,32,22034,6,0,B|464:76|444:124|444:124|511:163|504:286|351:288|324:188|376:144,1,380,6|2,0:0|0:0,0:0:0:0:
416,180,22784,2,0,L|424:276,1,95.0000036239625,2|0,0:0|0:0,0:0:0:0:
368,316,23034,6,0,P|436:328|504:292,1,126.666666666667,2|0,0:0|0:0,0:0:0:0:
416,100,23284,2,0,P|348:88|280:124,1,126.666666666667,2|0,0:0|0:0,0:0:0:0:
176,256,23534,2,0,L|180:384,1,126.666666666667,2|0,0:0|0:0,0:0:0:0:
336,128,23784,2,0,L|332:0,1,126.666666666667,2|0,0:0|0:0,0:0:0:0:
215,109,24034,6,0,P|157:87|95:100,1,126.666666666667,2|0,0:0|0:0,0:0:0:0:
24,306,24284,2,0,P|82:328|144:315,1,126.666666666667,2|0,0:0|0:0,0:0:0:0:
284,176,24534,1,2,0:0:0:0:
48,200,24700,1,0,0:0:0:0:
48,200,24784,2,0,L|36:60,1,126.666666666667,2|0,0:0|0:0,0:0:0:0:
236,68,25034,6,0,P|304:56|368:88,1,126.666666666667,2|0,0:0|0:0,0:0:0:0:
276,316,25284,2,0,P|208:328|144:296,1,126.666666666667,2|0,0:0|0:0,0:0:0:0:
256,188,25534,1,2,0:0:0:0:
312,180,25617,1,0,0:0:0:0:
368,172,25700,1,0,0:0:0:0:
424,164,25784,2,0,P|456:216|448:280,1,126.666666666667,2|0,0:0|0:0,0:0:0:0:
216,384,26034,6,0,L|200:256,1,126.666666666667,6|0,0:0|0:0,0:0:0:0:
80,44,26284,2,0,L|64:172,1,126.666666666667,2|0,0:0|0:0,0:0:0:0:
20,320,26534,1,2,0:0:0:0:
208,132,26700,1,0,0:0:0:0:
256,100,26784,2,0,P|332:88|396:104,1,126.666666666667,2|0,0:0|0:0,0:0:0:0:
336,328,27034,6,0,P|260:340|196:324,1,126.666666666667,2|0,0:0|0:0,0:0:0:0:
152,156,27284,2,0,L|148:0,1,126.666666666667,2|0,0:0|0:0,0:0:0:0:
312,104,27534,2,0,P|352:96|396:108,2,63.3333333333333,2|0|0,0:0|0:0|0:0,0:0:0:0:
188,224,27784,2,0,P|148:232|104:220,2,63.3333333333333,2|0|0,0:0|0:0|0:0,0:0:0:0:
348,172,28034,6,0,L|352:328,1,126.666666666667,2|0,0:0|0:0,0:0:0:0:
104,372,28284,2,0,P|88:308|104:240,1,126.666666666667,2|0,0:0|0:0,0:0:0:0:
183,183,28534,1,2,0:0:0:0:
56,44,28700,1,0,0:0:0:0:
56,44,28784,2,0,L|188:24,1,126.666666666667,2|0,0:0|0:0,0:0:0:0:
304,136,29034,6,0,L|436:156,1,126.666666666667,2|0,0:0|0:0,0:0:0:0:
512,328,29284,2,0,P|452:348|388:336,1,126.666666666667,2|0,0:0|0:0,0:0:0:0:
252,256,29534,2,0,L|260:192,2,63.3333333333333,2|0|0,0:0|0:0|0:0,0:0:0:0:
136,320,29784,2,0,L|144:384,2,63.3333333333333,2|0|0,0:0|0:0|0:0,0:0:0:0:
192,132,30034,6,0,P|256:108|336:128,1,126.666666666667,6|0,0:0|0:0,0:0:0:0:
504,260,30284,2,0,P|440:284|360:264,1,126.666666666667,2|0,0:0|0:0,0:0:0:0:
436,176,30534,2,0,L|448:24,1,126.666666666667,2|0,0:0|0:0,0:0:0:0:
260,216,30784,2,0,L|248:368,1,126.666666666667,2|0,0:0|0:0,0:0:0:0:
204,384,31034,1,2,0:0:0:0:
44,192,31200,5,0,0:0:0:0:
44,192,31284,2,0,L|34:65,1,126.666666666667,2|0,0:0|0:0,0:0:0:0:
184,36,31534,2,0,P|224:32|256:44,2,63.3333333333333,2|0|0,0:0|0:0|0:0,0:0:0:0:
316,124,31784,2,0,P|356:128|388:116,2,63.3333333333333,2|0|0,0:0|0:0|0:0,0:0:0:0:
224,240,32034,6,0,L|232:372,1,126.666666666667,2|0,0:0|0:0,0:0:0:0:
452,292,32284,2,0,P|460:224|444:160,1,126.666666666667,2|0,0:0|0:0,0:0:0:0:
384,92,32534,2,0,P|464:72|524:96,1,126.666666666667,2|0,0:0|0:0,0:0:0:0:
287,315,32784,2,0,P|207:335|147:311,1,126.666666666667,2|0,0:0|0:0,0:0:0:0:
120,288,33034,1,2,0:0:0:0:
200,80,33200,5,0,0:0:0:0:
244,44,33284,2,0,L|372:36,1,126.666666666667,2|0,0:0|0:0,0:0:0:0:
292,152,33534,1,2,0:0:0:0:
224,192,33617,1,0,0:0:0:0:
146,178,33700,1,0,0:0:0:0:
95,117,33784,2,0,L|80:248,1,126.666666666667,2|0,0:0|0:0,0:0:0:0:
36,332,34034,6,0,P|84:344|144:312,1,95,6|0,0:0|0:0,0:0:0:0:
344,256,34284,2,0,L|352:360,1,95,8|0,0:0|0:0,0:0:0:0:
178,219,34534,1,2,0:0:0:0:
328,4,34659,1,0,0:0:0:0:
360,186,34784,1,8,0:0:0:0:
145,36,34909,1,0,0:0:0:0:
252,110,35034,5,2,0:0:0:0:
69,142,35159,1,0,0:0:0:0:
102,325,35284,1,8,0:0:0:0:
284,292,35409,1,0,0:0:0:0:
286,77,35534,5,2,0:0:0:0:
469,109,35659,1,0,0:0:0:0:
436,292,35784,1,8,0:0:0:0:
254,259,35909,1,0,0:0:0:0:
412,48,36034,6,0,P|472:32|520:40,1,95,6|0,0:0|0:0,0:0:0:0:
311,320,36284,2,0,P|251:336|203:328,1,95,8|0,0:0|0:0,0:0:0:0:
236,75,36534,2,0,P|264:165|254:259,1,190,2|8,0:0|0:0,0:0:0:0:
124,184,36909,1,0,0:0:0:0:
352,116,37034,6,0,L|448:124,1,95,2|0,0:0|0:0,0:0:0:0:
160,268,37284,2,0,L|64:260,1,95,8|0,0:0|0:0,0:0:0:0:
138,85,37534,1,2,0:0:0:0:
374,299,37659,1,0,0:0:0:0:
309,118,37784,1,8,0:0:0:0:
202,265,37909,1,0,0:0:0:0:
248,40,38034,6,0,L|360:32,1,95,6|0,0:0|0:0,0:0:0:0:
418,190,38284,1,8,0:0:0:0:
456,0,38409,1,0,0:0:0:0:
196,152,38534,1,2,0:0:0:0:
374,299,38659,2,0,B|312:316|312:316|254:296|254:296|192:313,1,190,8|2,0:0|0:0,0:0:0:0:
56,172,39034,6,0,L|48:76,1,95,2|0,0:0|0:0,0:0:0:0:
320,140,39284,2,0,L|312:236,1,95,8|0,0:0|0:0,0:0:0:0:
64,344,39534,1,2,0:0:0:0:
192,60,39659,1,0,0:0:0:0:
255,364,39784,1,8,0:0:0:0:
25,155,39909,1,0,0:0:0:0:
333,188,40034,6,0,P|384:196|436:188,1,95,6|0,0:0|0:0,0:0:0:0:
192,60,40284,2,0,P|141:52|89:60,1,95,8|0,0:0|0:0,0:0:0:0:
292,268,40534,2,0,P|392:300|476:264,1,190,2|8,0:0|0:0,0:0:0:0:
384,84,40909,1,0,0:0:0:0:
160,228,41034,6,0,L|168:332,1,95,2|0,0:0|0:0,0:0:0:0:
352,156,41284,2,0,L|344:52,1,95,8|0,0:0|0:0,0:0:0:0:
120,4,41534,1,2,0:0:0:0:
36,260,41659,1,0,0:0:0:0:
254,102,41784,1,8,0:0:0:0:
170,358,41909,1,0,0:0:0:0:
388,200,42034,6,0,P|444:188|492:204,1,95,6|0,0:0|0:0,0:0:0:0:
220,272,42284,2,0,P|164:284|116:268,1,95,8|0,0:0|0:0,0:0:0:0:
431,61,42534,1,2,0:0:0:0:
436,336,42659,1,0,0:0:0:0:
222,163,42784,1,8,0:0:0:0:
495,134,42909,1,0,0:0:0:0:
220,272,43159,5,2,0:0:0:0:
60,211,43284,1,8,0:0:0:0:
88,380,43409,1,0,0:0:0:0:
170,161,43534,1,2,0:0:0:0:
318,342,43659,2,0,P|420:376|492:320,1,190,8|8,0:0|0:0,0:0:0:0:
404,104,44034,5,6,0:0:0:0:
400,296,44159,1,0,0:0:0:0:
192,232,44284,2,0,L|181:126,1,95,8|0,0:0|0:0,0:0:0:0:
477,122,44534,5,2,0:0:0:0:
363,362,44659,1,0,0:0:0:0:
102,164,44784,2,0,L|126:67,1,95,8|0,0:0|0:0,0:0:0:0:
372,0,45034,6,0,P|396:96|368:204,1,190,2|8,0:0|0:0,0:0:0:0:
240,324,45409,1,0,0:0:0:0:
232,72,45534,1,2,0:0:0:0:
454,191,45659,1,0,0:0:0:0:
160,268,45784,2,0,L|64:260,1,95,8|0,0:0|0:0,0:0:0:0:
180,12,46034,6,0,P|228:-4|276:8,1,95,6|0,0:0|0:0,0:0:0:0:
236,200,46284,1,8,0:0:0:0:
100,100,46409,1,0,0:0:0:0:
320,148,46534,1,2,0:0:0:0:
168,314,46659,1,0,0:0:0:0:
408,204,46784,2,0,L|424:104,1,95,8|0,0:0|0:0,0:0:0:0:
180,12,47034,5,2,0:0:0:0:
168,314,47159,1,0,0:0:0:0:
320,148,47284,1,8,0:0:0:0:
100,100,47409,1,0,0:0:0:0:
327,307,47534,1,2,0:0:0:0:
404,68,47659,2,0,P|308:40|216:84,1,190,8|8,0:0|0:0,0:0:0:0:
12,176,48034,6,0,L|0:76,1,95,6|0,0:0|0:0,0:0:0:0:
244,144,48284,2,0,L|232:244,1,95,8|0,0:0|0:0,0:0:0:0:
100,344,48534,1,2,0:0:0:0:
128,152,48659,1,0,0:0:0:0:
320,180,48784,1,8,0:0:0:0:
292,372,48909,1,0,0:0:0:0:
406,72,49034,5,2,0:0:0:0:
213,95,49159,1,0,0:0:0:0:
236,288,49284,1,8,0:0:0:0:
428,265,49409,1,0,0:0:0:0:
304,43,49534,5,2,0:0:0:0:
336,315,49659,1,0,0:0:0:0:
184,196,49784,1,8,0:0:0:0:
457,163,49909,1,0,0:0:0:0:
255,350,50034,6,0,P|208:368|136:360,1,95,6|0,0:0|0:0,0:0:0:0:
188,280,50284,2,0,P|138:272|79:229,1,95,2|0,0:0|0:0,0:0:0:0:
257,34,50534,2,0,P|304:16|376:24,1,95,2|0,0:0|0:0,0:0:0:0:
324,104,50784,2,0,P|373:111|432:154,1,95,2|0,0:0|0:0,0:0:0:0:
98,191,51034,6,0,P|80:144|88:72,1,95,2|0,0:0|0:0,0:0:0:0:
168,124,51284,2,0,P|175:74|218:15,1,95,2|0,0:0|0:0,0:0:0:0:
414,193,51534,2,0,P|432:240|424:312,1,95,2|0,0:0|0:0,0:0:0:0:
344,260,51784,2,0,P|336:309|293:368,1,95,2|0,0:0|0:0,0:0:0:0:
176,352,52034,6,0,L|80:340,1,95,2|0,0:0|0:0,0:0:0:0:
152,244,52284,2,0,L|57:232,1,95,2|0,0:0|0:0,0:0:0:0:
128,136,52534,2,0,L|33:124,1,95,2|0,0:0|0:0,0:0:0:0:
104,28,52784,2,0,L|9:16,1,95,2|0,0:0|0:0,0:0:0:0:
408,28,53034,6,0,L|502:16,1,95,2|0,0:0|0:0,0:0:0:0:
384,136,53284,2,0,L|478:124,1,95,2|0,0:0|0:0,0:0:0:0:
360,244,53534,2,0,L|454:232,1,95,2|0,0:0|0:0,0:0:0:0:
336,352,53784,2,0,L|432:340,1,95,2|0,0:0|0:0,0:0:0:0:
284,96,54034,5,6,0:0:0:0:
200,376,54159,1,0,0:0:0:0:
61,118,54284,1,8,0:0:0:0:
341,202,54409,1,0,0:0:0:0:
65,298,54534,1,2,0:0:0:0:
231,58,54659,1,0,0:0:0:0:
237,349,54784,2,0,P|284:368|336:368,1,95,8|0,0:0|0:0,0:0:0:0:
358,75,55034,5,2,0:0:0:0:
99,272,55159,1,0,0:0:0:0:
129,44,55284,1,8,0:0:0:0:
327,303,55409,1,0,0:0:0:0:
14,209,55534,1,2,0:0:0:0:
322,101,55659,2,0,P|412:68|496:108,1,190,8|8,0:0|0:0,0:0:0:0:
400,312,56034,6,0,L|296:300,1,95,6|0,0:0|0:0,0:0:0:0:
132,248,56284,2,0,P|116:304|128:376,1,95,8|0,0:0|0:0,0:0:0:0:
376,200,56534,1,2,0:0:0:0:
76,148,56659,1,0,0:0:0:0:
248,312,56784,1,8,0:0:0:0:
300,12,56909,1,0,0:0:0:0:
81,224,57034,5,2,0:0:0:0:
300,140,57159,1,0,0:0:0:0:
232,291,57284,1,8,0:0:0:0:
148,72,57409,1,0,0:0:0:0:
297,229,57534,1,2,0:0:0:0:
142,289,57659,1,0,0:0:0:0:
83,134,57784,1,8,0:0:0:0:
238,74,57909,1,0,0:0:0:0:
188,368,58034,6,0,P|124:376|80:356,1,95,6|0,0:0|0:0,0:0:0:0:
251,150,58284,2,0,P|315:142|359:162,1,95,8|0,0:0|0:0,0:0:0:0:
12,176,58534,2,0,L|0:48,1,95,2|0,0:0|0:0,0:0:0:0:
204,220,58784,1,8,0:0:0:0:
4,280,58909,1,0,0:0:0:0:
130,113,59034,5,2,0:0:0:0:
188,368,59159,1,0,0:0:0:0:
379,190,59284,2,0,L|391:62,1,95,8|0,0:0|0:0,0:0:0:0:
192,32,59534,1,2,0:0:0:0:
296,236,59659,2,0,P|384:280|472:228,1,190,8|8,0:0|0:0,0:0:0:0:
392,8,60034,5,6,0:0:0:0:
379,190,60159,1,0,0:0:0:0:
130,113,60284,2,0,P|184:96|232:104,1,95,8|0,0:0|0:0,0:0:0:0:
188,368,60534,1,2,0:0:0:0:
0,252,60659,1,0,0:0:0:0:
192,32,60784,1,8,0:0:0:0:
296,236,60909,1,0,0:0:0:0:
91,132,61034,5,2,0:0:0:0:
317,95,61159,1,0,0:0:0:0:
236,309,61284,1,8,0:0:0:0:
192,32,61409,1,0,0:0:0:0:
296,236,61534,1,2,0:0:0:0:
500,132,61659,1,0,0:0:0:0:
435,345,61784,1,8,0:0:0:0:
360,22,61909,1,0,0:0:0:0:
356,312,62034,6,0,P|320:332|256:328,1,95,6|0,0:0|0:0,0:0:0:0:
91,132,62284,2,0,P|127:112|191:116,1,95,8|0,0:0|0:0,0:0:0:0:
296,236,62534,2,0,L|312:28,1,190,2|8,0:0|0:0,0:0:0:0:
151,208,62909,1,0,0:0:0:0:
400,168,63034,6,0,L|407:262,1,95,2|0,0:0|0:0,0:0:0:0:
196,384,63284,2,0,L|203:289,1,95,8|0,0:0|0:0,0:0:0:0:
296,36,63534,1,2,0:0:0:0:
151,208,63659,2,0,L|245:215,1,95,0|8,0:0|0:0,0:0:0:0:
216,24,63909,1,0,0:0:0:0:
124,288,64034,6,0,L|218:295,1,95,6|0,0:0|0:0,0:0:0:0:
400,168,64284,1,8,0:0:0:0:
136,12,64409,1,0,0:0:0:0:
97,368,64534,2,0,L|191:375,1,95,2|0,0:0|0:0,0:0:0:0:
400,168,64784,1,8,0:0:0:0:
56,0,64909,1,0,0:0:0:0:
304,264,65034,6,0,P|396:296|492:264,1,190,2|8,0:0|0:0,0:0:0:0:
400,52,65409,1,0,0:0:0:0:
216,224,65534,2,0,P|208:280|224:336,1,95,2|0,0:0|0:0,0:0:0:0:
488,208,65784,2,0,P|496:152|480:96,1,95,8|0,0:0|0:0,0:0:0:0:
136,160,66034,6,0,P|232:136|312:192,1,190,6|8,0:0|0:0,0:0:0:0:
208,360,66409,1,0,0:0:0:0:
52,216,66534,2,0,L|40:108,1,95,2|0,0:0|0:0,0:0:0:0:
288,32,66784,1,8,0:0:0:0:
213,292,66909,1,0,0:0:0:0:
418,268,67034,5,2,0:0:0:0:
178,57,67159,1,0,0:0:0:0:
160,352,67284,2,0,P|216:368|256:356,1,95,8|0,0:0|0:0,0:0:0:0:
364,128,67534,1,2,0:0:0:0:
407,381,67659,1,0,0:0:0:0:
223,201,67784,1,8,0:0:0:0:
477,238,67909,1,0,0:0:0:0:
293,58,68034,6,0,L|193:50,1,95,6|0,0:0|0:0,0:0:0:0:
104,292,68284,2,0,L|204:284,1,95,8|0,0:0|0:0,0:0:0:0:
332,196,68534,1,2,0:0:0:0:
44,212,68659,2,0,P|12:308|56:380,1,190,8|2,0:0|0:0,0:0:0:0:
296,335,69034,1,2,0:0:0:0:
155,97,69159,1,0,0:0:0:0:
158,374,69284,1,8,0:0:0:0:
293,58,69409,1,0,0:0:0:0:
104,292,69534,5,2,0:0:0:0:
342,151,69659,1,0,0:0:0:0:
65,154,69784,1,8,0:0:0:0:
381,289,69909,1,0,0:0:0:0:
223,221,70034,6,0,L|212:116,1,95,6|0,0:0|0:0,0:0:0:0:
336,176,70284,2,0,L|441:165,1,95,2|0,0:0|0:0,0:0:0:0:
381,289,70534,2,0,L|392:394,1,95,2|0,0:0|0:0,0:0:0:0:
268,334,70784,2,0,L|163:345,1,95,2|0,0:0|0:0,0:0:0:0:
288,100,71034,6,0,P|348:92|392:104,1,95,2|0,0:0|0:0,0:0:0:0:
271,297,71284,2,0,P|211:305|167:293,1,95,2|0,0:0|0:0,0:0:0:0:
376,244,71534,2,0,P|384:304|372:348,1,95,2|0,0:0|0:0,0:0:0:0:
183,153,71784,2,0,P|175:93|187:49,1,95,2|0,0:0|0:0,0:0:0:0:
264,200,72034,6,0,P|188:240|96:200,1,190,2|2,0:0|0:0,0:0:0:0:
180,40,72409,1,0,0:0:0:0:
344,144,72534,2,0,P|356:204|348:260,1,95,2|0,0:0|0:0,0:0:0:0:
152,384,72784,2,0,P|140:324|148:268,1,95,2|0,0:0|0:0,0:0:0:0:
296,336,73034,6,0,L|408:344,1,95,2|0,0:0|0:0,0:0:0:0:
199,191,73284,2,0,L|87:183,1,95,2|0,0:0|0:0,0:0:0:0:
180,40,73534,1,2,0:0:0:0:
236,156,73659,1,0,0:0:0:0:
260,28,73784,1,2,0:0:0:0:
166,119,73909,1,0,0:0:0:0:
292,100,74034,6,0,L|392:88,1,95,2|0,0:0|0:0,0:0:0:0:
468,328,74284,2,0,L|368:316,1,95,2|0,0:0|0:0,0:0:0:0:
168,198,74534,1,2,0:0:0:0:
420,160,74659,1,0,0:0:0:0:
268,365,74784,1,2,0:0:0:0:
292,100,74909,1,0,0:0:0:0:
116,300,75034,5,2,0:0:0:0:
140,34,75159,1,0,0:0:0:0:
276,263,75284,1,2,0:0:0:0:
31,157,75409,1,0,0:0:0:0:
292,100,75534,1,2,0:0:0:0:
214,361,75659,1,0,0:0:0:0:
170,170,75784,1,2,0:0:0:0:
430,247,75909,1,0,0:0:0:0:
116,300,76034,6,0,L|20:288,1,95,2|0,0:0|0:0,0:0:0:0:
140,34,76284,2,0,L|236:22,1,95,2|0,0:0|0:0,0:0:0:0:
316,220,76534,1,2,0:0:0:0:
446,50,76659,2,0,P|456:92|448:152,1,95,0|2,0:0|0:0,0:0:0:0:
170,170,76909,1,0,0:0:0:0:
340,328,77034,6,0,P|392:352|436:344,2,95,2|0|2,0:0|0:0|0:0,0:0:0:0:
268,122,77409,1,0,0:0:0:0:
126,286,77534,2,0,B|84:312|28:308|28:308|32:248|104:248,1,190,2|2,0:0|0:0,0:0:0:0:
303,224,77909,1,0,0:0:0:0:
148,116,78034,6,0,P|136:56|152:0,1,95,6|0,0:0|0:0,0:0:0:0:
384,176,78284,2,0,P|396:236|380:292,1,95,2|0,0:0|0:0,0:0:0:0:
126,286,78534,1,2,0:0:0:0:
328,76,78659,1,0,0:0:0:0:
334,368,78784,1,2,0:0:0:0:
157,135,78909,1,0,0:0:0:0:
446,174,79034,6,0,L|456:272,1,95,2|0,0:0|0:0,0:0:0:0:
232,128,79284,2,0,P|220:64|236:8,1,95,2|0,0:0|0:0,0:0:0:0:
368,228,79534,1,2,0:0:0:0:
112,328,79659,1,0,0:0:0:0:
157,135,79784,1,2,0:0:0:0:
334,368,79909,1,0,0:0:0:0:
328,76,80034,6,0,P|416:40|500:72,1,190,2|2,0:0|0:0,0:0:0:0:
369,165,80409,2,0,B|321:177|277:161|277:161|234:178|234:178|181:169,1,190,2|2,0:0|0:0,0:0:0:0:
100,212,80784,2,0,P|88:168|104:112,1,95,2|0,0:0|0:0,0:0:0:0:
184,264,81034,6,0,P|96:308|4:268,1,190,2|2,0:0|0:0,0:0:0:0:
40,64,81409,2,0,P|100:40|144:52,1,95,0|2,0:0|0:0,0:0:0:0:
356,92,81659,1,0,0:0:0:0:
100,212,81784,1,2,0:0:0:0:
284,8,81909,1,0,0:0:0:0:
276,304,82034,6,0,P|340:320|376:312,1,95,6|0,0:0|0:0,0:0:0:0:
447,102,82284,2,0,P|383:86|347:94,1,95,2|0,0:0|0:0,0:0:0:0:
100,212,82534,1,2,0:0:0:0:
388,168,82659,1,0,0:0:0:0:
160,350,82784,1,2,0:0:0:0:
192,60,82909,1,0,0:0:0:0:
336,313,83034,5,2,0:0:0:0:
55,235,83159,1,0,0:0:0:0:
308,91,83284,1,2,0:0:0:0:
230,371,83409,1,0,0:0:0:0:
107,144,83534,1,2,0:0:0:0:
384,236,83659,1,0,0:0:0:0:
160,350,83784,1,2,0:0:0:0:
192,60,83909,1,0,0:0:0:0:
336,313,84034,6,0,P|388:324|440:312,1,95,2|0,0:0|0:0,0:0:0:0:
199,147,84284,2,0,P|147:136|95:148,1,95,2|0,0:0|0:0,0:0:0:0:
160,350,84534,1,2,0:0:0:0:
308,91,84659,1,0,0:0:0:0:
384,236,84784,1,2,0:0:0:0:
151,224,84909,1,0,0:0:0:0:
264,16,85034,6,0,P|316:8|368:24,1,95,2|0,0:0|0:0,0:0:0:0:
195,299,85284,2,0,P|143:307|91:291,1,95,2|0,0:0|0:0,0:0:0:0:
308,91,85534,1,2,0:0:0:0:
241,376,85659,1,0,0:0:0:0:
151,224,85784,1,2,0:0:0:0:
477,208,85909,1,0,0:0:0:0:
272,304,86034,6,0,L|256:208,1,95,6|0,0:0|0:0,0:0:0:0:
496,32,86284,2,0,P|504:92|492:132,1,95,2|0,0:0|0:0,0:0:0:0:
200,120,86534,1,2,0:0:0:0:
424,76,86659,1,0,0:0:0:0:
272,304,86784,1,2,0:0:0:0:
48,260,86909,1,0,0:0:0:0:
360,252,87034,6,0,L|368:352,1,95,2|0,0:0|0:0,0:0:0:0:
112,172,87284,2,0,L|104:72,1,95,2|0,0:0|0:0,0:0:0:0:
288,16,87534,1,2,0:0:0:0:
272,304,87659,1,0,0:0:0:0:
30,146,87784,1,2,0:0:0:0:
424,76,87909,1,0,0:0:0:0:
182,253,88034,6,0,P|128:280|88:280,1,95,2|0,0:0|0:0,0:0:0:0:
193,6,88284,2,0,L|292:16,1,95,2|0,0:0|0:0,0:0:0:0:
396,248,88534,1,2,0:0:0:0:
112,172,88659,1,0,0:0:0:0:
319,379,88784,1,2,0:0:0:0:
273,89,88909,1,0,0:0:0:0:
167,363,89034,5,2,0:0:0:0:
30,146,89159,2,0,L|20:48,1,95,0|2,0:0|0:0,0:0:0:0:
370,141,89409,1,0,0:0:0:0:
96,216,89534,2,0,P|56:240|-8:240,1,95,2|0,0:0|0:0,0:0:0:0:
273,89,89784,2,0,L|282:183,1,95,2|0,0:0|0:0,0:0:0:0:
228,280,90034,6,0,P|304:296|372:248,1,126.666666666667,6|0,0:0|0:0,0:0:0:0:
376,52,90284,2,0,P|434:31|494:48,1,126.666666666667,2|0,0:0|0:0,0:0:0:0:
288,204,90534,2,0,L|156:184,1,126.666666666667,2|0,0:0|0:0,0:0:0:0:
16,364,90784,2,0,L|141:345,1,126.666666666667,2|0,0:0|0:0,0:0:0:0:
360,256,91034,6,0,P|376:332|360:388,1,126.666666666667,2|0,0:0|0:0,0:0:0:0:
144,240,91284,2,0,P|128:164|144:108,1,126.666666666667,2|0,0:0|0:0,0:0:0:0:
256,52,91534,2,0,L|324:32,2,63.3333333333333,2|0|0,0:0|0:0|0:0,0:0:0:0:
356,104,91784,2,0,L|424:84,2,63.3333333333333,2|0|0,0:0|0:0|0:0,0:0:0:0:
456,156,92034,6,0,P|472:224|456:292,1,126.666666666667,2|0,0:0|0:0,0:0:0:0:
244,368,92284,2,0,P|228:307|238:245,1,126.666666666667,2|0,0:0|0:0,0:0:0:0:
268,16,92534,2,0,P|284:84|268:152,1,126.666666666667,2|0,0:0|0:0,0:0:0:0:
56,228,92784,2,0,P|40:167|50:105,1,126.666666666667,2|0,0:0|0:0,0:0:0:0:
88,56,93034,1,2,0:0:0:0:
316,296,93200,5,0,0:0:0:0:
316,296,93284,2,0,L|448:280,1,126.666666666667,2|0,0:0|0:0,0:0:0:0:
336,220,93534,2,0,P|240:288|376:344,1,316.666666666667,2|0,0:0|0:0,0:0:0:0:
416,148,94034,6,0,L|284:132,1,126.666666666667,6|0,0:0|0:0,0:0:0:0:
128,184,94284,2,0,P|116:108|148:40,1,126.666666666667,2|0,0:0|0:0,0:0:0:0:
172,36,94534,1,2,0:0:0:0:
204,236,94700,1,0,0:0:0:0:
204,236,94784,2,0,P|140:272|56:252,1,126.666666666667,2|0,0:0|0:0,0:0:0:0:
340,96,95034,6,0,P|404:60|488:80,1,126.666666666667,2|0,0:0|0:0,0:0:0:0:
408,316,95284,2,0,L|276:300,1,126.666666666667,2|0,0:0|0:0,0:0:0:0:
120,320,95534,1,2,0:0:0:0:
136,264,95617,1,0,0:0:0:0:
131,205,95700,1,0,0:0:0:0:
106,151,95784,2,0,L|40:160,2,63.3333333333333,2|0|0,0:0|0:0|0:0,0:0:0:0:
292,0,96034,6,0,B|308:64|308:64|292:128,1,126.666666666667,2|0,0:0|0:0,0:0:0:0:
232,280,96284,2,0,P|288:256|352:264,1,126.666666666667,2|0,0:0|0:0,0:0:0:0:
400,296,96534,1,2,0:0:0:0:
468,148,96700,1,0,0:0:0:0:
468,148,96784,2,0,L|464:20,1,126.666666666667,2|0,0:0|0:0,0:0:0:0:
296,80,97034,6,0,P|224:104|156:88,1,126.666666666667,2|0,0:0|0:0,0:0:0:0:
36,192,97284,2,0,L|32:324,1,126.666666666667,2|0,0:0|0:0,0:0:0:0:
176,352,97534,2,0,P|208:356|248:344,2,63.3333333333333,2|0|0,0:0|0:0|0:0,0:0:0:0:
296,272,97784,2,0,P|328:268|368:280,2,63.3333333333333,2|0|0,0:0|0:0|0:0,0:0:0:0:
416,352,98034,6,0,P|440:276|424:216,1,126.666666666667,6|0,0:0|0:0,0:0:0:0:
296,80,98284,2,0,L|436:64,1,126.666666666667,2|0,0:0|0:0,0:0:0:0:
332,288,98534,2,0,L|192:304,1,126.666666666667,2|0,0:0|0:0,0:0:0:0:
196,136,98784,2,0,P|188:73|211:15,1,126.666666666667,2|0,0:0|0:0,0:0:0:0:
296,80,99034,5,2,0:0:0:0:
40,100,99200,1,0,0:0:0:0:
32,152,99284,2,0,L|40:280,1,126.666666666667,2|0,0:0|0:0,0:0:0:0:
240,348,99534,2,0,P|260:272|244:216,1,126.666666666667,2|0,0:0|0:0,0:0:0:0:
232,24,99784,2,0,P|296:4|360:24,1,126.666666666667,2|0,0:0|0:0,0:0:0:0:
464,212,100034,6,0,P|400:232|336:212,1,126.666666666667,2|0,0:0|0:0,0:0:0:0:
144,140,100284,2,0,L|136:268,1,126.666666666667,2|0,0:0|0:0,0:0:0:0:
280,384,100534,2,0,P|296:312|284:260,1,126.666666666667,2|0,0:0|0:0,0:0:0:0:
48,72,100784,2,0,P|32:144|44:196,1,126.666666666667,2|0,0:0|0:0,0:0:0:0:
72,240,101034,1,2,0:0:0:0:
284,112,101200,5,0,0:0:0:0:
332,80,101284,2,0,L|464:64,1,126.666666666667,2|0,0:0|0:0,0:0:0:0:
408,288,101534,1,2,0:0:0:0:
348,304,101617,1,0,0:0:0:0:
286,298,101700,1,0,0:0:0:0:
229,271,101784,2,0,L|224:204,2,63.3333333333333,2|0|0,0:0|0:0|0:0,0:0:0:0:
156,144,102034,6,0,P|212:120|288:136,1,126.666666666667,6|0,0:0|0:0,0:0:0:0:
136,356,102284,2,0,L|8:332,1,126.666666666667,2|0,0:0|0:0,0:0:0:0:
80,72,102534,2,0,L|204:48,1,126.666666666667,2|0,0:0|0:0,0:0:0:0:
384,124,102784,2,0,P|400:56|384:-4,1,126.666666666667,2|0,0:0|0:0,0:0:0:0:
320,204,103034,6,0,P|380:228|448:208,1,126.666666666667,2|0,0:0|0:0,0:0:0:0:
472,168,103284,1,2,0:0:0:0:
156,144,103450,1,0,0:0:0:0:
156,144,103534,2,0,L|144:216,2,63.3333333333333,2|0|0,0:0|0:0|0:0,0:0:0:0:
236,256,103784,2,0,L|249:327,2,63.3333333333333,2|0|0,0:0|0:0|0:0,0:0:0:0:
349,333,104034,6,0,P|412:344|488:320,1,126.666666666667,2|0,0:0|0:0,0:0:0:0:
384,120,104284,2,0,L|252:104,1,126.666666666667,2|0,0:0|0:0,0:0:0:0:
56,224,104534,2,0,L|48:92,1,126.666666666667,2|0,0:0|0:0,0:0:0:0:
320,200,104784,2,0,P|328:268|304:332,1,126.666666666667,2|0,0:0|0:0,0:0:0:0:
272,368,105034,1,2,0:0:0:0:
248,144,105200,5,0,0:0:0:0:
248,144,105284,2,0,P|328:116|392:136,1,126.666666666667,2|0,0:0|0:0,0:0:0:0:
168,232,105534,1,2,0:0:0:0:
131,170,105617,1,0,0:0:0:0:
138,98,105700,1,0,0:0:0:0:
186,44,105784,2,0,L|316:32,1,126.666666666667,2|0,0:0|0:0,0:0:0:0:
447,220,106034,6,0,L|464:316,1,95,4|0,0:0|0:0,0:0:0:0:
322,256,106284,2,0,L|326:351,1,95
190,256,106534,2,0,L|185:351,1,95
64,220,106784,2,0,L|47:316,1,95
47,70,107034,6,0,L|64:163,1,95
185,32,107284,2,0,L|190:128,1,95
326,32,107534,2,0,L|322:128,1,95
464,70,107784,2,0,L|447:163,1,95
372,344,108034,6,0,P|423:355|463:344,1,95
412,228,108284,2,0,P|360:216|320:228,1,95
140,344,108534,2,0,P|88:355|48:344,1,95
100,228,108784,2,0,P|151:216|191:228,1,95
372,40,109034,6,0,P|423:28|463:40,1,95
412,156,109284,2,0,P|360:167|320:156,1,95
140,40,109534,2,0,P|88:28|48:40,1,95
100,156,109784,2,0,P|151:167|191:156,1,95
368,92,110034,5,6,0:0:0:0:
296,368,110159,1,0,0:0:0:0:
121,236,110284,1,8,0:0:0:0:
428,176,110409,1,0,0:0:0:0:
208,301,110534,1,2,0:0:0:0:
272,0,110659,1,0,0:0:0:0:
385,269,110784,1,8,0:0:0:0:
135,117,110909,1,0,0:0:0:0:
428,176,111034,5,2,0:0:0:0:
208,301,111159,1,0,0:0:0:0:
204,58,111284,1,8,0:0:0:0:
385,269,111409,1,0,0:0:0:0:
135,117,111534,1,2,0:0:0:0:
156,380,111659,1,0,0:0:0:0:
428,176,111784,1,8,0:0:0:0:
66,176,111909,1,0,0:0:0:0:
332,340,112034,6,0,P|380:356|444:336,1,95,6|0,0:0|0:0,0:0:0:0:
481,105,112284,2,0,P|433:89|369:109,1,95,8|0,0:0|0:0,0:0:0:0:
151,206,112534,1,2,0:0:0:0:
272,0,112659,1,0,0:0:0:0:
241,272,112784,1,8,0:0:0:0:
20,109,112909,1,0,0:0:0:0:
344,88,113034,5,2,0:0:0:0:
138,316,113159,1,0,0:0:0:0:
149,119,113284,1,8,0:0:0:0:
332,284,113409,1,0,0:0:0:0:
233,48,113534,1,2,0:0:0:0:
248,355,113659,1,0,0:0:0:0:
118,208,113784,1,8,0:0:0:0:
363,195,113909,1,0,0:0:0:0:
138,316,114034,6,0,P|84:316|32:288,1,95,6|0,0:0|0:0,0:0:0:0:
175,128,114284,2,0,L|287:116,1,95,8|0,0:0|0:0,0:0:0:0:
436,268,114534,2,0,P|344:296|272:232,1,190,2|8,0:0|0:0,0:0:0:0:
400,72,114909,1,0,0:0:0:0:
328,368,115034,5,2,0:0:0:0:
192,204,115159,1,0,0:0:0:0:
402,168,115284,2,0,L|504:188,1,95,8|0,0:0|0:0,0:0:0:0:
260,286,115534,1,2,0:0:0:0:
268,16,115659,2,0,L|454:52,1,190,8|8,0:0|0:0,0:0:0:0:
365,268,116034,5,6,0:0:0:0:
124,122,116159,1,0,0:0:0:0:
178,354,116284,1,8,0:0:0:0:
402,168,116409,1,0,0:0:0:0:
156,44,116534,2,0,P|104:44|60:64,1,95,2|0,0:0|0:0,0:0:0:0:
28,284,116784,1,8,0:0:0:0:
248,204,116909,1,0,0:0:0:0:
178,354,117034,6,0,P|224:368|276:360,1,95,2|0,0:0|0:0,0:0:0:0:
456,96,117284,2,0,P|410:82|358:90,1,95,8|0,0:0|0:0,0:0:0:0:
232,282,117534,1,2,0:0:0:0:
402,168,117659,1,0,0:0:0:0:
380,372,117784,1,8,0:0:0:0:
254,78,117909,1,0,0:0:0:0:
137,292,118034,6,0,L|231:281,1,95,6|0,0:0|0:0,0:0:0:0:
456,96,118284,2,0,L|361:106,1,95,8|0,0:0|0:0,0:0:0:0:
127,196,118534,1,2,0:0:0:0:
254,78,118659,1,0,0:0:0:0:
226,332,118784,1,8,0:0:0:0:
20,180,118909,1,0,0:0:0:0:
294,178,119034,5,2,0:0:0:0:
137,292,119159,1,0,0:0:0:0:
254,78,119284,1,8,0:0:0:0:
380,286,119409,1,0,0:0:0:0:
146,85,119534,1,2,0:0:0:0:
226,332,119659,1,0,0:0:0:0:
399,139,119784,1,8,0:0:0:0:
127,196,119909,1,0,0:0:0:0:
380,286,120034,6,0,L|488:276,1,95,6|0,0:0|0:0,0:0:0:0:
408,72,120284,1,8,0:0:0:0:
127,196,120409,1,0,0:0:0:0:
336,368,120534,2,0,L|444:358,1,95,2|0,0:0|0:0,0:0:0:0:
417,5,120784,1,8,0:0:0:0:
127,196,120909,1,0,0:0:0:0:
380,286,121034,6,0,P|404:194|372:106,1,190,2|8,0:0|0:0,0:0:0:0:
144,76,121409,1,0,0:0:0:0:
256,284,121534,2,0,P|276:248|272:184,1,95,2|0,0:0|0:0,0:0:0:0:
68,8,121784,2,0,P|48:44|52:108,1,95,8|0,0:0|0:0,0:0:0:0:
160,304,122034,5,6,0:0:0:0:
224,40,122159,1,0,0:0:0:0:
5,201,122284,1,8,0:0:0:0:
256,284,122409,1,0,0:0:0:0:
405,88,122534,1,2,0:0:0:0:
225,377,122659,1,0,0:0:0:0:
240,162,122784,1,8,0:0:0:0:
419,283,122909,1,0,0:0:0:0:
160,304,123034,6,0,L|152:200,1,95,2|0,0:0|0:0,0:0:0:0:
405,88,123284,2,0,L|397:182,1,95,8|0,0:0|0:0,0:0:0:0:
60,256,123534,1,2,0:0:0:0:
284,88,123659,1,0,0:0:0:0:
256,284,123784,1,8,0:0:0:0:
88,60,123909,1,0,0:0:0:0:
336,236,124034,6,0,P|344:292|328:352,1,95,6|0,0:0|0:0,0:0:0:0:
204,136,124284,2,0,P|196:80|212:20,1,95,8|0,0:0|0:0,0:0:0:0:
440,120,124534,1,2,0:0:0:0:
232,220,124659,2,0,P|184:224|136:204,1,95,0|8,0:0|0:0,0:0:0:0:
288,16,124909,1,0,0:0:0:0:
271,319,125034,5,2,0:0:0:0:
185,74,125159,1,0,0:0:0:0:
419,186,125284,1,8,0:0:0:0:
165,303,125409,1,0,0:0:0:0:
288,16,125534,1,2,0:0:0:0:
336,236,125659,2,0,P|256:260|160:208,1,190,8|8,0:0|0:0,0:0:0:0:
272,128,126034,6,0,L|368:112,1,95,6|0,0:0|0:0,0:0:0:0:
306,242,126284,2,0,L|322:338,1,95
192,276,126534,2,0,L|96:292,1,95,2|0,0:0|0:0,0:0:0:0:
158,162,126784,2,0,L|142:66,1,95
344,72,127034,6,0,P|356:132|344:184,1,95,2|0,0:0|0:0,0:0:0:0:
362,314,127284,2,0,P|302:326|250:314,1,95
120,332,127534,2,0,P|108:272|120:220,1,95,2|0,0:0|0:0,0:0:0:0:
102,90,127784,2,0,P|162:78|214:90,1,95
436,200,128034,6,0,P|344:248|260:204,1,190,2|0,0:0|0:0,0:0:0:0:
344,72,128409,1,0,0:0:0:0:
372,336,128534,2,0,L|264:320,1,95,2|0,0:0|0:0,0:0:0:0:
64,160,128784,2,0,L|172:144,1,95
344,72,129034,6,0,P|356:128|344:176,1,95,2|0,0:0|0:0,0:0:0:0:
208,364,129284,2,0,P|196:308|208:260,1,95
220,108,129534,1,2,0:0:0:0:
302,250,129659,1,0,0:0:0:0:
152,183,129784,1,0,0:0:0:0:
312,149,129909,1,0,0:0:0:0:
202,270,130034,6,0,L|104:280,1,95,6|0,0:0|0:0,0:0:0:0:
36,36,130283,2,0,L|134:46,1,95,2|0,0:0|0:0,0:0:0:0:
395,139,130533,1,2,0:0:0:0:
152,183,130658,1,0,0:0:0:0:
300,3,130783,1,2,0:0:0:0:
302,250,130908,1,0,0:0:0:0:
88,129,131033,5,2,0:0:0:0:
190,352,131159,1,0,0:0:0:0:
332,152,131284,1,2,0:0:0:0:
109,254,131409,1,0,0:0:0:0:
251,54,131534,1,2,0:0:0:0:
353,277,131659,1,0,0:0:0:0:
88,129,131784,1,2,0:0:0:0:
395,139,131909,1,0,0:0:0:0:
190,352,132034,6,0,P|140:360|96:348,1,95,2|0,0:0|0:0,0:0:0:0:
312,204,132284,2,0,P|362:196|406:208,1,95,2|0,0:0|0:0,0:0:0:0:
250,278,132534,1,2,0:0:0:0:
251,54,132659,1,0,0:0:0:0:
475,54,132784,1,2,0:0:0:0:
475,278,132909,1,0,0:0:0:0:
203,165,133034,5,2,0:0:0:0:
362,324,133159,2,0,L|456:344,1,95,0|2,0:0|0:0,0:0:0:0:
475,54,133409,1,0,0:0:0:0:
284,184,133534,2,0,B|276:236|276:236|295:275|295:275|272:320|292:368,1,190,2|2,0:0|0:0,0:0:0:0:
475,278,133909,1,0,0:0:0:0:
212,288,134034,6,0,L|116:296,1,95,6|0,0:0|0:0,0:0:0:0:
256,28,134284,2,0,L|352:20,1,95,2|0,0:0|0:0,0:0:0:0:
156,216,134534,1,2,0:0:0:0:
126,5,134659,1,0,0:0:0:0:
323,84,134784,1,2,0:0:0:0:
293,295,134909,1,0,0:0:0:0:
125,163,135034,5,2,0:0:0:0:
416,160,135159,2,0,L|516:172,1,95,0|2,0:0|0:0,0:0:0:0:
360,351,135409,1,0,0:0:0:0:
323,84,135534,2,0,P|376:56|432:60,1,95,2|0,0:0|0:0,0:0:0:0:
218,239,135784,2,0,P|165:267|109:263,1,95,2|0,0:0|0:0,0:0:0:0:
36,104,136034,6,0,P|132:72|228:120,1,190,2|2,0:0|0:0,0:0:0:0:
308,232,136409,2,0,B|296:168|296:168|320:128|324:80|276:36,1,190,2|2,0:0|0:0,0:0:0:0:
412,192,136784,2,0,P|424:244|408:292,1,95,2|0,0:0|0:0,0:0:0:0:
196,344,137034,5,2,0:0:0:0:
196,344,137159,2,0,P|160:256|196:172,1,190,2|2,0:0|0:0,0:0:0:0:
452,64,137534,1,2,0:0:0:0:
252,256,137659,1,0,0:0:0:0:
256,60,137784,1,2,0:0:0:0:
448,260,137909,1,0,0:0:0:0:
196,344,138034,6,0,L|96:336,1,95,6|0,0:0|0:0,0:0:0:0:
317,184,138284,2,0,L|417:192,1,95,2|0,0:0|0:0,0:0:0:0:
176,203,138534,1,2,0:0:0:0:
355,8,138659,1,0,0:0:0:0:
367,272,138784,1,2,0:0:0:0:
171,93,138909,1,0,0:0:0:0:
416,194,139034,5,2,0:0:0:0:
207,356,139159,1,0,0:0:0:0:
240,93,139284,1,2,0:0:0:0:
367,325,139409,1,0,0:0:0:0:
127,211,139534,1,2,0:0:0:0:
416,194,139659,1,0,0:0:0:0:
207,356,139784,1,2,0:0:0:0:
205,33,139909,1,0,0:0:0:0:
308,252,140034,6,0,L|412:244,1,95,2|0,0:0|0:0,0:0:0:0:
186,138,140284,2,0,L|82:130,1,95,2|0,0:0|0:0,0:0:0:0:
152,348,140534,1,2,0:0:0:0:
396,172,140659,1,0,0:0:0:0:
362,382,140784,1,2,0:0:0:0:
186,138,140909,1,0,0:0:0:0:
274,259,141034,5,2,0:0:0:0:
64,225,141159,1,0,0:0:0:0:
98,15,141284,1,2,0:0:0:0:
308,49,141409,1,0,0:0:0:0:
152,348,141534,1,2,0:0:0:0:
362,382,141659,1,0,0:0:0:0:
396,172,141784,1,2,0:0:0:0:
186,138,141909,1,0,0:0:0:0:
352,248,142034,6,0,P|404:260|464:240,1,95,6|0,0:0|0:0,0:0:0:0:
230,62,142284,2,0,P|178:50|118:70,1,95,2|0,0:0|0:0,0:0:0:0:
396,172,142534,2,0,L|400:76,1,95,2|0,0:0|0:0,0:0:0:0:
186,138,142784,2,0,L|182:234,1,95,2|0,0:0|0:0,0:0:0:0:
240,360,143034,5,2,0:0:0:0:
263,117,143159,1,0,0:0:0:0:
41,218,143284,1,2,0:0:0:0:
324,321,143409,1,0,0:0:0:0:
272,24,143534,1,2,0:0:0:0:
248,264,143659,1,0,0:0:0:0:
471,166,143784,1,2,0:0:0:0:
188,63,143909,1,0,0:0:0:0:
324,321,144034,6,0,L|424:328,1,95,2|0,0:0|0:0,0:0:0:0:
263,117,144284,2,0,L|163:124,1,95,2|0,0:0|0:0,0:0:0:0:
388,200,144534,2,0,P|408:104|372:12,1,190,2|2,0:0|0:0,0:0:0:0:
144,16,144909,1,0,0:0:0:0:
176,304,145034,5,2,0:0:0:0:
100,108,145159,2,0,P|148:88|196:92,1,95,0|2,0:0|0:0,0:0:0:0:
440,152,145409,1,0,0:0:0:0:
168,260,145534,2,0,L|156:164,1,95,2|0,0:0|0:0,0:0:0:0:
380,28,145784,2,0,L|368:122,1,95,2|0,0:0|0:0,0:0:0:0:
323,360,146034,1,6,0:0:0:0:
52,123,154034,6,0,P|137:87|222:124,1,190,6|8,0:0|0:0,0:0:0:0:
136,204,154409,1,0,0:0:0:0:
304,264,154534,2,0,L|328:72,1,190,2|8,0:0|0:0,0:0:0:0:
464,140,154909,1,0,0:0:0:0:
388,345,155034,6,0,P|302:381|217:344,1,190,2|8,0:0|0:0,0:0:0:0:
136,204,155409,1,0,0:0:0:0:
332,80,155534,2,0,B|368:96|400:84|400:84|440:44|516:68,1,190,2|8,0:0|0:0,0:0:0:0:
424,252,155909,1,0,0:0:0:0:
228,204,156034,6,0,P|224:256|232:312,1,95,2|0,0:0|0:0,0:0:0:0:
416,120,156284,2,0,P|420:68|412:12,1,95,8|0,0:0|0:0,0:0:0:0:
136,112,156534,1,2,0:0:0:0:
320,112,156659,1,0,0:0:0:0:
320,296,156784,1,8,0:0:0:0:
136,296,156909,1,0,0:0:0:0:
268,40,157034,6,0,L|364:28,1,95,2|0,0:0|0:0,0:0:0:0:
188,184,157284,2,0,L|92:196,1,95,8|0,0:0|0:0,0:0:0:0:
200,8,157534,1,2,0:0:0:0:
216,264,157659,1,0,0:0:0:0:
65,83,157784,1,8,0:0:0:0:
320,112,157909,1,0,0:0:0:0:
291,367,158034,6,0,P|192:380|112:328,1,190,2|8,0:0|0:0,0:0:0:0:
224,152,158409,1,0,0:0:0:0:
320,264,158534,2,0,B|384:300|444:248|444:248|480:264|456:296,1,190,2|8,0:0|0:0,0:0:0:0:
292,368,158909,1,0,0:0:0:0:
376,196,159034,6,0,P|360:88|412:8,1,190,2|8,0:0|0:0,0:0:0:0:
496,156,159409,1,0,0:0:0:0:
244,72,159534,2,0,P|188:64|144:76,1,95,2|0,0:0|0:0,0:0:0:0:
68,304,159784,2,0,P|124:312|168:300,1,95,8|0,0:0|0:0,0:0:0:0:
376,196,160034,6,0,L|380:96,1,95,2|0,0:0|0:0,0:0:0:0:
120,128,160284,2,0,L|116:222,1,95,8|0,0:0|0:0,0:0:0:0:
336,343,160534,1,2,0:0:0:0:
267,88,160659,1,0,0:0:0:0:
189,383,160784,1,8,0:0:0:0:
376,196,160909,1,0,0:0:0:0:
81,275,161034,5,2,0:0:0:0:
267,88,161159,1,0,0:0:0:0:
336,343,161284,1,8,0:0:0:0:
120,128,161409,2,0,P|108:76|124:24,1,95,0|2,0:0|0:0,0:0:0:0:
352,110,161659,1,0,0:0:0:0:
228,235,161784,1,8,0:0:0:0:
244,3,161909,1,0,0:0:0:0:
436,132,162034,6,0,B|484:200|432:264|432:264|416:284|476:272,1,190,6|8,0:0|0:0,0:0:0:0:
484,48,162409,1,0,0:0:0:0:
216,172,162534,2,0,P|300:224|400:180,1,190,2|8,0:0|0:0,0:0:0:0:
312,110,162909,1,0,0:0:0:0:
296,328,163034,6,0,B|340:304|388:336|388:336|432:368|516:336,1,190,2|8,0:0|0:0,0:0:0:0:
504,192,163409,1,0,0:0:0:0:
288,244,163534,2,0,P|188:260|124:176,1,190,2|8,0:0|0:0,0:0:0:0:
210,57,163909,1,0,0:0:0:0:
132,332,164034,6,0,L|32:340,1,95,2|0,0:0|0:0,0:0:0:0:
216,172,164284,2,0,L|316:164,1,95,8|0,0:0|0:0,0:0:0:0:
80,232,164534,1,2,0:0:0:0:
210,57,164659,1,0,0:0:0:0:
242,350,164784,1,8,0:0:0:0:
74,117,164909,1,0,0:0:0:0:
290,175,165034,5,2,0:0:0:0:
132,332,165159,1,0,0:0:0:0:
210,57,165284,1,8,0:0:0:0:
308,325,165409,1,0,0:0:0:0:
440,157,165534,1,2,0:0:0:0:
80,232,165659,1,0,0:0:0:0:
294,32,165784,1,8,0:0:0:0:
308,325,165909,1,0,0:0:0:0:
80,232,166034,6,0,L|64:40,1,190,6|8,0:0|0:0,0:0:0:0:
256,96,166409,1,0,0:0:0:0:
176,256,166534,2,0,P|104:328|16:304,1,190,2|8,0:0|0:0,0:0:0:0:
64,42,166909,1,0,0:0:0:0:
208,168,167034,6,0,B|276:196|336:136|336:136|316:200,1,190,2|8,0:0|0:0,0:0:0:0:
256,340,167409,1,0,0:0:0:0:
428,368,167534,2,0,P|440:320|428:268,1,95,2|0,0:0|0:0,0:0:0:0:
280,80,167784,2,0,P|324:60|392:68,1,95,8|0,0:0|0:0,0:0:0:0:
284,240,168034,6,0,P|196:264|100:196,1,190,6|8,0:0|0:0,0:0:0:0:
280,80,168409,1,0,0:0:0:0:
136,344,168534,2,0,L|28:352,1,95,2|0,0:0|0:0,0:0:0:0:
236,164,168784,2,0,L|330:156,1,95,8|0,0:0|0:0,0:0:0:0:
260,368,169034,5,2,0:0:0:0:
236,164,169159,1,0,0:0:0:0:
136,344,169284,1,8,0:0:0:0:
322,256,169409,1,0,0:0:0:0:
120,217,169534,1,2,0:0:0:0:
271,77,169659,1,0,0:0:0:0:
260,368,169784,1,8,0:0:0:0:
13,212,169909,1,0,0:0:0:0:
368,108,172034,6,0,L|376:216,1,95,6|0,0:0|0:0,0:0:0:0:
184,348,172284,1,8,0:0:0:0:
152,96,172409,1,0,0:0:0:0:
252,224,172534,2,0,P|168:272|72:244,1,190,2|8,0:0|0:0,0:0:0:0:
272,40,172909,1,0,0:0:0:0:
356,280,173034,6,0,L|364:388,1,95,2|0,0:0|0:0,0:0:0:0:
159,190,173284,2,0,L|151:95,1,95,8|0,0:0|0:0,0:0:0:0:
416,32,173534,1,2,0:0:0:0:
234,284,173659,1,0,0:0:0:0:
199,67,173784,1,8,0:0:0:0:
451,249,173909,1,0,0:0:0:0:
300,4,174034,5,6,0:0:0:0:
349,311,174159,2,0,P|264:360|160:336,1,190,8|8,0:0|0:0,0:0:0:0:
199,67,174534,1,2,0:0:0:0:
451,249,174659,2,0,L|464:136,1,95,8|0,0:0|0:0,0:0:0:0:
300,4,174909,1,8,0:0:0:0:
234,284,175034,6,0,L|112:296,1,95,2|0,0:0|0:0,0:0:0:0:
199,67,175284,2,0,L|293:76,1,95,8|0,0:0|0:0,0:0:0:0:
152,376,175534,1,2,0:0:0:0:
32,220,175659,1,0,0:0:0:0:
188,100,175784,1,8,0:0:0:0:
308,256,175909,1,0,0:0:0:0:
64,136,176034,6,0,L|56:40,1,95,6|0,0:0|0:0,0:0:0:0:
315,161,176284,2,0,L|307:255,1,95,8|0,0:0|0:0,0:0:0:0:
152,376,176534,1,2,0:0:0:0:
272,80,176659,2,0,P|324:68|372:92,1,95,0|8,0:0|0:0,0:0:0:0:
400,352,176909,1,0,0:0:0:0:
148,192,177034,5,2,0:0:0:0:
445,173,177159,1,0,0:0:0:0:
215,362,177284,2,0,L|112:352,1,95,8|0,0:0|0:0,0:0:0:0:
272,80,177534,1,2,0:0:0:0:
302,264,177659,1,0,0:0:0:0:
113,28,177784,1,8,0:0:0:0:
431,132,177909,1,0,0:0:0:0:
181,355,178034,5,6,0:0:0:0:
148,192,178159,1,0,0:0:0:0:
311,159,178284,1,8,0:0:0:0:
344,322,178409,1,0,0:0:0:0:
123,281,178534,1,2,0:0:0:0:
368,232,178659,1,0,0:0:0:0:
221,134,178784,1,8,0:0:0:0:
270,379,178909,1,0,0:0:0:0:
156,64,179034,5,2,0:0:0:0:
181,355,179159,1,0,0:0:0:0:
311,159,179284,1,8,0:0:0:0:
48,132,179409,1,0,0:0:0:0:
264,8,179534,1,2,0:0:0:0:
270,379,179659,1,0,0:0:0:0:
48,132,179784,1,8,0:0:0:0:
431,132,179909,1,0,0:0:0:0:
184,280,180034,6,0,L|84:264,1,95,6|0,0:0|0:0,0:0:0:0:
156,64,180284,1,8,0:0:0:0:
181,355,180409,1,0,0:0:0:0:
420,187,180534,1,2,0:0:0:0:
48,132,180659,1,0,0:0:0:0:
264,8,180784,1,8,0:0:0:0:
300,271,180909,1,0,0:0:0:0:
376,60,181034,6,0,P|432:48|496:80,1,95,2|0,0:0|0:0,0:0:0:0:
432,332,181284,1,8,0:0:0:0:
216,151,181409,1,0,0:0:0:0:
181,355,181534,2,0,L|284:368,1,95,2|0,0:0|0:0,0:0:0:0:
296,105,181784,1,8,0:0:0:0:
136,196,181909,1,0,0:0:0:0:
366,301,182034,5,6,0:0:0:0:
376,60,182159,1,0,0:0:0:0:
137,104,182284,2,0,L|144:208,1,95,8|0,0:0|0:0,0:0:0:0:
432,332,182534,1,2,0:0:0:0:
456,15,182659,1,0,0:0:0:0:
56,144,182784,2,0,L|63:248,1,95,8|0,0:0|0:0,0:0:0:0:
440,240,183034,6,0,P|364:200|280:256,1,190,2|8,0:0|0:0,0:0:0:0:
181,355,183409,1,0,0:0:0:0:
376,60,183534,1,2,0:0:0:0:
366,301,183659,1,0,0:0:0:0:
56,144,183784,2,0,L|48:44,1,95,8|0,0:0|0:0,0:0:0:0:
360,116,184034,6,0,L|352:210,1,95,6|0,0:0|0:0,0:0:0:0:
181,355,184284,2,0,P|172:308|184:256,1,95,8|0,0:0|0:0,0:0:0:0:
319,74,184534,1,2,0:0:0:0:
244,308,184659,1,0,0:0:0:0:
56,144,184784,1,8,0:0:0:0:
360,116,184909,1,0,0:0:0:0:
104,208,185034,6,0,P|56:224|0:204,1,95,2|0,0:0|0:0,0:0:0:0:
312,52,185284,2,0,P|360:36|416:56,1,95,8|0,0:0|0:0,0:0:0:0:
181,355,185534,1,2,0:0:0:0:
156,63,185659,1,0,0:0:0:0:
380,251,185784,1,8,0:0:0:0:
88,276,185909,1,0,0:0:0:0:
360,116,186034,5,6,0:0:0:0:
181,355,186159,1,0,0:0:0:0:
221,12,186284,1,8,0:0:0:0:
339,287,186409,1,0,0:0:0:0:
63,80,186534,1,2,0:0:0:0:
181,355,186659,1,0,0:0:0:0:
360,116,186784,1,8,0:0:0:0:
42,251,186909,1,0,0:0:0:0:
360,116,187034,5,2,0:0:0:0:
181,355,187159,1,0,0:0:0:0:
151,146,187284,1,8,0:0:0:0:
390,325,187409,1,0,0:0:0:0:
249,87,187534,1,2,0:0:0:0:
291,383,187659,1,0,0:0:0:0:
122,256,187784,1,8,0:0:0:0:
418,214,187909,1,0,0:0:0:0:
181,355,188034,6,0,P|84:364|20:280,1,190,6|0,0:0|0:0,0:0:0:0:
122,256,188409,1,0,0:0:0:0:
122,256,188534,2,0,L|320:240,1,190
496,298,188909,5,0,0:0:0:0:
496,298,189034,2,0,P|504:244|480:200,1,95,2|0,0:0|0:0,0:0:0:0:
512,92,189284,2,0,P|458:84|414:108,1,95
306,76,189534,2,0,P|298:130|322:174,1,95,2|0,0:0|0:0,0:0:0:0:
290,282,189784,2,0,P|344:290|388:266,1,95
392,112,190034,6,0,P|295:97|217:140,1,190,2|0,0:0|0:0,0:0:0:0:
84,216,190409,1,0,0:0:0:0:
84,216,190534,2,0,L|76:116,1,95,2|0,0:0|0:0,0:0:0:0:
290,282,190784,2,0,L|298:382,1,95
154,352,191034,6,0,L|54:360,1,95,2|0,0:0|0:0,0:0:0:0:
220,146,191284,2,0,L|320:138,1,95
470,162,191534,1,2,0:0:0:0:
330,235,191659,1,0,0:0:0:0:
401,95,191784,1,0,0:0:0:0:
426,250,191909,1,0,0:0:0:0:
314,138,192034,6,0,P|308:80|320:24,1,95,6|0,0:0|0:0,0:0:0:0:
426,250,192284,2,0,P|432:308|420:364,1,95,2|0,0:0|0:0,0:0:0:0:
56,292,192534,1,2,0:0:0:0:
330,235,192659,1,0,0:0:0:0:
139,141,192784,1,2,0:0:0:0:
164,380,192909,1,0,0:0:0:0:
388,175,193034,5,2,0:0:0:0:
56,292,193159,1,0,0:0:0:0:
225,52,193284,1,2,0:0:0:0:
246,307,193409,1,0,0:0:0:0:
79,113,193534,1,2,0:0:0:0:
330,65,193659,1,0,0:0:0:0:
164,380,193784,1,2,0:0:0:0:
120,39,193909,1,0,0:0:0:0:
388,175,194034,6,0,L|396:272,1,95,2|0,0:0|0:0,0:0:0:0:
71,207,194284,2,0,L|78:112,1,95,2|0,0:0|0:0,0:0:0:0:
384,20,194534,1,2,0:0:0:0:
246,307,194659,1,0,0:0:0:0:
162,110,194784,1,2,0:0:0:0:
464,96,194909,1,0,0:0:0:0:
458,332,195034,5,2,0:0:0:0:
279,52,195159,1,0,0:0:0:0:
246,307,195284,1,2,0:0:0:0:
384,20,195409,1,0,0:0:0:0:
162,110,195534,2,0,B|120:132|70:124|70:124|52:176|80:228,1,190,2|2,0:0|0:0,0:0:0:0:
292,216,195909,1,0,0:0:0:0:
132,328,196034,6,0,P|64:348|16:340,1,95,6|0,0:0|0:0,0:0:0:0:
234,104,196284,2,0,P|302:84|350:92,1,95,2|0,0:0|0:0,0:0:0:0:
464,208,196534,2,0,L|476:16,1,190,2|2,0:0|0:0,0:0:0:0:
268,24,196909,1,0,0:0:0:0:
166,248,197034,5,2,0:0:0:0:
390,350,197159,2,0,P|440:364|484:364,1,95,0|2,0:0|0:0,0:0:0:0:
366,105,197409,1,0,0:0:0:0:
166,248,197534,2,0,L|68:260,1,95,2|0,0:0|0:0,0:0:0:0:
268,24,197784,2,0,L|362:12,1,95,2|0,0:0|0:0,0:0:0:0:
260,292,198034,6,0,P|172:344|84:324,1,190,2|2,0:0|0:0,0:0:0:0:
141,59,198409,2,0,L|165:247,1,190,2|2,0:0|0:0,0:0:0:0:
112,192,198784,2,0,P|156:172|208:180,1,95,2|0,0:0|0:0,0:0:0:0:
374,233,199034,5,2,0:0:0:0:
374,233,199159,2,0,P|392:136|360:32,1,190,2|2,0:0|0:0,0:0:0:0:
272,140,199534,1,2,0:0:0:0:
480,124,199659,1,0,0:0:0:0:
242,274,199784,1,2,0:0:0:0:
378,31,199909,1,0,0:0:0:0:
453,298,200034,6,0,L|352:312,1,95,6|0,0:0|0:0,0:0:0:0:
176,120,200284,2,0,L|75:106,1,95,2|0,0:0|0:0,0:0:0:0:
40,336,200534,1,2,0:0:0:0:
276,241,200659,1,0,0:0:0:0:
128,380,200784,1,2,0:0:0:0:
140,31,200909,1,0,0:0:0:0:
373,120,201034,5,2,0:0:0:0:
284,353,201159,1,0,0:0:0:0:
176,120,201284,1,2,0:0:0:0:
466,211,201409,1,0,0:0:0:0:
191,262,201534,1,2,0:0:0:0:
291,36,201659,1,0,0:0:0:0:
284,353,201784,1,2,0:0:0:0:
60,203,201909,1,0,0:0:0:0:
404,148,202034,6,0,P|456:128|520:144,1,95,2|0,0:0|0:0,0:0:0:0:
253,325,202284,2,0,P|201:345|137:329,1,95,2|0,0:0|0:0,0:0:0:0:
296,104,202534,1,2,0:0:0:0:
64,280,202659,1,0,0:0:0:0:
92,76,202784,1,2,0:0:0:0:
268,308,202909,1,0,0:0:0:0:
199,47,203034,5,2,0:0:0:0:
160,336,203159,1,0,0:0:0:0:
35,172,203284,1,2,0:0:0:0:
324,211,203409,1,0,0:0:0:0:
64,280,203534,1,2,0:0:0:0:
296,104,203659,2,0,P|368:96|440:192,1,190,2|2,0:0|0:0,0:0:0:0:
268,308,204034,6,0,L|156:296,1,95,6|0,0:0|0:0,0:0:0:0:
376,24,204284,2,0,L|470:34,1,95,2|0,0:0|0:0,0:0:0:0:
179,191,204534,1,2,0:0:0:0:
131,7,204659,1,0,0:0:0:0:
405,133,204784,1,2,0:0:0:0:
357,316,204909,1,0,0:0:0:0:
246,75,205034,5,2,0:0:0:0:
244,307,205159,1,0,0:0:0:0:
46,189,205284,1,2,0:0:0:0:
312,192,205409,1,0,0:0:0:0:
110,305,205534,1,2,0:0:0:0:
113,74,205659,1,0,0:0:0:0:
244,307,205784,1,2,0:0:0:0:
46,189,205909,1,0,0:0:0:0:
246,75,206034,6,0,L|344:68,1,95,2|0,0:0|0:0,0:0:0:0:
280,384,206284,2,0,L|182:376,1,95,2|0,0:0|0:0,0:0:0:0:
160,224,206534,2,0,P|256:200|344:244,1,190,2|2,0:0|0:0,0:0:0:0:
444,376,206909,1,0,0:0:0:0:
244,307,207034,5,2,0:0:0:0:
313,106,207159,2,0,L|416:92,1,95,0|2,0:0|0:0,0:0:0:0:
456,260,207409,1,0,0:0:0:0:
160,224,207534,2,0,L|152:124,1,95,2|0,0:0|0:0,0:0:0:0:
456,260,207784,2,0,L|448:354,1,95,2|0,0:0|0:0,0:0:0:0:
248,344,208034,6,0,P|152:368|56:328,1,190,12|0,0:0|0:0,0:0:0:0:
72,152,208409,1,0,0:0:0:0:
72,152,208534,2,0,P|168:128|264:168,1,190,8|0,0:0|0:0,0:0:0:0:
324,272,208909,1,0,0:0:0:0:
438,199,209034,6,0,L|452:8,1,190,8|0,0:0|0:0,0:0:0:0:
240,48,209409,1,0,0:0:0:0:
240,48,209534,2,0,L|246:142,1,95,8|0,0:0|0:0,0:0:0:0:
160,224,209784,2,0,L|166:318,1,95
340,368,210034,6,0,P|368:268|336:180,1,190,12|0,0:0|0:0,0:0:0:0:
224,136,210409,1,0,0:0:0:0:
224,136,210534,2,0,P|336:92|428:112,1,190,8|0,0:0|0:0,0:0:0:0:
272,280,210909,1,0,0:0:0:0:
272,280,211034,6,0,P|178:286|93:245,1,190,8|0,0:0|0:0,0:0:0:0:
48,164,211409,1,0,0:0:0:0:
95,83,211534,2,0,L|192:60,1,95,8|0,0:0|0:0,0:0:0:0:
308,8,211784,2,0,L|400:29,1,95
492,160,212034,6,0,P|400:184|296:128,1,190,12|0,0:0|0:0,0:0:0:0:
216,68,212409,1,0,0:0:0:0:
195,194,212534,2,0,B|192:244|156:280|156:280|156:324|232:352,1,190,8|0,0:0|0:0,0:0:0:0:
416,264,212909,1,0,0:0:0:0:
416,264,213034,6,0,P|448:176|412:88,1,190,8|0,0:0|0:0,0:0:0:0:
328,44,213409,1,0,0:0:0:0:
244,95,213534,2,0,L|148:104,1,95,8|0,0:0|0:0,0:0:0:0:
92,240,213784,2,0,L|188:249,1,95
256,332,214034,6,0,P|296:252|248:164,1,190,12|0,0:0|0:0,0:0:0:0:
148,112,214409,1,0,0:0:0:0:
249,48,214534,2,0,P|352:40|412:96,1,190,8|0,0:0|0:0,0:0:0:0:
484,204,214909,1,0,0:0:0:0:
484,204,215034,6,0,L|492:12,1,190,8|0,0:0|0:0,0:0:0:0:
312,128,215409,1,0,0:0:0:0:
368,220,215534,2,0,P|316:236|264:220,1,95,8|0,0:0|0:0,0:0:0:0:
148,112,215784,2,0,P|101:103|57:119,1,95
24,284,216034,6,0,L|140:296,1,113.999996520996,12|0,0:0|0:0,0:0:0:0:
336,360,216284,2,0,P|356:304|344:244,1,113.999996520996,8|0,0:0|0:0,0:0:0:0:
208,36,216534,5,8,0:0:0:0:
264,304,216659,1,0,0:0:0:0:
413,74,216784,1,8,0:0:0:0:
148,112,216909,1,0,0:0:0:0:
362,272,217034,5,8,0:0:0:0:
310,54,217159,1,0,0:0:0:0:
166,336,217284,1,8,0:0:0:0:
208,36,217409,1,0,0:0:0:0:
264,304,217534,5,8,0:0:0:0:
3,218,217659,1,0,0:0:0:0:
304,168,217784,1,8,0:0:0:0:
363,153,217846,1,0,0:0:0:0:
421,169,217909,1,0,0:0:0:0:
463,212,217971,1,0,0:0:0:0:
478,270,218034,6,0,L|464:384,1,113.999996520996,8|0,0:0|0:0,0:0:0:0:
166,336,218284,2,0,L|152:222,1,113.999996520996,8|0,0:0|0:0,0:0:0:0:
310,54,218534,5,8,0:0:0:0:
264,304,218659,1,0,0:0:0:0:
113,107,218784,1,8,0:0:0:0:
363,153,218909,1,0,0:0:0:0:
133,262,219034,5,8,0:0:0:0:
153,8,219159,1,0,0:0:0:0:
421,169,219284,1,8,0:0:0:0:
124,185,219409,1,0,0:0:0:0:
310,54,219534,5,8,0:0:0:0:
264,304,219659,1,0,0:0:0:0:
264,304,219721,1,0,0:0:0:0:
264,304,219784,1,8,0:0:0:0:
70,139,219909,1,0,0:0:0:0:
363,153,220034,6,0,L|372:276,1,113.999996520996,12|0,0:0|0:0,0:0:0:0:
124,375,220284,2,0,L|133:262,1,113.999996520996,8|0,0:0|0:0,0:0:0:0:
231,31,220534,5,8,0:0:0:0:
281,353,220659,1,0,0:0:0:0:
95,217,220784,1,8,0:0:0:0:
417,167,220909,1,0,0:0:0:0:
124,95,221034,5,8,0:0:0:0:
387,288,221159,1,0,0:0:0:0:
352,60,221284,1,8,0:0:0:0:
159,323,221409,1,0,0:0:0:0:
291,45,221534,5,8,0:0:0:0:
219,337,221659,1,0,0:0:0:0:
2,128,221784,1,8,0:0:0:0:
40,80,221846,1,0,0:0:0:0:
96,57,221909,1,0,0:0:0:0:
156,65,221971,1,0,0:0:0:0:
204,102,222034,6,0,L|196:224,1,113.999996520996,8|0,0:0|0:0,0:0:0:0:
464,360,222284,2,0,L|456:246,1,113.999996520996,8|0,0:0|0:0,0:0:0:0:
352,60,222534,5,8,0:0:0:0:
288,328,222659,1,0,0:0:0:0:
497,149,222784,1,8,0:0:0:0:
156,65,222909,1,0,0:0:0:0:
159,323,223034,5,8,0:0:0:0:
384,133,223159,2,0,L|500:149,1,113.999996520996,0|8,0:0|0:0,0:0:0:0:
376,345,223409,1,0,0:0:0:0:
156,65,223534,5,8,0:0:0:0:
508,14,223659,1,0,0:0:0:0:
508,14,223721,1,0,0:0:0:0:
508,14,223784,1,8,0:0:0:0:
376,345,223909,1,0,0:0:0:0:
45,213,224034,1,12,0:0:0:0:
