osu file format v13

[General]
AudioFilename: Masa-Kitsune no yomeiri.mp3
AudioLeadIn: 0
PreviewTime: 106118
Countdown: 1
SampleSet: Soft
StackLeniency: 0.7
Mode: 2
LetterboxInBreaks: 1
WidescreenStoryboard: 1

[Editor]
Bookmarks: 1128
DistanceSpacing: 1.2
BeatDivisor: 4
GridSize: 8
TimelineZoom: 1.9

[Metadata]
Title:Kitsune no Yomeiri
TitleUnicode:Kitsune no Yomeiri
Artist:Masa
ArtistUnicode:Masa
Creator:Minky
Version:Dont eat me AR10 BULLSHIT
Source:Vocaloid
Tags:hatsune miku megpoid gumi
BeatmapID:491890
BeatmapSetID:157073

[Difficulty]
HPDrainRate:5
CircleSize:5
OverallDifficulty:9
ApproachRate:10
SliderMultiplier:2.5
SliderTickRate:1

[Events]
//Background and Video events
0,0,"BG.jpg",0,0
//Break Periods
2,50203,53678
2,70203,73678
2,106328,109678
2,126328,129678
//Storyboard Layer 0 (Background)
//Storyboard Layer 1 (Fail)
//Storyboard Layer 2 (Pass)
//Storyboard Layer 3 (Foreground)
//Storyboard Sound Samples
//Background Colour Transformations
3,100,163,162,255

[TimingPoints]
2128,250,4,2,1,65,1,0
50128,-100,4,2,0,40,0,0
54128,-95.2380952380952,4,2,1,65,0,1
70128,-100,4,2,1,65,0,0
110128,-95.2380952380952,4,2,1,65,0,1
126128,-100,4,2,1,65,0,0

[Colours]
Combo1 : 255,128,0
Combo2 : 241,5,29
Combo3 : 255,255,104

[HitObjects]
104,40,2128,5,0,0:0:0:0:
192,40,2253,1,0,0:0:0:0:
128,88,2378,1,0,0:0:0:0:
216,88,2503,1,0,0:0:0:0:
304,88,2628,1,0,0:0:0:0:
240,88,2753,1,0,0:0:0:0:
328,88,2878,1,0,0:0:0:0:
208,200,3003,1,0,0:0:0:0:
352,200,3128,1,0,0:0:0:0:
240,200,3253,5,0,0:0:0:0:
344,256,3378,1,0,0:0:0:0:
224,256,3503,1,0,0:0:0:0:
112,256,3628,1,0,0:0:0:0:
240,312,3753,1,0,0:0:0:0:
360,312,3878,1,0,0:0:0:0:
224,368,4003,1,0,0:0:0:0:
376,368,4128,1,0,0:0:0:0:
488,368,4253,5,0,0:0:0:0:
376,368,4378,1,0,0:0:0:0:
264,368,4503,1,0,0:0:0:0:
384,312,4628,1,0,0:0:0:0:
272,312,4753,1,0,0:0:0:0:
160,312,4878,1,0,0:0:0:0:
48,312,5003,1,0,0:0:0:0:
168,256,5128,1,0,0:0:0:0:
32,256,5253,1,0,0:0:0:0:
168,256,5378,5,0,0:0:0:0:
288,256,5503,1,0,0:0:0:0:
160,200,5628,1,0,0:0:0:0:
40,200,5753,1,0,0:0:0:0:
160,200,5878,1,0,0:0:0:0:
272,200,6003,1,0,0:0:0:0:
160,200,6128,1,0,0:0:0:0:
304,200,6253,1,0,0:0:0:0:
160,200,6378,1,0,0:0:0:0:
288,144,6503,5,0,0:0:0:0:
288,88,6628,1,0,0:0:0:0:
408,88,6753,1,0,0:0:0:0:
408,32,6878,1,0,0:0:0:0:
288,32,7003,1,0,0:0:0:0:
400,144,7128,1,0,0:0:0:0:
504,144,7253,5,0,0:0:0:0:
392,200,7378,1,0,0:0:0:0:
512,200,7503,1,0,0:0:0:0:
400,256,7628,1,0,0:0:0:0:
288,256,7753,1,0,0:0:0:0:
416,320,7878,1,0,0:0:0:0:
304,320,8003,1,0,0:0:0:0:
192,320,8128,2,0,B|304:288|304:176|152:128,1,250
320,96,8503,1,0,0:0:0:0:
192,96,8628,1,0,0:0:0:0:
192,96,8753,5,0,0:0:0:0:
128,96,8878,1,0,0:0:0:0:
64,96,9003,1,0,0:0:0:0:
192,160,9128,2,0,B|82:191|82:303|194:335,1,250
320,160,9503,1,0,0:0:0:0:
192,216,9628,1,0,0:0:0:0:
128,160,9690,1,0,0:0:0:0:
192,104,9753,1,0,0:0:0:0:
256,104,9815,1,0,0:0:0:0:
256,216,9878,1,0,0:0:0:0:
320,216,9940,1,0,0:0:0:0:
256,48,10003,1,0,0:0:0:0:
192,48,10065,1,0,0:0:0:0:
256,160,10128,1,0,0:0:0:0:
384,160,10253,5,0,0:0:0:0:
504,160,10378,1,0,0:0:0:0:
384,160,10503,1,0,0:0:0:0:
512,104,10628,1,0,0:0:0:0:
376,104,10753,1,0,0:0:0:0:
248,56,10878,2,0,L|392:56,2,125
184,56,11253,5,0,0:0:0:0:
312,56,11378,1,0,0:0:0:0:
176,112,11503,1,0,0:0:0:0:
320,112,11628,1,0,0:0:0:0:
448,112,11753,1,0,0:0:0:0:
320,168,11878,1,0,0:0:0:0:
320,224,12003,1,0,0:0:0:0:
200,224,12128,1,0,0:0:0:0:
88,224,12253,1,0,0:0:0:0:
320,280,12378,5,0,0:0:0:0:
320,336,12503,1,0,0:0:0:0:
440,336,12628,1,0,0:0:0:0:
320,280,12753,1,0,0:0:0:0:
448,280,12878,1,0,0:0:0:0:
320,224,13003,1,0,0:0:0:0:
456,224,13128,1,0,0:0:0:0:
320,168,13253,5,0,0:0:0:0:
200,168,13378,1,0,0:0:0:0:
80,168,13503,1,0,0:0:0:0:
200,112,13628,1,0,0:0:0:0:
200,56,13753,1,0,0:0:0:0:
320,56,13878,1,0,0:0:0:0:
448,56,14003,1,0,0:0:0:0:
200,224,14128,1,0,0:0:0:0:
200,280,14253,5,0,0:0:0:0:
80,280,14378,1,0,0:0:0:0:
200,336,14503,1,0,0:0:0:0:
320,336,14628,1,0,0:0:0:0:
448,336,14753,1,0,0:0:0:0:
328,288,14878,1,0,0:0:0:0:
456,288,15003,1,0,0:0:0:0:
456,288,15128,1,0,0:0:0:0:
336,240,15253,5,0,0:0:0:0:
464,240,15378,1,0,0:0:0:0:
336,240,15503,1,0,0:0:0:0:
336,240,15628,1,0,0:0:0:0:
216,240,15753,1,0,0:0:0:0:
336,240,15878,1,0,0:0:0:0:
472,192,16003,1,0,0:0:0:0:
336,184,16128,1,0,0:0:0:0:
336,184,16253,5,0,0:0:0:0:
216,184,16378,1,0,0:0:0:0:
96,184,16503,1,0,0:0:0:0:
336,184,16628,1,0,0:0:0:0:
216,184,16753,1,0,0:0:0:0:
336,184,16878,1,0,0:0:0:0:
96,184,17003,1,0,0:0:0:0:
216,184,17128,1,0,0:0:0:0:
472,128,17253,5,0,0:0:0:0:
336,128,17378,1,0,0:0:0:0:
472,128,17503,1,0,0:0:0:0:
216,128,17628,1,0,0:0:0:0:
336,128,17753,1,0,0:0:0:0:
216,128,17878,1,0,0:0:0:0:
0,128,18003,1,0,0:0:0:0:
104,128,18128,6,0,L|280:128|288:128,2,125
400,128,18503,1,0,0:0:0:0:
272,128,18628,2,0,L|456:128,2,125
0,128,19003,1,0,0:0:0:0:
112,184,19128,2,0,L|280:184,2,125
0,192,19503,1,0,0:0:0:0:
120,248,19628,2,0,L|-24:248,2,125
272,248,20003,1,0,0:0:0:0:
392,248,20128,6,0,L|208:248,1,125
80,248,20378,2,0,L|232:248,1,125
392,248,20628,2,0,L|248:248,1,125
80,248,20878,2,0,L|208:248,1,125
336,248,21128,2,0,L|480:248,2,125
80,248,21503,2,0,L|224:248,1,125
392,248,21753,2,0,L|392:112,1,125
272,120,22003,1,0,0:0:0:0:
392,24,22128,6,0,L|32:376,1,500
80,376,22753,1,0,0:0:0:0:
136,376,22878,1,0,0:0:0:0:
88,376,23003,1,0,0:0:0:0:
144,376,23128,1,0,0:0:0:0:
24,320,23253,1,0,0:0:0:0:
80,320,23378,1,0,0:0:0:0:
32,320,23503,1,0,0:0:0:0:
88,320,23628,1,0,0:0:0:0:
144,264,23753,5,0,0:0:0:0:
88,264,23878,1,0,0:0:0:0:
152,264,24003,1,0,0:0:0:0:
96,264,24128,1,0,0:0:0:0:
232,264,24253,1,0,0:0:0:0:
352,264,24378,1,0,0:0:0:0:
232,264,24503,1,0,0:0:0:0:
432,208,24628,6,0,L|248:208,2,125
248,208,25003,1,0,0:0:0:0:
64,208,25128,2,0,L|224:208,2,125
189,208,25503,1,0,0:0:0:0:
312,208,25628,2,0,L|128:208,2,125
216,208,26003,1,0,0:0:0:0:
192,32,26128,2,0,B|280:16|352:48|424:64|480:144|480:224|480:280|456:344|400:376|320:384|208:392|96:384|0:336|24:232|0:136|48:72|160:8|224:24|248:24|400:80|448:160|448:192|432:328|296:304|248:264|248:264,1,1375
160,280,27628,1,0,0:0:0:0:
288,280,27753,1,0,0:0:0:0:
160,280,27878,1,0,0:0:0:0:
288,280,28003,1,0,0:0:0:0:
320,32,28128,2,0,B|232:16|160:48|88:64|32:144|32:224|32:280|56:344|112:376|192:384|304:392|416:384|512:336|488:232|512:136|464:72|352:8|288:24|264:24|112:80|64:160|64:192|80:328|216:304|264:264|264:264,1,1375
344,280,29628,5,0,0:0:0:0:
232,280,29753,1,0,0:0:0:0:
328,232,29878,1,0,0:0:0:0:
216,232,30003,1,0,0:0:0:0:
312,184,30128,1,0,0:0:0:0:
64,168,30253,2,0,L|232:168,2,125
176,168,30628,1,0,0:0:0:0:
288,168,30753,2,0,L|160:168,2,125
192,168,31128,1,0,0:0:0:0:
416,168,31253,6,0,L|240:168,1,125
104,168,31503,2,0,L|232:168,1,125
0,168,31753,2,0,L|160:168,1,125
24,168,32003,1,0,0:0:0:0:
384,168,32128,2,0,L|512:168,1,125
128,168,32378,2,0,L|-48:168,1,125
104,112,32628,1,0,0:0:0:0:
224,112,32753,1,0,0:0:0:0:
224,112,32878,1,0,0:0:0:0:
344,112,33003,1,0,0:0:0:0:
464,112,33128,5,0,0:0:0:0:
336,64,33253,1,0,0:0:0:0:
96,64,33378,2,0,L|240:64,2,125
96,16,33753,1,0,0:0:0:0:
336,64,33878,1,0,0:0:0:0:
464,64,34003,1,0,0:0:0:0:
160,192,34128,2,0,L|352:192,1,187.5
288,240,34378,2,0,L|88:240,1,187.5
160,288,34628,2,0,L|352:288,1,187.5
288,336,34878,2,0,L|80:336,1,187.5
160,288,35128,6,0,L|384:288,1,187.5
408,240,35378,2,0,L|200:240,1,187.5
192,240,35628,2,0,L|-24:240,1,187.5
64,192,35878,2,0,L|264:192,1,187.5
312,192,36128,2,0,L|499:192,1,187.5
440,144,36378,2,0,L|224:144,1,187.5
304,96,36628,2,0,L|96:96,1,187.5
176,48,36878,2,0,L|392:48,1,187.5
424,88,37128,2,0,L|208:88,1,187.5
272,144,37378,2,0,L|464:144,1,187.5
400,192,37628,5,0,0:0:0:0:
337,192,37690,1,0,0:0:0:0:
275,192,37753,1,0,0:0:0:0:
212,192,37815,1,0,0:0:0:0:
274,250,37878,1,0,0:0:0:0:
212,250,37940,1,0,0:0:0:0:
149,250,38003,1,0,0:0:0:0:
87,250,38065,1,0,0:0:0:0:
80,360,38128,6,0,B|208:360|208:360|104:360,1,187.5
208,360,38378,2,0,B|336:360|336:360|232:360,1,187.5
336,360,38628,2,0,B|464:360|464:360|360:360,1,187.5
344,320,38878,2,0,B|216:320|216:320|320:320,1,187.5
216,320,39128,2,0,B|88:320|88:320|192:320,1,187.5
208,320,39378,2,0,B|80:320|80:320|184:320,1,187.5
200,264,39628,2,0,B|72:264|72:264|176:264,1,187.5
192,208,39878,2,0,B|64:208|64:208|168:208,1,187.5
184,208,40128,6,0,B|312:208|312:208|208:208,1,187.5
192,160,40378,2,0,B|320:160|320:160|216:160,1,187.5
200,112,40628,2,0,B|328:112|328:112|224:112,1,187.5
328,112,40878,2,0,B|456:112|456:112|352:112,1,187.5
336,64,41128,2,0,B|208:64|208:64|312:64,1,187.5
208,64,41378,2,0,B|80:64|80:64|184:64,1,187.5
120,120,41628,5,0,0:0:0:0:
96,168,41690,1,0,0:0:0:0:
72,216,41753,1,0,0:0:0:0:
48,264,41815,1,0,0:0:0:0:
168,120,41878,5,0,0:0:0:0:
192,168,41940,1,0,0:0:0:0:
216,216,42003,1,0,0:0:0:0:
240,264,42065,1,0,0:0:0:0:
120,120,42128,2,0,L|26:308,1,187.5
96,288,42378,2,0,L|296:288,1,187.5
344,288,42628,2,0,L|248:104,1,187.5
320,120,42878,2,0,L|406:286,1,187.5
464,288,43128,2,0,L|368:104,1,187.5
320,120,43378,2,0,L|112:120,1,187.5
72,120,43628,2,0,L|158:286,1,187.5
96,288,43878,2,0,L|182:121,1,187.5
120,120,44128,6,0,L|206:287,1,187.5
144,288,44378,2,0,L|230:121,1,187.5
288,120,44628,2,0,L|202:287,1,187.5
264,288,44878,2,0,L|178:121,1,187.5
120,120,45128,2,0,L|206:287,1,187.5
144,288,45378,2,0,L|360:288,1,187.5
392,288,45628,5,0,0:0:0:0:
456,288,45690,1,0,0:0:0:0:
496,288,45753,1,0,0:0:0:0:
456,288,45815,1,0,0:0:0:0:
392,288,45878,1,0,0:0:0:0:
328,288,45940,1,0,0:0:0:0:
288,288,46003,1,0,0:0:0:0:
328,288,46065,1,0,0:0:0:0:
264,208,46128,6,0,L|392:208,1,125
328,208,46378,1,0,0:0:0:0:
448,208,46503,2,0,L|312:208,1,125
200,208,46753,1,0,0:0:0:0:
328,208,46878,2,0,L|160:208,1,125
264,208,47128,1,0,0:0:0:0:
392,208,47253,2,0,L|256:208,1,125
328,208,47503,1,0,0:0:0:0:
200,208,47628,2,0,L|360:208,1,125
264,208,47878,1,0,0:0:0:0:
136,208,48003,2,0,L|288:208,1,125
200,208,48253,5,0,0:0:0:0:
264,208,48378,2,0,L|128:208,1,125
264,208,48628,1,0,0:0:0:0:
328,208,48753,2,0,L|480:208,1,125
392,208,49003,1,0,0:0:0:0:
328,208,49128,2,0,L|184:208,1,125
264,208,49378,1,0,0:0:0:0:
200,208,49503,1,0,0:0:0:0:
262,208,49565,1,0,0:0:0:0:
325,208,49628,1,0,0:0:0:0:
264,208,49753,1,0,0:0:0:0:
328,208,49878,1,0,0:0:0:0:
390,208,49940,1,0,0:0:0:0:
453,208,50003,1,0,0:0:0:0:
256,192,54128,6,0,L|400:192,2,131.249995994568
387,192,54503,1,0,0:0:0:0:
256,192,54628,2,0,L|112:192,2,131.249995994568
124,192,55003,2,0,L|408:192,1,262.499991989136
512,192,55378,2,0,L|380:192,2,131.249995994568
408,192,55753,1,0,0:0:0:0:
288,192,55878,2,0,L|144:192,2,131.249995994568
408,192,56253,1,0,0:0:0:0:
512,152,56378,2,0,L|368:152,2,131.249995994568
380,160,56753,1,0,0:0:0:0:
512,160,56878,1,0,0:0:0:0:
380,160,57003,1,0,0:0:0:0:
256,128,57128,1,0,0:0:0:0:
360,120,57253,5,0,0:0:0:0:
136,208,57378,2,0,L|-24:208,1,131.249995994568
376,208,57628,2,0,L|536:208,1,131.249995994568
256,208,57878,2,0,L|256:352,1,131.249995994568
384,344,58128,2,0,L|248:344,1,131.249995994568
136,344,58378,2,0,L|-8:344,2,131.249995994568
256,344,58753,1,0,0:0:0:0:
376,288,58878,2,0,L|507:288,2,131.249995994568
256,280,59253,5,0,0:0:0:0:
384,344,59378,1,0,0:0:0:0:
483,344,59503,2,0,L|352:344,2,131.249995994568
416,288,59878,2,0,L|256:288,2,131.249995994568
344,248,60253,2,0,L|488:248,2,131.249995994568
416,192,60628,2,0,L|256:192,2,131.249995994568
344,144,61003,1,0,0:0:0:0:
136,144,61128,2,0,L|-8:144,1,131.249995994568
376,144,61378,2,0,L|552:144,1,131.249995994568
208,144,61628,2,0,L|24:144,2,131.249995994568
336,144,62003,6,0,L|467:144,1,131.249995994568
344,144,62253,1,0,0:0:0:0:
208,144,62378,2,0,L|56:144,2,131.249995994568
336,144,62753,2,0,L|467:144,2,131.249995994568
416,144,63128,1,0,0:0:0:0:
512,144,63253,2,0,L|384:144,2,131.249995994568
448,144,63628,2,0,L|296:144,2,131.249995994568
384,144,64003,2,0,L|252:144,2,131.249995994568
320,144,64378,2,0,L|451:144,2,131.249995994568
448,144,64753,2,0,L|168:144,1,262.499991989136
320,144,65128,6,0,L|480:144,1,131.249995994568
184,144,65378,2,0,L|48:144,1,131.249995994568
356,144,65628,2,0,L|488:144,1,131.249995994568
48,144,65878,2,0,L|240:144,1,131.249995994568
320,144,66128,2,0,L|451:144,1,131.249995994568
320,144,66378,2,0,L|168:144,2,131.249995994568
192,200,66753,2,0,L|336:200,2,131.249995994568
256,144,67128,2,0,L|400:144,2,131.249995994568
320,144,67503,2,0,L|160:144,2,131.249995994568
248,144,67878,2,0,L|112:144,1,131.249995994568
184,144,68128,1,0,0:0:0:0:
312,144,68253,2,0,L|448:144,2,131.249995994568
64,152,68628,5,0,0:0:0:0:
160,152,68753,2,0,L|8:152,2,131.249995994568
288,152,69128,1,0,0:0:0:0:
416,152,69253,1,0,0:0:0:0:
288,152,69378,2,0,L|144:152,2,131.249995994568
424,152,69753,2,0,L|240:152,2,131.249995994568
152,168,74128,5,0,0:0:0:0:
272,216,74253,1,0,0:0:0:0:
184,168,74378,1,0,0:0:0:0:
304,216,74503,1,0,0:0:0:0:
216,168,74628,1,0,0:0:0:0:
336,216,74753,1,0,0:0:0:0:
248,168,74878,1,0,0:0:0:0:
368,216,75003,1,0,0:0:0:0:
248,168,75128,5,0,0:0:0:0:
120,168,75253,1,0,0:0:0:0:
248,168,75378,1,0,0:0:0:0:
152,168,75503,1,0,0:0:0:0:
280,168,75628,1,0,0:0:0:0:
184,168,75753,1,0,0:0:0:0:
312,168,75878,1,0,0:0:0:0:
216,168,76003,1,0,0:0:0:0:
344,168,76128,5,0,0:0:0:0:
464,112,76253,1,0,0:0:0:0:
336,112,76378,1,0,0:0:0:0:
472,112,76503,1,0,0:0:0:0:
344,56,76628,1,0,0:0:0:0:
224,112,76753,1,0,0:0:0:0:
352,112,76878,1,0,0:0:0:0:
232,112,77003,1,0,0:0:0:0:
104,112,77128,5,0,0:0:0:0:
216,56,77253,1,0,0:0:0:0:
352,56,77378,1,0,0:0:0:0:
232,56,77503,1,0,0:0:0:0:
104,112,77628,1,0,0:0:0:0:
216,112,77753,1,0,0:0:0:0:
352,112,77878,1,0,0:0:0:0:
456,112,78003,1,0,0:0:0:0:
224,112,78128,5,0,0:0:0:0:
104,112,78253,1,0,0:0:0:0:
224,112,78378,1,0,0:0:0:0:
96,64,78503,1,0,0:0:0:0:
232,160,78628,1,0,0:0:0:0:
88,168,78753,1,0,0:0:0:0:
216,208,78878,1,0,0:0:0:0:
336,208,79003,1,0,0:0:0:0:
80,208,79128,5,0,0:0:0:0:
216,208,79253,1,0,0:0:0:0:
80,208,79378,1,0,0:0:0:0:
216,208,79503,1,0,0:0:0:0:
456,208,79628,1,0,0:0:0:0:
336,208,79753,1,0,0:0:0:0:
456,208,79878,1,0,0:0:0:0:
336,208,80003,1,0,0:0:0:0:
128,208,80128,2,0,B|32:88|32:88|144:88,1,250
40,168,80503,1,0,0:0:0:0:
160,168,80628,5,0,0:0:0:0:
272,168,80753,1,0,0:0:0:0:
392,168,80878,1,0,0:0:0:0:
272,168,81003,1,0,0:0:0:0:
392,168,81128,2,0,B|488:48|488:48|376:48,1,250
488,48,81503,1,0,0:0:0:0:
376,48,81628,1,0,0:0:0:0:
313,48,81690,1,0,0:0:0:0:
251,48,81753,1,0,0:0:0:0:
188,48,81815,1,0,0:0:0:0:
126,48,81878,1,0,0:0:0:0:
159,59,81940,1,0,0:0:0:0:
219,74,82003,1,0,0:0:0:0:
280,90,82065,1,0,0:0:0:0:
340,105,82128,1,0,0:0:0:0:
16,192,82253,5,0,0:0:0:0:
136,192,82378,1,0,0:0:0:0:
16,192,82503,1,0,0:0:0:0:
136,192,82628,1,0,0:0:0:0:
248,192,82753,1,0,0:0:0:0:
120,136,82878,1,0,0:0:0:0:
232,136,83003,1,0,0:0:0:0:
104,80,83128,1,0,0:0:0:0:
376,192,83253,5,0,0:0:0:0:
496,192,83378,1,0,0:0:0:0:
376,192,83503,1,0,0:0:0:0:
136,192,83628,1,0,0:0:0:0:
256,192,83753,1,0,0:0:0:0:
128,136,83878,1,0,0:0:0:0:
248,136,84003,1,0,0:0:0:0:
120,104,84128,1,0,0:0:0:0:
376,104,84253,5,0,0:0:0:0:
264,104,84378,1,0,0:0:0:0:
328,104,84503,1,0,0:0:0:0:
216,56,84628,2,0,L|384:56,1,125
152,56,84878,2,0,L|320:56,1,125
88,56,85128,5,0,0:0:0:0:
152,56,85253,1,0,0:0:0:0:
56,56,85378,1,0,0:0:0:0:
184,56,85503,1,0,0:0:0:0:
120,56,85628,1,0,0:0:0:0:
216,56,85753,1,0,0:0:0:0:
336,56,85878,1,0,0:0:0:0:
216,56,86003,1,0,0:0:0:0:
456,56,86128,5,0,0:0:0:0:
336,56,86253,1,0,0:0:0:0:
440,16,86378,1,0,0:0:0:0:
320,16,86503,1,0,0:0:0:0:
392,96,86628,1,0,0:0:0:0:
280,96,86753,1,0,0:0:0:0:
368,144,86878,1,0,0:0:0:0:
256,136,87003,1,0,0:0:0:0:
480,184,87128,5,0,0:0:0:0:
360,184,87253,1,0,0:0:0:0:
464,224,87378,1,0,0:0:0:0:
344,224,87503,1,0,0:0:0:0:
480,264,87628,1,0,0:0:0:0:
224,264,87753,1,0,0:0:0:0:
320,264,87878,1,0,0:0:0:0:
216,224,88003,1,0,0:0:0:0:
416,264,88128,5,0,0:0:0:0:
296,304,88253,1,0,0:0:0:0:
416,312,88378,1,0,0:0:0:0:
296,360,88503,1,0,0:0:0:0:
416,360,88628,1,0,0:0:0:0:
296,360,88753,1,0,0:0:0:0:
176,360,88878,1,0,0:0:0:0:
56,360,89003,1,0,0:0:0:0:
296,360,89128,5,0,0:0:0:0:
208,360,89253,1,0,0:0:0:0:
328,360,89378,1,0,0:0:0:0:
240,360,89503,1,0,0:0:0:0:
328,360,89628,1,0,0:0:0:0:
208,360,89753,1,0,0:0:0:0:
88,360,89878,1,0,0:0:0:0:
208,360,90003,1,0,0:0:0:0:
384,312,90128,6,0,L|528:312,1,125
128,312,90378,2,0,L|-16:312,1,125
64,312,90628,1,0,0:0:0:0:
0,256,90753,2,0,L|125:256,2,125
256,256,91128,2,0,L|392:256,2,125
136,256,91503,1,0,0:0:0:0:
8,200,91628,2,0,L|152:200,2,125
136,144,92003,1,0,0:0:0:0:
384,144,92128,5,0,0:0:0:0:
312,144,92253,1,0,0:0:0:0:
408,144,92378,1,0,0:0:0:0:
280,144,92503,1,0,0:0:0:0:
64,144,92628,5,0,0:0:0:0:
136,144,92753,1,0,0:0:0:0:
40,144,92878,1,0,0:0:0:0:
168,144,93003,1,0,0:0:0:0:
96,208,93128,2,0,L|296:208,1,187.5
344,264,93378,2,0,L|128:264,1,187.5
96,320,93628,2,0,L|520:320,1,375
232,320,94128,5,0,0:0:0:0:
352,320,94253,1,0,0:0:0:0:
288,320,94378,2,0,L|432:320,1,125
512,320,94628,2,0,L|376:320,2,125
384,264,95003,2,0,L|248:264,2,125
320,264,95378,2,0,L|456:264,2,125
384,264,95753,1,0,0:0:0:0:
472,264,95878,1,0,0:0:0:0:
384,264,96003,1,0,0:0:0:0:
136,264,96128,5,0,0:0:0:0:
256,264,96253,2,0,L|80:264,2,125
192,264,96628,2,0,L|48:264,2,125
96,264,97003,1,0,0:0:0:0:
344,264,97128,6,0,L|512:264,2,125
216,264,97503,1,0,0:0:0:0:
344,264,97628,2,0,L|512:264,2,125
469,264,98003,1,0,0:0:0:0:
216,264,98128,2,0,L|56:264,1,125
216,264,98378,2,0,L|368:264,1,125
280,264,98628,2,0,L|432:264,2,125
376,264,99003,1,0,0:0:0:0:
80,264,99128,6,0,L|256:264,2,125
205,264,99503,2,0,L|80:264,2,125
344,264,99878,6,0,L|168:264,2,125
219,264,100253,2,0,L|344:264,2,125
280,264,100628,2,0,L|136:264,2,125
216,264,101003,6,0,L|344:264,1,125
280,264,101253,2,0,L|432:264,1,125
512,264,101503,2,0,L|336:264,2,125
387,264,101878,1,0,0:0:0:0:
280,264,102003,1,0,0:0:0:0:
24,192,102128,2,0,L|152:192,2,125
149,192,102503,2,0,L|288:192,2,125
216,192,102878,2,0,L|56:192,2,125
152,192,103253,2,0,L|328:192,2,125
384,192,103628,6,0,L|544:192,2,125
256,192,104003,1,0,0:0:0:0:
136,192,104128,2,0,L|8:192,2,125
11,192,104503,1,0,0:0:0:0:
256,192,104628,2,0,L|128:192,2,125
131,192,105003,1,0,0:0:0:0:
392,192,105128,2,0,L|240:192,2,125
328,192,105503,2,0,L|480:192,2,125
392,192,105878,2,0,L|248:192,2,125
240,184,110128,6,0,L|56:184,2,131.249995994568
376,184,110503,2,0,L|528:184,2,131.249995994568
472,184,110878,1,0,0:0:0:0:
344,184,111003,1,0,0:0:0:0:
208,184,111128,2,0,L|488:184,2,262.499991989136
304,184,111753,1,0,0:0:0:0:
192,184,111878,1,0,0:0:0:0:
288,240,112003,1,0,0:0:0:0:
136,240,112128,6,0,L|-24:240|-24:240,2,131.249995994568
72,240,112503,2,0,L|232:240,2,131.249995994568
136,240,112878,2,0,L|288:240,2,131.249995994568
240,240,113253,2,0,L|104:240,2,131.249995994568
176,240,113628,1,0,0:0:0:0:
240,240,113690,1,0,0:0:0:0:
304,240,113753,1,0,0:0:0:0:
240,240,113815,1,0,0:0:0:0:
176,240,113878,1,0,0:0:0:0:
56,240,114003,5,0,0:0:0:0:
176,240,114128,2,0,L|328:240,2,131.249995994568
304,240,114503,1,0,0:0:0:0:
432,240,114628,2,0,L|288:240,2,131.249995994568
368,240,115003,1,0,0:0:0:0:
496,240,115128,2,0,L|320:240,1,131.249995994568
240,240,115378,2,0,L|96:240,1,131.249995994568
240,240,115628,2,0,L|400:240,2,131.249995994568
368,240,116003,1,0,0:0:0:0:
136,240,116128,6,0,L|-8:240,1,131.249995994568
104,240,116378,2,0,L|248:240,2,131.249995994568
176,240,116753,2,0,L|24:240,2,131.249995994568
304,240,117128,2,0,L|488:240,2,131.249995994568
368,240,117503,1,0,0:0:0:0:
368,184,117628,5,0,0:0:0:0:
302,184,117690,1,0,0:0:0:0:
236,184,117753,1,0,0:0:0:0:
171,184,117815,1,0,0:0:0:0:
304,184,117878,1,0,0:0:0:0:
369,184,117940,1,0,0:0:0:0:
435,184,118003,1,0,0:0:0:0:
500,184,118065,1,0,0:0:0:0:
368,128,118128,2,0,L|216:128,2,131.249995994568
496,120,118503,5,0,0:0:0:0:
368,120,118628,2,0,L|216:120,1,131.249995994568
304,120,118878,2,0,L|128:120,1,131.249995994568
224,120,119128,2,0,L|92:120,2,131.249995994568
304,120,119503,1,0,0:0:0:0:
432,120,119628,2,0,L|288:120,2,131.249995994568
368,120,120003,1,0,0:0:0:0:
176,120,120128,6,0,L|44:120,2,131.249995994568
304,120,120503,1,0,0:0:0:0:
176,120,120628,2,0,L|32:120,2,131.249995994568
80,120,121003,1,0,0:0:0:0:
136,120,121128,2,0,L|-24:120,1,131.249995994568
200,120,121378,2,0,L|200:280,1,131.249995994568
376,120,121628,2,0,L|552:120,1,131.249995994568
312,120,121878,2,0,L|312:288,1,131.249995994568
136,256,122128,6,0,L|-8:256,2,131.249995994568
264,256,122503,2,0,L|400:256,1,131.249995994568
320,256,122753,2,0,L|472:256,1,131.249995994568
384,256,123003,2,0,L|232:256,3,131.249995994568
320,256,123503,2,0,L|464:256,2,131.249995994568
256,256,123878,2,0,L|400:256,1,131.249995994568
184,256,124128,6,0,L|32:256,2,131.249995994568
120,256,124503,2,0,L|304:256,2,131.249995994568
184,256,124878,2,0,L|32:256,2,131.249995994568
312,256,125253,2,0,L|448:256,1,131.249995994568
312,256,125503,2,0,L|160:256,1,131.249995994568
56,256,125753,2,0,L|208:256,1,131.249995994568
56,256,126003,1,0,0:0:0:0:
176,256,126128,1,0,0:0:0:0:
360,200,130128,5,0,0:0:0:0:
296,200,130253,1,0,0:0:0:0:
392,200,130378,1,0,0:0:0:0:
264,200,130503,1,0,0:0:0:0:
200,200,130628,1,0,0:0:0:0:
296,200,130753,1,0,0:0:0:0:
168,200,130878,1,0,0:0:0:0:
48,200,131003,1,0,0:0:0:0:
264,152,131128,5,0,0:0:0:0:
200,152,131253,1,0,0:0:0:0:
328,152,131378,1,0,0:0:0:0:
200,152,131503,1,0,0:0:0:0:
200,152,131628,1,0,0:0:0:0:
264,152,131690,1,0,0:0:0:0:
328,152,131753,1,0,0:0:0:0:
392,152,131815,1,0,0:0:0:0:
448,152,131878,1,0,0:0:0:0:
392,96,131940,1,0,0:0:0:0:
320,96,132003,1,0,0:0:0:0:
88,96,132128,5,0,0:0:0:0:
192,96,132253,1,0,0:0:0:0:
192,96,132378,1,0,0:0:0:0:
320,96,132503,1,0,0:0:0:0:
224,96,132628,1,0,0:0:0:0:
352,96,132753,1,0,0:0:0:0:
256,96,132878,1,0,0:0:0:0:
256,96,133003,1,0,0:0:0:0:
128,96,133128,1,0,0:0:0:0:
128,96,133253,5,0,0:0:0:0:
200,160,133378,1,0,0:0:0:0:
256,160,133503,1,0,0:0:0:0:
136,232,133628,1,0,0:0:0:0:
192,232,133690,1,0,0:0:0:0:
256,232,133753,1,0,0:0:0:0:
312,232,133815,1,0,0:0:0:0:
256,232,133878,1,0,0:0:0:0:
312,232,133940,1,0,0:0:0:0:
376,232,134003,1,0,0:0:0:0:
312,232,134065,1,0,0:0:0:0:
256,232,134128,1,0,0:0:0:0:
384,288,134253,5,0,0:0:0:0:
304,288,134378,1,0,0:0:0:0:
416,288,134503,1,0,0:0:0:0:
304,288,134628,1,0,0:0:0:0:
368,336,134753,1,0,0:0:0:0:
240,336,134878,1,0,0:0:0:0:
304,336,135003,1,0,0:0:0:0:
176,336,135128,1,0,0:0:0:0:
240,288,135253,5,0,0:0:0:0:
368,336,135378,1,0,0:0:0:0:
304,288,135503,1,0,0:0:0:0:
424,336,135628,1,0,0:0:0:0:
382,289,135690,1,0,0:0:0:0:
340,243,135753,1,0,0:0:0:0:
298,196,135815,1,0,0:0:0:0:
424,200,135878,1,0,0:0:0:0:
451,144,135940,1,0,0:0:0:0:
479,88,136003,1,0,0:0:0:0:
507,32,136065,1,0,0:0:0:0:
384,32,136128,6,0,L|80:32,1,250
384,32,136503,1,0,0:0:0:0:
216,128,136753,1,0,0:0:0:0:
296,128,136878,1,0,0:0:0:0:
216,128,137003,1,0,0:0:0:0:
104,128,137128,2,0,L|354:128,1,250
104,128,137503,1,0,0:0:0:0:
56,184,137628,5,0,0:0:0:0:
88,184,137690,1,0,0:0:0:0:
120,184,137753,1,0,0:0:0:0:
88,184,137815,1,0,0:0:0:0:
56,184,137878,1,0,0:0:0:0:
120,184,137940,1,0,0:0:0:0:
184,184,138003,1,0,0:0:0:0:
120,184,138065,1,0,0:0:0:0:
56,184,138128,1,0,0:0:0:0:
184,184,138253,5,0,0:0:0:0:
312,184,138378,1,0,0:0:0:0:
440,184,138503,1,0,0:0:0:0:
328,136,138628,1,0,0:0:0:0:
424,136,138753,1,0,0:0:0:0:
320,88,138878,1,0,0:0:0:0:
432,88,139003,1,0,0:0:0:0:
176,88,139128,2,0,L|32:88,2,125
320,88,139503,1,0,0:0:0:0:
432,88,139628,5,0,0:0:0:0:
369,88,139690,1,0,0:0:0:0:
307,88,139753,1,0,0:0:0:0:
244,88,139815,1,0,0:0:0:0:
112,88,139878,1,0,0:0:0:0:
98,88,139940,1,0,0:0:0:0:
161,88,140003,1,0,0:0:0:0:
223,88,140065,1,0,0:0:0:0:
286,88,140128,1,0,0:0:0:0:
184,88,140253,5,0,0:0:0:0:
232,144,140378,1,0,0:0:0:0:
144,144,140503,1,0,0:0:0:0:
208,192,140628,1,0,0:0:0:0:
80,192,140753,1,0,0:0:0:0:
192,240,140878,1,0,0:0:0:0:
64,240,141003,1,0,0:0:0:0:
272,240,141128,5,0,0:0:0:0:
392,240,141253,1,0,0:0:0:0:
304,240,141378,1,0,0:0:0:0:
424,240,141503,1,0,0:0:0:0:
336,240,141628,1,0,0:0:0:0:
273,240,141690,1,0,0:0:0:0:
211,240,141753,1,0,0:0:0:0:
148,240,141815,1,0,0:0:0:0:
272,288,141878,1,0,0:0:0:0:
334,288,141940,1,0,0:0:0:0:
397,288,142003,1,0,0:0:0:0:
459,288,142065,1,0,0:0:0:0:
400,344,142128,5,0,0:0:0:0:
136,336,142253,2,0,L|0:336,2,125
376,336,142628,2,0,L|512:336,2,125
256,336,143003,2,0,L|128:336,2,125
136,336,143378,5,0,0:0:0:0:
16,336,143503,1,0,0:0:0:0:
136,336,143628,1,0,0:0:0:0:
80,336,143690,1,0,0:0:0:0:
16,336,143753,1,0,0:0:0:0:
80,296,143815,1,0,0:0:0:0:
136,336,143878,1,0,0:0:0:0:
232,336,143940,1,0,0:0:0:0:
320,336,144003,1,0,0:0:0:0:
416,336,144065,1,0,0:0:0:0:
512,336,144128,1,0,0:0:0:0:
416,272,144253,6,0,L|272:272,1,125
112,272,144503,1,0,0:0:0:0:
0,224,144628,2,0,L|152:224,2,125
192,224,145003,1,0,0:0:0:0:
384,224,145128,1,0,0:0:0:0:
512,224,145253,2,0,L|387:224,2,125
128,224,145628,2,0,L|-8:224,1,125
352,168,145878,2,0,L|504:168,1,125
