osu file format v5

[General]
AudioFilename: Just Fine.mp3
AudioLeadIn: 0
PreviewTime: -1
Countdown: 0
SampleSet: Normal
StackLeniency: 0.7
Mode: 0
LetterboxInBreaks: 1
EditorBookmarks: 141027
EditorDistanceSpacing: 1

[Metadata]
Title:Just Fine
Artist:Mary J. Blige
Creator:Takuma
Version:Hard
Source:
Tags:

[Difficulty]
HPDrainRate:6
CircleSize:5
OverallDifficulty:7
SliderMultiplier:1.6
SliderTickRate:0.5

[Events]
//Background and Video events
0,0,"mary_j_blige_wallpapers_02.jpg"
1,0,"1293220857e4596a8cb622c25d2a0d38.avi"
//Break Periods
2,63136,77403
2,141186,155695
//Storyboard Layer 0 (Background)
//Storyboard Layer 1 (Failing)
//Storyboard Layer 2 (Passing)
//Storyboard Layer 3 (Foreground)
//Storyboard Sound Samples
//Background Colour Transformations
3,100,163,162,255

[TimingPoints]
16108,487.80487804878,4,1,1,50,1,0
31451,-100,4,2,0,100,0,0
31695,-100,4,1,1,50,0,0
47070,-100,4,2,0,100,0,0
47314,-100,4,1,1,50,0,0
109546,-100,4,2,0,100,0,0
109790,-100,4,1,1,50,0,0

[Colours]
Combo1 : 191,218,101
Combo2 : 37,91,173
Combo3 : 80,5,141
Combo4 : 253,172,231

[HitObjects]
256,56,15864,2,2,B|216:112|296:152|248:216,1,160
200,272,16595,1,14
144,216,16839,1,0
64,216,17083,2,0,B|64:264,2,40
40,136,17571,1,8
104,88,17815,1,0
176,112,18059,2,0,B|272:112,1,80,0|0
232,184,18547,2,0,B|320:184,1,80,8|8
368,128,19034,1,8
368,128,19156,1,0
368,128,19278,1,0
432,176,19522,1,0
488,232,19766,6,2,B|488:344|376:320,1,160
312,296,20498,1,14
312,216,20742,1,0
232,216,20986,2,0,B|232:264,2,40
232,216,21473,1,8
232,136,21717,5,0
160,176,21961,1,0
160,96,22205,1,0
88,136,22449,1,8
88,56,22693,1,8
160,16,22937,2,0,B|256:16,1,80,8|0
320,16,23425,1,0
400,32,23668,2,2,B|352:96|384:144|448:152,1,160,2|2
384,208,24400,2,0,B|352:240|304:216,1,80,14|0
240,184,24888,2,0,B|208:224,2,40
240,184,25376,1,8
200,112,25620,5,0
200,112,25742,1,0
200,112,25864,1,0
120,112,26107,1,0
40,112,26351,2,8,B|40:200,2,80
80,40,27083,1,0
120,112,27327,1,0
160,184,27571,6,2,B|240:304|384:272,1,240
336,200,28547,2,2,B|208:232|152:360,1,240
80,320,29522,2,2,B|176:216|64:104,1,240
120,48,30498,2,0,B|208:48,1,80,0|2
280,48,30986,2,0,B|280:136,1,80,0|2
280,208,31473,5,2
304,240,31595,1,2
328,208,31717,2,0,B|416:208,1,80,4|0
488,208,32205,2,0,B|448:288,1,80,8|0
408,344,32693,2,0,B|312:312|240:352,1,160,0|8
184,304,33425,1,0
64,192,33912,2,0,B|64:104,1,80,0|8
136,144,34400,2,8,B|136:56,2,80
216,144,35132,2,2,B|168:240|288:272,1,160,2|4
336,216,35864,5,0
416,216,36107,2,0,B|464:144|416:64,1,160,8|0
344,32,36839,1,0
288,88,37083,1,8
288,88,37327,1,0
168,200,37815,2,0,B|80:200,1,80,0|10
120,272,38303,2,8,B|208:272,1,80,8|10
280,272,38790,1,0
360,272,39034,2,2,B|352:160|448:352|448:232,1,160,2|4
488,168,39766,5,0
488,88,40010,2,0,B|400:48|344:144,1,160,8|0
296,192,40742,2,0,B|256:224|208:184,1,80,0|8
160,144,41229,1,0
40,248,41717,1,2
96,296,41961,1,10
216,192,42449,1,6
216,272,42693,1,8
296,272,42937,1,8
296,192,43181,5,0
296,192,43303,1,0
296,192,43425,2,2,B|368:136|448:200,2,160,6|2|2
248,40,44888,2,2,B|112:40,1,120
128,40,45376,1,2
32,112,45742,1,0
32,112,45864,1,2
112,192,46229,1,0
112,192,46351,1,2
192,192,46595,6,0,B|216:272,1,80,0|2
240,344,47083,2,0,B|328:344,1,80,2|4
368,280,47571,5,0
368,280,47693,1,0
368,280,47815,1,8
448,280,48059,2,0,B|448:328,2,40
448,200,48547,2,0,B|360:200,1,80,0|8
288,200,49034,2,0,B|288:248,2,40
224,152,49522,1,0
288,104,49766,1,8
224,56,50010,1,0
144,56,50254,2,0,B|144:144,1,80,8|0
144,216,50742,2,2,B|88:232|56:296|104:344,1,160,2|4
176,336,51473,6,0,B|176:288,2,40,0|0|8
264,336,51961,2,0,B|264:384,2,40
264,248,52449,2,0,B|216:248,2,40,0|0|8
344,248,52937,2,0,B|400:320,1,80
456,352,53425,2,0,B|488:320|464:272,1,80,0|10
432,208,53912,2,0,B|400:168|432:128,1,80,0|10
480,72,54400,1,0
408,40,54644,2,2,B|320:24|288:128,1,160,2|4
256,192,55376,5,0
176,192,55620,1,8
120,248,55864,1,0
120,248,55986,1,0
64,192,56229,1,0
64,192,56351,1,0
16,120,56595,1,0
16,120,56717,2,0,B|152:120,1,120,0|4
192,64,57327,1,0
248,120,57571,1,8
304,176,57815,1,0
360,120,58059,1,8
440,120,58303,2,0,B|440:208,1,80,0|8
440,272,58790,1,0
440,352,59034,5,6
72,352,59522,5,2
72,32,60010,5,2
440,32,60498,5,2
256,192,60986,12,6,61961
184,88,62449,6,2,B|256:32|336:88,1,160,2|6
40,192,78303,6,2,B|96:136|120:240|200:176,1,160
248,136,79034,1,6
312,96,79278,1,0
392,96,79522,2,0,B|392:152,2,40
392,96,80010,1,8
464,120,80254,2,0,B|496:160|464:192,1,80
408,248,80742,2,0,B|360:240|344:296,1,80,0|8
304,352,81229,1,0
224,352,81473,2,0,B|136:352,2,80,8|0|8
264,280,82205,6,2,B|240:200|128:208,1,160
56,192,82937,2,0,B|24:160|56:112,1,80,6|0
112,64,83425,1,0
112,64,83547,1,0
112,64,83668,1,0
192,64,83912,2,0,B|232:136,1,80,8|0
230,133,84278,1,0
230,133,84400,1,4
264,200,84644,2,0,B|352:200,1,80,0|8
424,200,85132,2,0,B|424:288,1,80,0|8
424,360,85620,1,0
352,320,85864,1,8
272,320,86107,6,2,B|184:352|144:248,1,160
72,280,86839,1,6
32,208,87083,1,0
104,176,87327,1,0
104,176,87449,1,0
104,176,87571,1,0
184,176,87815,1,8
248,216,88059,1,0
248,216,88181,1,0
248,216,88303,2,0,B|288:184|248:136,1,80
184,104,88790,2,0,B|152:72|184:24,3,80,8|0|8|0
256,16,89766,1,0
328,48,90010,6,2,B|264:160|400:264,1,240
440,192,90986,2,2,B|256:168|200:264,1,240
160,296,91961,2,2,B|0:328|32:144,1,240,2|10
40,80,92937,2,0,B|128:88,1,80,0|2
112,168,93425,2,0,B|200:176,1,80,0|2
272,184,93912,5,0
272,184,94034,1,0
272,184,94156,1,4
352,184,94400,1,0
352,264,94644,1,8
432,264,94888,1,0
432,184,95132,2,0,B|432:88,1,80
432,24,95620,2,0,B|336:24,1,80,8|0
208,96,96351,1,0
160,32,96595,1,2
112,96,96839,1,0
32,96,97083,1,2
72,168,97327,1,0
72,248,97571,2,2,B|240:248,1,160,2|4
280,184,98303,5,0
328,248,98547,1,8
456,152,99034,1,0
456,72,99278,1,0
376,72,99522,1,8
376,152,99766,2,0,B|208:152,1,160
144,104,100498,1,8
80,152,100742,2,0,B|80:240,1,80,0|8
152,200,101229,2,0,B|152:288,1,80,0|8
200,336,101717,6,0,B|296:336,1,80,0|4
360,336,102205,1,0
360,336,102449,1,8
320,264,102693,1,0
400,264,102937,2,0,B|488:264,2,80,0|0|8
408,184,103668,2,0,B|440:88|336:48,1,160
272,40,104400,2,14,B|208:40|208:128|136:128,1,160,2|6
64,128,105132,2,0,B|64:216,1,80,0|8
64,288,105620,5,0
96,312,105742,1,0
128,288,105864,2,2,B|192:224|280:288,2,160,6|6|6
192,144,107327,2,6,B|320:144,1,120,2|2
312,144,107815,1,6
400,224,108181,1,0
400,224,108303,1,6
504,136,108668,1,0
504,136,108790,1,6
504,56,109034,2,0,B|408:56,1,80,0|2
344,56,109522,5,2
344,56,109644,1,2
344,56,109766,1,4
264,56,110010,2,0,B|264:144,1,80,0|8
184,136,110498,2,0,B|184:184,2,40
104,136,110986,2,0,B|104:88,2,40,0|0|8
104,216,111473,2,0,B|56:216,2,40
104,296,111961,1,0
176,256,112205,1,8
176,336,112449,1,0
248,296,112693,1,2
248,216,112937,1,0
248,136,113181,2,2,B|328:104|408:136,1,160,2|4
472,184,113912,5,0
408,232,114156,1,8
328,232,114400,1,0
272,288,114644,2,0,B|272:336,4,40,0|0|0|0|8
192,288,115376,1,0
192,208,115620,2,0,B|104:208,1,80
32,208,116108,2,0,B|32:120,1,80,2|0
32,48,116595,1,2
32,48,116839,1,0
112,40,117083,2,2,B|200:32|248:112,1,160,2|4
280,176,117815,5,0
224,232,118059,1,8
280,288,118303,2,0,B|328:288,4,40
360,200,119156,1,0
440,104,119522,2,0,B|344:104,1,80
280,104,120010,2,0,B|232:176,1,80,8|0
184,232,120498,2,0,B|80:232,1,80,2|0
32,200,120986,1,2
32,280,121229,1,0
72,352,121473,5,6
440,352,121961,5,2
440,32,122449,5,2
72,32,122937,5,2
256,192,123425,12,6,124400
48,192,124888,6,2,B|96:152|168:232|216:176,1,160,2|6
272,144,125620,2,0,B|336:208,1,80,0|2
384,256,126107,1,0
440,304,126351,1,2
384,256,126595,1,0
440,200,126839,1,2
440,120,127083,2,0,B|376:56,1,80,0|2
312,16,127571,2,0,B|216:16,2,80,0|2|0
256,192,128303,12,6,129278
256,192,129522,5,0
224,264,129766,1,2
160,304,130010,1,0
80,304,130254,2,0,B|56:216,1,80,2|0
40,144,130742,2,2,B|80:56|184:72,1,160,2|6
248,80,131473,2,0,B|304:152,1,80,0|2
360,96,131961,2,0,B|408:168,1,80,0|2
448,224,132449,1,0
448,304,132693,2,2,B|280:304,1,160,2|6
232,248,133425,5,0
176,304,133668,1,2
120,248,133912,1,0
64,304,134156,1,2
8,248,134400,2,0,B|8:160,1,80,0|2
8,88,134888,2,0,B|104:88,1,80,0|2
168,88,135376,1,0
224,144,135620,1,2
280,88,135864,1,0
360,88,136107,2,2,B|408:168|360:248,1,160
320,304,136839,1,0
440,352,137083,5,6
72,352,137571,5,2
72,32,138059,5,2
440,32,138547,5,2
256,192,139034,12,4,140010
256,192,140254,12,4,140986
256,192,156595,5,4
256,112,156839,1,0
256,32,157083,2,2,B|160:40|120:120,1,160
16,160,157937,1,2
104,240,158303,1,2
104,320,158547,2,2,B|232:320,1,120,6|2
344,320,159278,1,0
344,320,159522,1,8
440,192,160010,2,2,B|392:120|296:128,1,160,2|6
256,192,160742,12,4,164400
256,192,164888,2,2,B|88:192,1,160
32,88,165742,1,2
152,88,166107,1,2
232,88,166351,2,2,B|312:80|352:168,2,120,6|2|2
232,88,167327,1,0
424,40,167815,1,6
424,40,168303,1,6
256,192,168547,12,6,171717
72,72,172205,5,2
136,112,172449,1,0
72,160,172693,2,2,B|96:248|200:264,1,160,2|0
184,261,173303,1,0
184,261,173425,1,0
200,184,173668,1,8
280,184,173912,2,0,B|296:224,2,40
248,112,174400,1,0
320,88,174644,1,8
352,160,174888,1,8
432,160,175132,2,0,B|480:248|408:312,1,160,8|0
344,344,175864,6,2,B|272:344|272:272|200:272,1,160
128,280,176595,1,6
72,224,176839,1,0
128,168,177083,2,0,B|176:168,2,40
72,112,177571,1,8
72,32,177815,2,0,B|160:32,1,80
184,104,178303,2,0,B|272:104,1,80,0|8
344,104,178790,2,0,B|368:144|424:120,1,80,0|8
456,192,179278,2,0,B|400:184|392:224,1,80,0|8
360,296,179766,2,6,B|296:344|240:312,2,120
304,240,180742,5,0
224,240,180986,1,0
224,240,181107,1,0
224,240,181229,1,0
152,200,181473,1,8
96,144,181717,1,0
96,144,181839,1,0
96,144,181961,1,2
152,88,182205,1,0
208,32,182449,2,0,B|304:32,1,80,2|0
368,32,182937,2,2,B|320:120|440:160,1,160
488,192,183668,1,0
488,192,183912,5,6
256,344,184400,5,2
24,192,184888,5,2
256,40,185376,5,2
256,192,185864,12,6,186839
256,40,187327,6,2,B|208:96|296:128|240:200,1,160,2|6
176,232,188059,1,0
104,272,188303,1,2
176,312,188547,1,0
248,272,188790,1,2
248,352,189034,1,0
320,312,189278,1,2
320,232,189522,2,0,B|416:232,1,80,0|2
480,232,190010,2,0,B|480:320,2,80,0|2|0
256,192,190742,12,6,191717
256,192,191961,5,0
176,192,192205,1,2
176,112,192449,1,0
96,112,192693,1,2
96,192,192937,2,0,B|96:288,1,80,0|2
96,352,193425,2,0,B|184:352,1,80,0|2
224,288,193912,1,0
272,352,194156,1,2
352,352,194400,1,0
400,288,194644,1,2
256,192,194888,12,6,195620
256,192,195864,5,0
336,192,196107,1,2
296,120,196351,1,0
376,120,196595,1,2
416,192,196839,2,0,B|416:280,1,80,0|2
416,352,197327,2,0,B|328:352,1,80,0|2
272,304,197815,1,0
216,240,198059,1,2
136,240,198303,2,0,B|136:328,1,80,0|2
256,192,198790,12,6,199522
176,48,200010,6,2,B|344:48,1,160,2|6
336,336,200986,6,2,B|168:336,1,160,2|6
72,192,201961,5,6
440,192,202449,1,6
256,192,202693,12,6,203425
