osu file format v12

[General]
AudioFilename: BGMAR.mp3
AudioLeadIn: 0
PreviewTime: -1
Countdown: 1
SampleSet: None
StackLeniency: 0.7
Mode: 1
LetterboxInBreaks: 1
WidescreenStoryboard: 0

[Editor]
DistanceSpacing: 0.8
BeatDivisor: 4
GridSize: 8

[Metadata]
Title:Artificial Rose
TitleUnicode:
Artist:Mary
ArtistUnicode:
Creator:-[ ix Ishida xi ]-
Version:-[ ix Rose xi ]-
Source:
Tags:
BeatmapID:376726
BeatmapSetID:153203

[Difficulty]
HPDrainRate:5
CircleSize:5
OverallDifficulty:5
ApproachRate:5
SliderMultiplier:1.4
SliderTickRate:1

[Events]
//Background and Video events
0,0,"33226747.jpg",0,0
//Break Periods
//Storyboard Layer 0 (Background)
//Storyboard Layer 1 (Fail)
//Storyboard Layer 2 (Pass)
//Storyboard Layer 3 (Foreground)
//Storyboard Sound Samples
//Background Colour Transformations
3,100,163,162,255

[TimingPoints]
-35,342.857142857143,4,1,0,5,1,0
1250,-142.857142857143,4,1,0,50,0,0
1422,-142.857142857143,4,1,0,15,0,0
1593,-142.857142857143,4,1,0,50,0,0
1765,-142.857142857143,4,1,0,20,0,0
1936,-142.857142857143,4,1,0,35,0,0
2107,-142.857142857143,4,1,0,55,0,0
2279,-142.857142857143,4,1,0,20,0,0
2450,-142.857142857143,4,1,0,55,0,0
2622,-142.857142857143,4,1,0,5,0,0
2793,-142.857142857143,4,1,0,20,0,0
2965,-142.857142857143,4,1,0,50,0,0
3136,-142.857142857143,4,1,0,20,0,0
3307,-142.857142857143,4,1,0,30,0,0
3479,-142.857142857143,4,1,0,50,0,0
3650,-142.857142857143,4,1,0,70,0,0
3822,-142.857142857143,4,1,0,20,0,0
3993,-142.857142857143,4,1,0,50,0,0
4165,-142.857142857143,4,1,0,20,0,0
4336,-142.857142857143,4,1,0,50,0,0
4507,-142.857142857143,4,1,0,25,0,0
4679,-142.857142857143,4,1,0,35,0,0
4850,-142.857142857143,4,1,0,50,0,0
5022,-142.857142857143,4,1,0,20,0,0
5193,-142.857142857143,4,1,0,50,0,0
5365,-142.857142857143,4,1,0,5,0,0
5536,-142.857142857143,4,1,0,20,0,0
5707,-142.857142857143,4,1,0,50,0,0
5879,-142.857142857143,4,1,0,20,0,0
6050,-142.857142857143,4,1,0,30,0,0
6222,-142.857142857143,4,1,0,50,0,0
6393,-142.857142857143,4,1,0,70,0,0
6565,-142.857142857143,4,1,0,15,0,0
6736,-117.647058823529,4,1,0,5,0,0
6907,-117.647058823529,4,1,0,20,0,0
7079,-117.647058823529,4,1,0,50,0,0
7250,-117.647058823529,4,1,0,20,0,0
7593,-117.647058823529,4,1,0,50,0,0
7765,-117.647058823529,4,1,0,20,0,0
7936,-117.647058823529,4,1,0,50,0,0
8107,-117.647058823529,4,1,0,5,0,0
8279,-117.647058823529,4,1,0,20,0,0
8450,-117.647058823529,4,1,0,50,0,0
8622,-117.647058823529,4,1,0,20,0,0
8793,-117.647058823529,4,1,0,35,0,0
8965,-117.647058823529,4,1,0,60,0,0
9136,-117.647058823529,4,1,0,85,0,0
9307,-117.647058823529,4,1,0,30,0,0
9479,-117.647058823529,4,1,0,60,0,0
9650,-117.647058823529,4,1,0,20,0,0
9822,-117.647058823529,4,1,0,50,0,0
9993,-117.647058823529,4,1,0,20,0,0
10336,-117.647058823529,4,1,0,60,0,0
10507,-117.647058823529,4,1,0,20,0,0
10679,-117.647058823529,4,1,0,70,0,0
10850,-117.647058823529,4,1,0,20,0,0
11193,-117.647058823529,4,1,0,50,0,0
11365,-117.647058823529,4,1,0,20,0,0
11579,-117.647058823529,4,1,0,70,0,0
11707,-117.647058823529,4,1,0,55,0,0
11879,-117.647058823529,4,1,0,40,0,0
12050,-117.647058823529,4,1,0,30,0,0
12222,-100,4,1,0,100,0,0
12393,-100,4,1,0,30,0,0
12907,-100,4,1,0,60,0,0
13079,-100,4,1,0,100,0,0
13250,-100,4,1,0,40,0,0
13593,-100,4,1,0,100,0,0
13765,-100,4,1,0,30,0,0
14450,-100,4,1,0,100,0,0
14622,-100,4,1,0,40,0,0
14965,-100,4,1,0,100,0,0
15136,-100,4,1,0,50,0,0
15822,-100,4,1,0,100,0,0
15993,-100,4,1,0,30,0,0
16165,-100,4,1,0,50,0,0
16379,-100,4,1,0,100,0,0
16507,-100,4,1,0,40,0,0
17193,-100,4,1,0,100,0,0
17365,-100,4,1,0,40,0,0
17579,-100,4,1,0,80,0,0
17707,-100,4,1,0,100,0,0
17879,-100,4,1,0,5,0,0
18050,-100,4,1,0,40,0,0
18565,-100,4,1,0,100,0,0
18736,-100,4,1,0,30,0,0
19079,-100,4,1,0,100,0,0
19250,-100,4,1,0,40,0,0
19936,-100,4,1,0,100,0,0
20107,-100,4,1,0,40,0,0
20450,-100,4,1,0,100,0,0
20622,-100,4,1,0,40,0,0
21307,-100,4,1,0,100,0,0
21479,-100,4,1,0,40,0,0
21650,-100,4,1,0,60,0,0
21865,-100,4,1,0,100,0,0
21993,-100,4,1,0,40,0,0
22165,-100,4,1,0,80,0,0
22336,-100,4,1,0,40,0,0
22465,-100,4,1,0,70,0,0
22550,-100,4,1,0,100,0,0
22850,-100,4,1,0,60,0,0
23065,-100,4,1,0,80,0,0
23193,-100,4,1,0,100,0,0
23279,-66.6666666666667,4,1,0,100,0,1
23322,-66.6666666666667,4,1,0,100,0,0
23365,-142.857142857143,4,1,0,35,0,0
25979,-125,4,1,0,50,0,0
26279,-111.111111111111,4,1,0,50,0,0
26536,-100,4,1,0,50,0,0
26793,-90.9090909090909,4,1,0,50,0,0
26879,-89.2857142857143,4,1,0,50,0,0
26965,-87.719298245614,4,1,0,50,0,0
27050,-86.2068965517241,4,1,0,50,0,0
27136,-84.7457627118644,4,1,0,50,0,0
27222,-83.3333333333333,4,1,0,50,0,0
27307,-81.9672131147541,4,1,0,50,0,0
27350,-100,4,1,0,70,0,0
27393,-66.6666666666667,4,1,0,70,0,0
27479,-68.0272108843537,4,1,0,70,0,0
27522,-100,4,1,0,100,0,0
27565,-69.4444444444444,4,1,0,100,0,0
27607,-100,4,1,0,50,0,0
27650,-70.9219858156028,4,1,0,50,0,0
27736,-72.463768115942,4,1,0,50,0,0
27822,-74.0740740740741,4,1,0,50,0,0
27865,-100,4,1,0,100,0,0
27907,-75.7575757575758,4,1,0,100,0,0
27950,-100,4,1,0,50,0,0
27993,-77.5193798449612,4,1,0,50,0,0
28079,-79.3650793650794,4,1,0,50,0,0
28165,-81.3008130081301,4,1,0,50,0,0
28207,-100,4,1,0,100,0,0
28250,-83.3333333333333,4,1,0,100,0,0
28293,-100,4,1,0,50,0,0
28336,-85.4700854700855,4,1,0,50,0,0
28379,-100,4,1,0,30,0,0
28422,-87.719298245614,4,1,0,30,0,0
28465,-100,4,1,0,50,0,0
28507,-90.0900900900901,4,1,0,50,0,0
28550,-100,4,1,0,70,0,0
28593,-92.5925925925926,4,1,0,70,0,0
28636,-100,4,1,0,90,0,0
28679,-95.2380952380952,4,1,0,90,0,0
28722,-100,4,1,0,60,0,0
28765,-66.6666666666667,4,1,0,60,0,1
28807,-66.6666666666667,4,1,0,60,0,0
28850,-100,4,1,0,80,0,0
39736,-83.3333333333333,4,1,0,80,0,0
50536,-71.4285714285714,4,1,0,80,0,0
50593,-66.6666666666667,4,1,0,80,0,0
50650,-62.5,4,1,0,80,0,0
50706,46.1538461538462,4,1,0,80,1,0
50707,342.857142857143,4,1,0,80,1,0
50793,-66.6666666666667,4,1,0,50,0,0
52679,-66.6666666666667,4,1,0,20,0,0
53065,-66.6666666666667,4,1,0,50,0,0
53322,-66.6666666666667,4,1,0,20,0,0
53407,-66.6666666666667,4,1,0,50,0,0
53493,-66.6666666666667,4,1,0,70,0,0
53579,-66.6666666666667,4,1,0,90,0,0
53665,-66.6666666666667,4,1,0,50,0,0
53750,-66.6666666666667,4,1,0,20,0,0
53836,-66.6666666666667,4,1,0,40,0,0
53922,-66.6666666666667,4,1,0,60,0,0
54007,-66.6666666666667,4,1,0,80,0,0
54093,-66.6666666666667,4,1,0,100,0,0
54179,-66.6666666666667,4,1,0,50,0,0
54265,-66.6666666666667,4,1,0,20,0,0
54393,-66.6666666666667,4,1,0,60,0,0
54522,-66.6666666666667,4,1,0,40,0,0
54607,-66.6666666666667,4,1,0,20,0,0
54779,-66.6666666666667,4,1,0,80,0,0
54865,-66.6666666666667,4,1,0,60,0,0
54950,-66.6666666666667,4,1,0,40,0,0
55036,-66.6666666666667,4,1,0,20,0,0
55122,-66.6666666666667,4,1,0,60,0,0
55207,-66.6666666666667,4,1,0,40,0,0
55293,-66.6666666666667,4,1,0,20,0,0
55422,-66.6666666666667,4,1,0,40,0,0
55936,-66.6666666666667,4,1,0,30,0,0
56279,-66.6666666666667,4,1,0,40,0,0
56407,-66.6666666666667,4,1,0,20,0,0
56493,-66.6666666666667,4,1,0,70,0,0
56622,-66.6666666666667,4,1,0,40,0,0
56836,-66.6666666666667,4,1,0,80,0,0
56922,-66.6666666666667,4,1,0,60,0,0
57007,-66.6666666666667,4,1,0,40,0,0
57093,-66.6666666666667,4,1,0,20,0,0
57179,-66.6666666666667,4,1,0,60,0,0
57265,-66.6666666666667,4,1,0,40,0,0
57350,-66.6666666666667,4,1,0,20,0,0
57779,-66.6666666666667,4,1,0,40,0,0
57865,-66.6666666666667,4,1,0,60,0,0
57950,-66.6666666666667,4,1,0,20,0,0
58207,-66.6666666666667,4,1,0,60,0,0
58293,-66.6666666666667,4,1,0,20,0,0
58636,-66.6666666666667,4,1,0,40,0,0
58722,-66.6666666666667,4,1,0,60,0,0
58807,-66.6666666666667,4,1,0,20,0,0
58893,-66.6666666666667,4,1,0,80,0,0
58979,-66.6666666666667,4,1,0,60,0,0
59065,-66.6666666666667,4,1,0,40,0,0
59150,-66.6666666666667,4,1,0,20,0,0
59236,-66.6666666666667,4,1,0,60,0,0
59322,-66.6666666666667,4,1,0,30,0,0
59579,-66.6666666666667,4,1,0,80,0,0
59665,-66.6666666666667,4,1,0,60,0,0
59750,-66.6666666666667,4,1,0,40,0,0
59836,-66.6666666666667,4,1,0,20,0,0
60093,-50,4,1,0,60,0,0
60179,-50,4,1,0,45,0,0
60265,-50,4,1,0,80,0,0
60393,-133.333333333333,4,1,0,40,0,0
60736,-80,4,1,0,40,0,0
61593,-100,4,1,0,100,0,0
61679,-50,4,1,0,100,0,1
61722,-50,4,1,0,100,0,0
61765,-100,4,1,0,40,0,0
62493,-100,4,1,0,100,0,0
62622,-100,4,1,0,40,0,0
62965,-100,4,1,0,100,0,0
63136,-100,4,1,0,40,0,0
63822,-100,4,1,0,100,0,0
63993,-100,4,1,0,60,0,0
64336,-100,4,1,0,100,0,0
64507,-100,4,1,0,50,0,0
65193,-100,4,1,0,100,0,0
65365,-100,4,1,0,30,0,0
65536,-100,4,1,0,60,0,0
65750,-100,4,1,0,100,0,0
65879,-100,4,1,0,30,0,0
66093,-100,4,1,0,80,0,0
66179,-100,4,1,0,60,0,0
66265,-100,4,1,0,45,0,0
66350,-100,4,1,0,30,0,0
66436,-100,4,1,0,80,0,0
66565,-100,4,1,0,100,0,0
66736,-100,4,1,0,50,0,0
66950,-100,4,1,0,80,0,0
67079,-83.3333333333333,4,1,0,100,0,0
67250,-83.3333333333333,4,1,0,80,0,0
71965,-71.4285714285714,4,1,0,80,0,0
72307,-62.5,4,1,0,80,0,0
72650,-50,4,1,0,80,0,1
72693,-100,4,1,0,80,0,0
72736,-66.6666666666667,4,1,0,60,0,0
74793,-50,4,1,0,40,0,0
74879,46.1538461538462,4,1,0,40,1,1
75222,-100,4,1,0,65,0,1
75393,342.857142857143,4,1,0,65,1,0
75393,-71.4285714285714,4,1,0,65,0,0
77407,-58.8235294117647,4,1,0,35,0,0
78050,-76.9230769230769,4,1,0,60,0,0
79936,-100,4,1,0,5,0,0
80279,-50,4,1,0,30,0,0
80365,46.1538461538462,4,1,0,30,1,1
80878,342.857142857143,4,1,0,60,1,0
80879,-83.3333333333333,4,1,0,60,0,0
83622,-66.6666666666667,4,1,0,60,0,0
85593,-100,4,1,0,5,0,0
85765,-57.1428571428571,4,1,0,30,0,0
86107,-58.8235294117647,4,1,0,30,0,0
86193,-60.6060606060606,4,1,0,30,0,0
86279,-62.5,4,1,0,30,0,0
86322,-100,4,1,0,60,0,0
86365,-66.6666666666667,4,1,0,60,0,0
88379,-50,4,1,0,30,0,0
89022,-66.6666666666667,4,1,0,60,0,0
91293,-50,4,1,0,30,0,0
91807,-66.6666666666667,4,1,0,65,0,0
93307,-60.6060606060606,4,1,0,80,0,0
93507,-60.6060606060606,4,1,0,100,0,0
93650,-60.6060606060606,4,1,0,60,0,0
93822,-60.6060606060606,4,1,0,60,0,0
94550,-50,4,1,0,80,0,0
94679,-100,4,1,0,60,0,0
105565,-83.3333333333333,4,1,0,60,0,0
113793,-71.4285714285714,4,1,0,60,0,0
113965,-100,4,1,0,60,0,0
114307,-62.5,4,1,0,60,0,0
114479,-100,4,1,0,60,0,0
114822,-55.5555555555556,4,1,0,60,0,0
114993,-100,4,1,0,60,0,0
115122,-55.5555555555556,4,1,0,80,0,0
115250,-56.4971751412429,4,1,0,80,0,0
115336,-57.4712643678161,4,1,0,80,0,0
115422,-58.4795321637427,4,1,0,80,0,0
115507,-59.5238095238095,4,1,0,80,0,0
115593,-60.6060606060606,4,1,0,80,0,0
115679,-61.7283950617284,4,1,0,80,0,0
115765,-62.8930817610063,4,1,0,80,0,0
115850,-64.1025641025641,4,1,0,80,0,0
115936,-65.359477124183,4,1,0,80,0,0
116022,-66.6666666666667,4,1,0,80,0,0
116107,-68.0272108843537,4,1,0,80,0,0
116193,-69.4444444444444,4,1,0,80,0,0
116279,-69.9300699300699,4,1,0,80,0,0
116322,-70.9219858156028,4,1,0,80,0,0
116365,-71.9424460431655,4,1,0,80,0,0
116450,-74.0740740740741,4,1,0,80,0,0
116536,-50,4,1,0,80,0,0
116622,-100,4,1,0,50,0,0
117865,-83.3333333333333,4,1,0,65,0,0
118936,-55.5555555555556,4,1,0,65,0,0
118993,-57.1428571428571,4,1,0,65,0,0
119050,-58.8235294117647,4,1,0,65,0,0
119107,-60.6060606060606,4,1,0,65,0,0
119165,-62.5,4,1,0,65,0,0
119222,-64.5161290322581,4,1,0,65,0,0
119279,-66.6666666666667,4,1,0,75,0,1
130250,-60.6060606060606,4,1,0,75,0,1
141179,-100,4,1,0,75,0,0
141222,-50,4,1,0,75,0,1
141265,-83.3333333333333,4,1,0,75,0,0
144307,-80,4,1,0,75,0,0
144650,-76.9230769230769,4,1,0,75,0,0
144993,-74.0740740740741,4,1,0,75,0,0
145336,-71.4285714285714,4,1,0,75,0,0
145679,-68.9655172413793,4,1,0,75,0,0
146022,-66.6666666666667,4,1,0,75,0,0
146365,-64.5161290322581,4,1,0,75,0,0
146707,-50,4,1,0,75,0,1
146793,-100,4,1,0,40,0,0
149879,-100,4,1,0,30,0,0
152279,-133.333333333333,4,1,0,20,0,0
154593,-100,4,1,0,10,0,0
155707,-66.6666666666667,4,1,0,5,0,0
156136,-50,4,1,0,5,0,0

[HitObjects]
400,160,1336,1,0,0:0:0:0:
384,216,1507,1,0,0:0:0:0:
376,160,1678,1,2,0:0:0:0:
432,176,1850,1,0,0:0:0:0:
384,208,2021,1,0,0:0:0:0:
424,168,2193,1,2,0:0:0:0:
376,192,2365,1,0,0:0:0:0:
408,144,2536,1,0,0:0:0:0:
432,176,2879,1,0,0:0:0:0:
432,176,3050,1,2,0:0:0:0:
432,176,3222,1,0,0:0:0:0:
384,208,3393,1,0,0:0:0:0:
424,168,3565,1,2,0:0:0:0:
368,160,3736,1,2,0:0:0:0:
424,152,3907,1,0,0:0:0:0:
368,152,4079,1,0,0:0:0:0:
368,160,4250,1,0,0:0:0:0:
424,152,4422,1,2,0:0:0:0:
432,176,4593,1,0,0:0:0:0:
384,200,4765,1,0,0:0:0:0:
432,176,4936,1,2,0:0:0:0:
480,152,5107,1,0,0:0:0:0:
432,184,5279,1,6,0:0:0:0:
320,176,5622,1,0,0:0:0:0:
376,168,5793,1,2,0:0:0:0:
432,168,5965,1,0,0:0:0:0:
432,176,6136,1,0,0:0:0:0:
488,184,6307,1,2,0:0:0:0:
432,176,6479,1,2,0:0:0:0:
432,184,6650,1,0,0:0:0:0:
392,144,6822,1,4,0:0:0:0:
320,176,6993,1,0,0:0:0:0:
376,168,7165,1,2,0:0:0:0:
432,160,7336,1,0,0:0:0:0:
392,200,7507,1,0,0:0:0:0:
448,192,7679,1,2,0:0:0:0:
392,200,7850,1,0,0:0:0:0:
336,200,8022,1,0,0:0:0:0:
448,176,8365,1,0,0:0:0:0:
392,192,8536,1,2,0:0:0:0:
440,160,8707,1,0,0:0:0:0:
384,184,8879,1,0,0:0:0:0:
440,160,9050,1,2,0:0:0:0:
384,184,9222,1,2,0:0:0:0:
440,168,9393,1,0,0:0:0:0:
400,136,9565,1,0,0:0:0:0:
424,184,9736,1,0,0:0:0:0:
424,184,9907,1,2,0:0:0:0:
480,176,10079,1,0,0:0:0:0:
384,184,10250,1,0,0:0:0:0:
440,176,10422,1,2,0:0:0:0:
440,168,10593,1,0,0:0:0:0:
408,216,10765,1,2,0:0:0:0:
496,152,11107,1,0,0:0:0:0:
456,192,11279,1,2,0:0:0:0:
440,176,11450,1,0,0:0:0:0:
440,176,11536,1,2,0:0:0:0:
416,184,11622,1,2,0:0:0:0:
416,184,11793,1,2,0:0:0:0:
408,216,11965,1,2,0:0:0:0:
448,176,12136,1,0,0:0:0:0:
416,184,12307,1,6,0:0:0:0:
368,152,12479,1,0,0:0:0:0:
376,176,12565,1,0,0:0:0:0:
376,176,12650,1,0,0:0:0:0:
376,176,12822,1,0,0:0:0:0:
416,184,12993,1,0,0:0:0:0:
408,216,13165,1,6,0:0:0:0:
408,160,13336,1,0,0:0:0:0:
408,160,13507,1,0,0:0:0:0:
408,216,13679,1,6,0:0:0:0:
416,184,13850,1,0,0:0:0:0:
416,184,14022,1,0,0:0:0:0:
416,184,14193,1,0,0:0:0:0:
392,200,14279,1,0,0:0:0:0:
416,184,14365,1,0,0:0:0:0:
384,256,14536,1,6,0:0:0:0:
416,184,14793,1,0,0:0:0:0:
416,184,14879,1,0,0:0:0:0:
368,88,15050,1,6,0:0:0:0:
392,200,15222,1,0,0:0:0:0:
392,200,15393,1,0,0:0:0:0:
392,200,15479,1,0,0:0:0:0:
392,200,15565,1,0,0:0:0:0:
392,200,15736,1,0,0:0:0:0:
392,368,15907,1,6,0:0:0:0:
416,184,16079,1,0,0:0:0:0:
416,184,16250,1,0,0:0:0:0:
416,184,16336,1,0,0:0:0:0:
368,200,16422,1,6,0:0:0:0:
416,168,16593,1,0,0:0:0:0:
424,176,16765,1,2,0:0:0:0:
416,168,16936,1,0,0:0:0:0:
440,160,17022,1,2,0:0:0:0:
416,184,17107,1,0,0:0:0:0:
368,200,17279,1,6,0:0:0:0:
416,184,17450,1,0,0:0:0:0:
416,216,17536,1,0,0:0:0:0:
480,200,17622,1,2,0:0:0:0:
424,176,17793,1,6,0:0:0:0:
464,168,18136,1,2,0:0:0:0:
440,160,18307,1,0,0:0:0:0:
416,168,18393,1,0,0:0:0:0:
416,168,18479,1,0,0:0:0:0:
400,232,18650,1,6,0:0:0:0:
440,160,18993,1,0,0:0:0:0:
232,240,19165,1,6,0:0:0:0:
440,160,19336,1,0,0:0:0:0:
416,168,19422,1,0,0:0:0:0:
416,200,19508,1,0,0:0:0:0:
416,200,19679,1,0,0:0:0:0:
400,232,19850,1,0,0:0:0:0:
504,184,20022,1,6,0:0:0:0:
440,160,20193,1,2,0:0:0:0:
440,160,20279,1,2,0:0:0:0:
432,184,20365,1,0,0:0:0:0:
344,232,20536,1,6,0:0:0:0:
416,200,20707,1,0,0:0:0:0:
416,168,20879,1,2,0:0:0:0:
440,160,21050,1,2,0:0:0:0:
440,160,21136,1,2,0:0:0:0:
464,144,21222,1,0,0:0:0:0:
384,240,21393,1,6,0:0:0:0:
464,144,21565,1,2,0:0:0:0:
464,144,21736,1,0,0:0:0:0:
440,160,21822,1,0,0:0:0:0:
384,264,21907,1,6,0:0:0:0:
416,200,22079,1,0,0:0:0:0:
440,160,22250,1,2,0:0:0:0:
320,112,22422,1,0,0:0:0:0:
344,120,22507,1,2,0:0:0:0:
368,136,22593,1,6,0:0:0:0:
416,160,22765,1,6,0:0:0:0:
384,208,22936,1,0,0:0:0:0:
384,208,23022,1,0,0:0:0:0:
376,184,23107,1,2,0:0:0:0:
416,232,23279,1,6,0:0:0:0:
368,200,23450,1,0,0:0:0:0:
320,176,23622,1,0,0:0:0:0:
416,160,23793,1,2,0:0:0:0:
368,136,24136,1,2,0:0:0:0:
392,184,24307,1,0,0:0:0:0:
440,152,24479,1,2,0:0:0:0:
416,160,24565,1,2,0:0:0:0:
416,160,24650,1,0,0:0:0:0:
472,176,24822,1,2,0:0:0:0:
416,192,24993,1,0,0:0:0:0:
416,192,25165,1,0,0:0:0:0:
416,160,25250,1,0,0:0:0:0:
472,184,25336,1,2,0:0:0:0:
448,176,25422,1,2,0:0:0:0:
416,192,25507,1,0,0:0:0:0:
440,152,25679,1,0,0:0:0:0:
440,152,25850,1,2,0:0:0:0:
440,152,25936,1,2,0:0:0:0:
432,176,26022,1,0,0:0:0:0:
408,160,26107,1,0,0:0:0:0:
408,160,26279,1,2,0:0:0:0:
384,160,26365,1,2,0:0:0:0:
408,160,26536,1,2,0:0:0:0:
392,184,26622,1,2,0:0:0:0:
440,152,26793,1,2,0:0:0:0:
440,152,26879,1,2,0:0:0:0:
408,160,26965,1,2,0:0:0:0:
432,176,27050,1,0,0:0:0:0:
424,200,27136,1,0,0:0:0:0:
440,176,27222,1,2,0:0:0:0:
392,184,27307,1,2,0:0:0:0:
432,176,27393,1,0,0:0:0:0:
432,176,27479,1,2,0:0:0:0:
432,176,27565,1,2,0:0:0:0:
432,176,27650,1,0,0:0:0:0:
432,176,27736,1,0,0:0:0:0:
432,176,27822,1,2,0:0:0:0:
440,152,27907,1,2,0:0:0:0:
472,152,27993,1,0,0:0:0:0:
432,176,28079,1,0,0:0:0:0:
440,152,28165,1,2,0:0:0:0:
392,184,28250,1,2,0:0:0:0:
432,176,28336,1,0,0:0:0:0:
408,184,28422,1,0,0:0:0:0:
384,192,28507,1,0,0:0:0:0:
360,200,28593,1,0,0:0:0:0:
408,184,28679,1,2,0:0:0:0:
424,208,28765,1,4,0:0:0:0:
472,152,28936,1,2,0:0:0:0:
432,176,29022,1,2,0:0:0:0:
432,176,29107,1,0,0:0:0:0:
440,152,29279,1,2,0:0:0:0:
432,176,29365,1,2,0:0:0:0:
408,184,29450,1,2,0:0:0:0:
392,184,29536,1,2,0:0:0:0:
408,184,29622,1,0,0:0:0:0:
432,176,29793,1,0,0:0:0:0:
432,176,29965,1,2,0:0:0:0:
440,152,30050,1,2,0:0:0:0:
376,160,30136,1,4,0:0:0:0:
432,176,30307,1,2,0:0:0:0:
456,176,30393,1,0,0:0:0:0:
456,176,30479,1,2,0:0:0:0:
408,200,30650,1,2,0:0:0:0:
384,216,30736,1,2,0:0:0:0:
384,216,30822,1,2,0:0:0:0:
384,216,30907,1,2,0:0:0:0:
440,152,30993,1,0,0:0:0:0:
408,184,31165,1,0,0:0:0:0:
432,176,31336,1,2,0:0:0:0:
432,176,31422,1,2,0:0:0:0:
440,200,31507,1,6,0:0:0:0:
456,176,31679,1,2,0:0:0:0:
408,200,31850,1,2,0:0:0:0:
448,160,32022,1,0,0:0:0:0:
384,216,32107,1,0,0:0:0:0:
432,176,32193,1,2,0:0:0:0:
408,200,32279,1,2,0:0:0:0:
392,224,32365,1,0,0:0:0:0:
440,200,32536,1,0,0:0:0:0:
432,176,32707,1,2,0:0:0:0:
432,144,32793,1,2,0:0:0:0:
432,168,32879,1,4,0:0:0:0:
448,160,33050,1,2,0:0:0:0:
456,176,33222,1,0,0:0:0:0:
440,200,33307,1,2,0:0:0:0:
440,200,33393,1,2,0:0:0:0:
456,176,33479,1,0,0:0:0:0:
456,176,33565,1,2,0:0:0:0:
432,176,33650,1,2,0:0:0:0:
432,176,33736,1,0,0:0:0:0:
376,184,33907,1,0,0:0:0:0:
424,208,34079,1,2,0:0:0:0:
408,192,34165,1,2,0:0:0:0:
440,200,34250,1,6,0:0:0:0:
496,192,34422,1,2,0:0:0:0:
448,160,34507,1,0,0:0:0:0:
408,192,34593,1,2,0:0:0:0:
432,176,34765,1,2,0:0:0:0:
408,192,34850,1,2,0:0:0:0:
392,216,34936,1,2,0:0:0:0:
392,216,35022,1,2,0:0:0:0:
432,176,35107,1,0,0:0:0:0:
432,176,35279,1,0,0:0:0:0:
448,160,35450,1,2,0:0:0:0:
432,176,35536,1,2,0:0:0:0:
424,208,35622,1,4,0:0:0:0:
440,200,35793,1,0,0:0:0:0:
432,176,35879,1,0,0:0:0:0:
432,176,35965,1,2,0:0:0:0:
392,216,36136,1,2,0:0:0:0:
432,176,36222,1,2,0:0:0:0:
432,176,36307,1,0,0:0:0:0:
424,208,36393,1,2,0:0:0:0:
432,176,36479,1,0,0:0:0:0:
408,192,36565,1,0,0:0:0:0:
448,160,36650,1,2,0:0:0:0:
472,168,36736,1,0,0:0:0:0:
472,168,36822,1,2,0:0:0:0:
448,216,36993,1,6,0:0:0:0:
440,200,37165,1,0,0:0:0:0:
440,200,37250,1,0,0:0:0:0:
432,176,37336,1,2,0:0:0:0:
448,160,37507,1,2,0:0:0:0:
424,208,37593,1,2,0:0:0:0:
424,208,37679,1,2,0:0:0:0:
424,208,37765,1,2,0:0:0:0:
472,168,37850,1,0,0:0:0:0:
432,208,38022,1,2,0:0:0:0:
472,168,38193,1,0,0:0:0:0:
472,168,38279,1,2,0:0:0:0:
424,208,38365,1,4,0:0:0:0:
424,208,38536,1,2,0:0:0:0:
440,200,38622,1,0,0:0:0:0:
416,184,38707,1,0,0:0:0:0:
432,176,38793,1,2,0:0:0:0:
416,192,38879,1,2,0:0:0:0:
472,168,38965,1,0,0:0:0:0:
448,184,39050,1,2,0:0:0:0:
432,160,39136,1,2,0:0:0:0:
440,200,39222,1,0,0:0:0:0:
384,216,39393,1,2,0:0:0:0:
424,176,39565,1,0,0:0:0:0:
416,192,39650,1,0,0:0:0:0:
424,216,39736,1,6,0:0:0:0:
448,184,39907,1,2,0:0:0:0:
472,168,39993,1,0,0:0:0:0:
424,216,40079,1,2,0:0:0:0:
384,176,40250,1,2,0:0:0:0:
384,216,40336,1,2,0:0:0:0:
384,216,40422,1,2,0:0:0:0:
384,216,40507,1,2,0:0:0:0:
416,192,40593,1,4,0:0:0:0:
416,144,40765,1,0,0:0:0:0:
424,176,40936,1,2,0:0:0:0:
456,224,41107,1,4,0:0:0:0:
448,184,41279,1,2,0:0:0:0:
472,168,41365,1,0,0:0:0:0:
424,216,41450,1,2,0:0:0:0:
416,144,41622,1,2,0:0:0:0:
384,176,41707,1,2,0:0:0:0:
384,176,41793,1,2,0:0:0:0:
384,200,41879,1,2,0:0:0:0:
448,184,41965,1,0,0:0:0:0:
480,232,42136,1,0,0:0:0:0:
472,168,42307,1,2,0:0:0:0:
424,176,42393,1,2,0:0:0:0:
416,200,42479,1,6,0:0:0:0:
472,184,42650,1,2,0:0:0:0:
424,176,42822,1,2,0:0:0:0:
416,200,42993,1,0,0:0:0:0:
448,184,43079,1,2,0:0:0:0:
440,208,43165,1,0,0:0:0:0:
416,200,43250,1,0,0:0:0:0:
384,176,43336,1,0,0:0:0:0:
424,176,43507,1,2,0:0:0:0:
416,200,43679,1,2,0:0:0:0:
432,176,43765,1,2,0:0:0:0:
424,176,43850,1,0,0:0:0:0:
448,184,44022,1,2,0:0:0:0:
472,184,44107,1,0,0:0:0:0:
416,200,44193,1,0,0:0:0:0:
432,176,44279,1,2,0:0:0:0:
416,200,44365,1,2,0:0:0:0:
440,184,44450,1,0,0:0:0:0:
448,184,44536,1,2,0:0:0:0:
424,176,44622,1,2,0:0:0:0:
448,160,44707,1,0,0:0:0:0:
408,200,44879,1,0,0:0:0:0:
448,160,45050,1,2,0:0:0:0:
448,160,45136,1,2,0:0:0:0:
416,200,45222,1,6,0:0:0:0:
472,208,45393,1,0,0:0:0:0:
448,184,45479,1,0,0:0:0:0:
472,168,45565,1,2,0:0:0:0:
448,160,45736,1,2,0:0:0:0:
432,176,45822,1,2,0:0:0:0:
448,160,45907,1,2,0:0:0:0:
440,184,45993,1,2,0:0:0:0:
424,208,46079,1,4,0:0:0:0:
472,168,46250,1,2,0:0:0:0:
416,152,46422,1,2,0:0:0:0:
416,152,46507,1,2,0:0:0:0:
424,176,46593,1,4,0:0:0:0:
408,232,46765,1,2,0:0:0:0:
448,184,46936,1,0,0:0:0:0:
448,184,47022,1,2,0:0:0:0:
432,176,47107,1,2,0:0:0:0:
440,184,47193,1,0,0:0:0:0:
448,160,47279,1,0,0:0:0:0:
432,184,47365,1,0,0:0:0:0:
416,208,47450,1,0,0:0:0:0:
448,184,47622,1,2,0:0:0:0:
392,200,47793,1,2,0:0:0:0:
392,200,47879,1,2,0:0:0:0:
416,208,47965,1,6,0:0:0:0:
456,168,48136,1,0,0:0:0:0:
448,160,48222,1,0,0:0:0:0:
448,184,48307,1,2,0:0:0:0:
392,200,48479,1,2,0:0:0:0:
392,200,48565,1,2,0:0:0:0:
496,128,48650,1,0,0:0:0:0:
456,168,48736,1,2,0:0:0:0:
448,184,48822,1,0,0:0:0:0:
448,184,48993,1,0,0:0:0:0:
496,160,49165,1,2,0:0:0:0:
480,176,49250,1,0,0:0:0:0:
448,184,49336,1,0,0:0:0:0:
392,200,49507,1,0,0:0:0:0:
392,200,49593,1,0,0:0:0:0:
448,184,49679,1,2,0:0:0:0:
448,184,49765,1,0,0:0:0:0:
424,192,49850,1,0,0:0:0:0:
456,168,49936,1,2,0:0:0:0:
448,184,50022,1,2,0:0:0:0:
392,200,50107,1,2,0:0:0:0:
456,168,50193,1,0,0:0:0:0:
448,224,50365,1,2,0:0:0:0:
440,168,50536,1,0,0:0:0:0:
424,168,50593,1,0,0:0:0:0:
408,184,50650,1,0,0:0:0:0:
424,176,50706,1,6,0:0:0:0:
272,96,51222,1,0,0:0:0:0:
408,184,51736,1,0,0:0:0:0:
456,176,52250,1,0,0:0:0:0:
464,152,52336,1,2,0:0:0:0:
440,160,52422,1,2,0:0:0:0:
416,152,52507,1,2,0:0:0:0:
432,176,52593,1,0,0:0:0:0:
432,176,52765,1,2,0:0:0:0:
376,192,52936,1,0,0:0:0:0:
376,192,53022,1,0,0:0:0:0:
376,192,53107,1,0,0:0:0:0:
376,192,53193,1,0,0:0:0:0:
456,176,53279,1,2,0:0:0:0:
432,176,53365,1,0,0:0:0:0:
432,176,53450,1,2,0:0:0:0:
408,168,53536,1,2,0:0:0:0:
384,176,53622,1,2,0:0:0:0:
464,152,53707,1,0,0:0:0:0:
376,192,53793,1,0,0:0:0:0:
360,216,53879,1,0,0:0:0:0:
360,216,53965,1,0,0:0:0:0:
432,176,54050,1,2,0:0:0:0:
432,176,54136,1,2,0:0:0:0:
456,160,54222,1,2,0:0:0:0:
448,184,54307,1,0,0:0:0:0:
496,152,54479,1,2,0:0:0:0:
432,176,54565,1,0,0:0:0:0:
408,176,54650,1,0,0:0:0:0:
456,176,54822,1,2,0:0:0:0:
432,192,54907,1,2,0:0:0:0:
424,176,54993,1,2,0:0:0:0:
448,184,55079,1,0,0:0:0:0:
448,184,55165,1,2,0:0:0:0:
432,192,55250,1,2,0:0:0:0:
448,184,55336,1,0,0:0:0:0:
392,200,55507,1,0,0:0:0:0:
448,184,55679,1,0,0:0:0:0:
472,136,55850,1,2,0:0:0:0:
432,176,56022,1,0,0:0:0:0:
432,176,56079,1,0,0:0:0:0:
456,176,56136,1,2,0:0:0:0:
432,192,56193,1,0,0:0:0:0:
376,192,56365,1,0,0:0:0:0:
400,184,56450,1,2,0:0:0:0:
424,176,56536,1,0,0:0:0:0:
392,200,56707,1,0,0:0:0:0:
376,224,56793,1,0,0:0:0:0:
376,224,56879,1,0,0:0:0:0:
448,184,56965,1,2,0:0:0:0:
448,184,57050,1,0,0:0:0:0:
432,176,57136,1,0,0:0:0:0:
456,176,57222,1,2,0:0:0:0:
456,176,57307,1,2,0:0:0:0:
448,184,57393,1,0,0:0:0:0:
376,192,57565,1,0,0:0:0:0:
320,192,57736,1,0,0:0:0:0:
392,168,57822,1,2,0:0:0:0:
392,168,57907,1,2,0:0:0:0:
392,168,57993,1,2,0:0:0:0:
392,168,58079,1,2,0:0:0:0:
416,192,58165,1,0,0:0:0:0:
424,168,58250,1,2,0:0:0:0:
368,176,58336,1,0,0:0:0:0:
392,160,58422,1,0,0:0:0:0:
456,160,58507,1,2,0:0:0:0:
432,176,58593,1,0,0:0:0:0:
432,176,58679,1,2,0:0:0:0:
456,160,58765,1,2,0:0:0:0:
456,176,58850,1,0,0:0:0:0:
432,176,58936,1,2,0:0:0:0:
392,176,59022,1,2,0:0:0:0:
392,176,59107,1,2,0:0:0:0:
416,192,59193,1,0,0:0:0:0:
400,216,59279,1,0,0:0:0:0:
448,184,59365,1,2,0:0:0:0:
448,184,59450,1,0,0:0:0:0:
432,160,59536,1,2,0:0:0:0:
448,208,59622,1,2,0:0:0:0:
424,216,59707,1,2,0:0:0:0:
456,160,59793,1,2,0:0:0:0:
448,184,59879,1,0,0:0:0:0:
432,176,59965,1,2,0:0:0:0:
392,176,60022,1,2,0:0:0:0:
448,184,60079,1,0,0:0:0:0:
456,176,60136,1,2,0:0:0:0:
392,176,60222,1,2,0:0:0:0:
456,160,60307,1,2,0:0:0:0:
400,160,60479,1,0,0:0:0:0:
368,160,60565,1,0,0:0:0:0:
448,184,60650,1,0,0:0:0:0:
400,216,60822,1,0,0:0:0:0:
376,216,60907,1,0,0:0:0:0:
448,184,60993,1,2,0:0:0:0:
432,176,61079,1,2,0:0:0:0:
432,176,61165,1,2,0:0:0:0:
432,216,61250,1,0,0:0:0:0:
456,160,61336,1,2,0:0:0:0:
424,160,61422,1,0,0:0:0:0:
432,176,61507,1,0,0:0:0:0:
432,216,61679,1,6,0:0:0:0:
384,192,61850,1,0,0:0:0:0:
360,192,61936,1,0,0:0:0:0:
432,176,62022,1,2,0:0:0:0:
456,128,62193,1,0,0:0:0:0:
424,160,62279,1,0,0:0:0:0:
384,192,62365,1,0,0:0:0:0:
384,192,62450,1,0,0:0:0:0:
440,200,62536,1,6,0:0:0:0:
416,152,62707,1,0,0:0:0:0:
376,112,62879,1,0,0:0:0:0:
280,160,63050,1,6,0:0:0:0:
336,152,63222,1,0,0:0:0:0:
424,160,63307,1,0,0:0:0:0:
408,184,63393,1,0,0:0:0:0:
432,176,63565,1,0,0:0:0:0:
432,176,63736,1,0,0:0:0:0:
392,216,63907,1,6,0:0:0:0:
416,152,64079,1,0,0:0:0:0:
416,152,64165,1,0,0:0:0:0:
400,176,64250,1,0,0:0:0:0:
416,208,64422,1,6,0:0:0:0:
416,208,64593,1,0,0:0:0:0:
432,176,64765,1,2,0:0:0:0:
416,208,64936,1,0,0:0:0:0:
392,216,65022,1,0,0:0:0:0:
392,216,65107,1,0,0:0:0:0:
392,216,65279,1,6,0:0:0:0:
416,240,65450,1,0,0:0:0:0:
416,208,65622,1,0,0:0:0:0:
392,192,65707,1,0,0:0:0:0:
416,240,65793,1,6,0:0:0:0:
408,184,65965,1,0,0:0:0:0:
392,192,66050,1,0,0:0:0:0:
416,176,66136,1,2,0:0:0:0:
416,152,66222,1,2,0:0:0:0:
416,176,66307,1,2,0:0:0:0:
432,152,66393,1,2,0:0:0:0:
456,192,66479,1,0,0:0:0:0:
416,240,66650,1,6,0:0:0:0:
416,208,66822,1,0,0:0:0:0:
416,208,66907,1,0,0:0:0:0:
496,160,66993,1,2,0:0:0:0:
456,192,67165,1,6,0:0:0:0:
392,192,67336,1,0,0:0:0:0:
392,216,67422,1,0,0:0:0:0:
384,240,67507,1,2,0:0:0:0:
416,208,67679,1,0,0:0:0:0:
392,216,67765,1,0,0:0:0:0:
384,240,67850,1,0,0:0:0:0:
384,240,67936,1,0,0:0:0:0:
408,224,68022,1,2,0:0:0:0:
456,200,68193,1,6,0:0:0:0:
408,176,68365,1,0,0:0:0:0:
408,176,68450,1,0,0:0:0:0:
416,208,68536,1,6,0:0:0:0:
472,192,68707,1,2,0:0:0:0:
480,168,68793,1,0,0:0:0:0:
456,176,68879,1,2,0:0:0:0:
408,144,69050,1,0,0:0:0:0:
408,144,69136,1,0,0:0:0:0:
384,160,69222,1,0,0:0:0:0:
376,184,69307,1,0,0:0:0:0:
456,200,69393,1,2,0:0:0:0:
400,192,69565,1,6,0:0:0:0:
432,184,69650,1,2,0:0:0:0:
456,200,69736,1,0,0:0:0:0:
432,184,69907,1,6,0:0:0:0:
432,184,70079,1,0,0:0:0:0:
400,192,70165,1,0,0:0:0:0:
432,184,70250,1,2,0:0:0:0:
408,136,70422,1,0,0:0:0:0:
376,184,70507,1,0,0:0:0:0:
400,184,70593,1,2,0:0:0:0:
376,184,70679,1,2,0:0:0:0:
376,184,70765,1,2,0:0:0:0:
384,208,70850,1,0,0:0:0:0:
408,192,70936,1,2,0:0:0:0:
432,184,71022,1,2,0:0:0:0:
432,184,71107,1,0,0:0:0:0:
424,184,71193,1,0,0:0:0:0:
448,184,71279,1,2,0:0:0:0:
432,184,71450,1,2,0:0:0:0:
456,168,71536,1,0,0:0:0:0:
448,184,71622,1,6,0:0:0:0:
448,184,71793,1,2,0:0:0:0:
432,184,71879,1,0,0:0:0:0:
448,208,71965,1,6,0:0:0:0:
448,184,72050,1,2,0:0:0:0:
432,184,72136,1,2,0:0:0:0:
408,192,72222,1,2,0:0:0:0:
448,208,72307,1,6,0:0:0:0:
448,184,72393,1,2,0:0:0:0:
432,184,72479,1,2,0:0:0:0:
424,208,72565,1,2,0:0:0:0:
440,232,72650,1,4,0:0:0:0:
384,216,72822,1,0,0:0:0:0:
368,160,72993,1,6,0:0:0:0:
448,184,73165,1,0,0:0:0:0:
408,192,73336,1,4,0:0:0:0:
448,184,73507,1,2,0:0:0:0:
432,184,73679,1,0,0:0:0:0:
448,208,73850,1,6,0:0:0:0:
440,232,74022,1,2,0:0:0:0:
392,208,74193,1,2,0:0:0:0:
448,184,74365,1,4,0:0:0:0:
488,192,74879,1,0,0:0:0:0:
448,184,75050,1,2,0:0:0:0:
488,288,75393,1,4,0:0:0:0:
448,184,75565,1,2,0:0:0:0:
440,160,75650,1,2,0:0:0:0:
448,184,75736,1,0,0:0:0:0:
448,184,75907,1,2,0:0:0:0:
424,200,75993,1,2,0:0:0:0:
448,184,76079,1,0,0:0:0:0:
448,184,76250,1,2,0:0:0:0:
424,200,76336,1,2,0:0:0:0:
448,184,76422,1,0,0:0:0:0:
480,136,76593,1,2,0:0:0:0:
424,200,76679,1,2,0:0:0:0:
512,152,76765,1,0,0:0:0:0:
464,184,76936,1,0,0:0:0:0:
440,200,77022,1,0,0:0:0:0:
456,176,77107,1,2,0:0:0:0:
416,136,77279,1,0,0:0:0:0:
392,136,77365,1,0,0:0:0:0:
448,128,77450,1,0,0:0:0:0:
424,176,77507,1,0,0:0:0:0:
424,176,77565,1,0,0:0:0:0:
448,184,77622,1,2,0:0:0:0:
424,184,77707,1,2,0:0:0:0:
400,184,77793,1,2,0:0:0:0:
424,176,77965,1,0,0:0:0:0:
408,232,78136,1,4,0:0:0:0:
440,200,78307,1,0,0:0:0:0:
416,208,78393,1,0,0:0:0:0:
440,200,78479,1,2,0:0:0:0:
448,144,78650,1,0,0:0:0:0:
424,176,78736,1,0,0:0:0:0:
400,184,78822,1,0,0:0:0:0:
456,176,78993,1,6,0:0:0:0:
456,176,79165,1,0,0:0:0:0:
456,176,79250,1,0,0:0:0:0:
448,152,79336,1,6,0:0:0:0:
456,176,79507,1,2,0:0:0:0:
448,152,79679,1,2,0:0:0:0:
408,184,79850,1,4,0:0:0:0:
456,176,80365,1,2,0:0:0:0:
456,176,80536,1,0,0:0:0:0:
480,200,80879,1,4,0:0:0:0:
440,240,81050,1,0,0:0:0:0:
440,200,81136,1,0,0:0:0:0:
456,176,81222,1,2,0:0:0:0:
440,200,81393,1,0,0:0:0:0:
416,208,81479,1,0,0:0:0:0:
416,208,81565,1,0,0:0:0:0:
456,176,81736,1,2,0:0:0:0:
456,176,81907,1,0,0:0:0:0:
456,176,81993,1,0,0:0:0:0:
424,176,82079,1,2,0:0:0:0:
464,216,82250,1,4,0:0:0:0:
456,176,82422,1,2,0:0:0:0:
464,160,82479,1,0,0:0:0:0:
448,160,82536,1,0,0:0:0:0:
432,160,82593,1,0,0:0:0:0:
432,160,82765,1,0,0:0:0:0:
456,176,82850,1,2,0:0:0:0:
432,184,82936,1,2,0:0:0:0:
424,176,83107,1,2,0:0:0:0:
424,176,83279,1,2,0:0:0:0:
440,232,83450,1,0,0:0:0:0:
400,272,83622,1,4,0:0:0:0:
464,216,83793,1,0,0:0:0:0:
440,208,83879,1,0,0:0:0:0:
456,176,83965,1,2,0:0:0:0:
408,208,84136,1,2,0:0:0:0:
384,224,84222,1,2,0:0:0:0:
368,248,84307,1,2,0:0:0:0:
352,272,84393,1,2,0:0:0:0:
368,256,84479,1,0,0:0:0:0:
416,224,84650,1,0,0:0:0:0:
424,176,84822,1,0,0:0:0:0:
408,192,84907,1,0,0:0:0:0:
408,192,84993,1,0,0:0:0:0:
440,208,85165,1,0,0:0:0:0:
456,176,85336,1,2,0:0:0:0:
504,152,85507,1,0,0:0:0:0:
416,224,85850,1,0,0:0:0:0:
408,192,86022,1,2,0:0:0:0:
424,160,86107,1,2,0:0:0:0:
408,192,86193,1,2,0:0:0:0:
408,192,86279,1,2,0:0:0:0:
432,200,86365,1,4,0:0:0:0:
456,176,86536,1,2,0:0:0:0:
480,168,86622,1,0,0:0:0:0:
464,192,86707,1,2,0:0:0:0:
408,176,86879,1,2,0:0:0:0:
432,200,86965,1,2,0:0:0:0:
448,176,87050,1,0,0:0:0:0:
424,160,87136,1,0,0:0:0:0:
416,224,87222,1,0,0:0:0:0:
432,200,87393,1,2,0:0:0:0:
456,176,87565,1,0,0:0:0:0:
408,176,87907,1,0,0:0:0:0:
408,176,88079,1,0,0:0:0:0:
432,200,88250,1,2,0:0:0:0:
400,200,88336,1,2,0:0:0:0:
448,176,88422,1,2,0:0:0:0:
408,176,88507,1,2,0:0:0:0:
432,192,88593,1,0,0:0:0:0:
456,176,88679,1,2,0:0:0:0:
448,176,88765,1,2,0:0:0:0:
448,176,88936,1,0,0:0:0:0:
424,224,89107,1,4,0:0:0:0:
464,184,89279,1,0,0:0:0:0:
424,224,89365,1,0,0:0:0:0:
448,176,89450,1,2,0:0:0:0:
448,176,89622,1,2,0:0:0:0:
432,200,89707,1,2,0:0:0:0:
400,200,89793,1,2,0:0:0:0:
424,200,89879,1,2,0:0:0:0:
448,184,89965,1,0,0:0:0:0:
432,192,90136,1,0,0:0:0:0:
376,192,90307,1,0,0:0:0:0:
432,200,90650,1,0,0:0:0:0:
488,144,90822,1,2,0:0:0:0:
456,192,90993,1,0,0:0:0:0:
472,168,91079,1,2,0:0:0:0:
456,192,91165,1,0,0:0:0:0:
400,176,91336,1,0,0:0:0:0:
424,200,91422,1,0,0:0:0:0:
472,168,91507,1,2,0:0:0:0:
456,192,91593,1,2,0:0:0:0:
472,168,91679,1,0,0:0:0:0:
464,224,91850,1,4,0:0:0:0:
472,168,92022,1,0,0:0:0:0:
432,200,92107,1,0,0:0:0:0:
456,192,92193,1,2,0:0:0:0:
416,152,92365,1,2,0:0:0:0:
424,176,92450,1,2,0:0:0:0:
400,192,92536,1,2,0:0:0:0:
400,192,92622,1,2,0:0:0:0:
456,192,92707,1,0,0:0:0:0:
400,176,92879,1,0,0:0:0:0:
472,168,93050,1,2,0:0:0:0:
472,168,93136,1,2,0:0:0:0:
448,176,93222,1,0,0:0:0:0:
408,216,93393,1,0,0:0:0:0:
408,216,93450,1,0,0:0:0:0:
408,216,93507,1,0,0:0:0:0:
408,216,93565,1,0,0:0:0:0:
416,152,93736,1,0,0:0:0:0:
408,216,93822,1,2,0:0:0:0:
368,176,93907,1,2,0:0:0:0:
352,176,93965,1,2,0:0:0:0:
336,168,94022,1,2,0:0:0:0:
352,168,94079,1,0,0:0:0:0:
352,200,94250,1,0,0:0:0:0:
400,224,94422,1,0,0:0:0:0:
416,200,94507,1,0,0:0:0:0:
432,184,94593,1,6,0:0:0:0:
336,168,94765,1,0,0:0:0:0:
336,168,94850,1,0,0:0:0:0:
416,152,94936,1,0,0:0:0:0:
472,144,95107,1,2,0:0:0:0:
472,144,95279,1,0,0:0:0:0:
448,160,95365,1,0,0:0:0:0:
448,160,95450,1,2,0:0:0:0:
432,184,95622,1,2,0:0:0:0:
432,184,95707,1,2,0:0:0:0:
416,200,95793,1,2,0:0:0:0:
416,168,95879,1,2,0:0:0:0:
440,152,95965,1,0,0:0:0:0:
416,200,96136,1,0,0:0:0:0:
440,152,96222,1,2,0:0:0:0:
416,160,96307,1,2,0:0:0:0:
392,176,96393,1,2,0:0:0:0:
440,152,96479,1,0,0:0:0:0:
416,200,96650,1,0,0:0:0:0:
392,216,96736,1,0,0:0:0:0:
392,216,96822,1,0,0:0:0:0:
392,216,96907,1,0,0:0:0:0:
448,160,96993,1,2,0:0:0:0:
416,200,97165,1,2,0:0:0:0:
392,216,97250,1,2,0:0:0:0:
416,200,97336,1,4,0:0:0:0:
464,168,97507,1,0,0:0:0:0:
416,200,97679,1,0,0:0:0:0:
416,200,97850,1,0,0:0:0:0:
392,216,97936,1,0,0:0:0:0:
368,232,98022,1,0,0:0:0:0:
464,168,98193,1,2,0:0:0:0:
448,160,98365,1,0,0:0:0:0:
392,216,98536,1,0,0:0:0:0:
392,216,98622,1,0,0:0:0:0:
392,216,98707,1,0,0:0:0:0:
432,176,98879,1,0,0:0:0:0:
448,160,98965,1,2,0:0:0:0:
424,168,99050,1,2,0:0:0:0:
424,168,99136,1,2,0:0:0:0:
448,160,99222,1,0,0:0:0:0:
432,176,99393,1,2,0:0:0:0:
472,136,99565,1,0,0:0:0:0:
464,168,99650,1,2,0:0:0:0:
448,160,99736,1,2,0:0:0:0:
424,168,99907,1,2,0:0:0:0:
408,192,99993,1,2,0:0:0:0:
432,176,100079,1,4,0:0:0:0:
464,224,100250,1,0,0:0:0:0:
432,224,100336,1,0,0:0:0:0:
408,224,100422,1,0,0:0:0:0:
408,192,100593,1,2,0:0:0:0:
432,176,100765,1,0,0:0:0:0:
456,168,100850,1,2,0:0:0:0:
432,176,100936,1,2,0:0:0:0:
400,224,101107,1,2,0:0:0:0:
408,224,101193,1,2,0:0:0:0:
408,224,101279,1,2,0:0:0:0:
408,192,101365,1,2,0:0:0:0:
456,168,101450,1,0,0:0:0:0:
408,192,101622,1,0,0:0:0:0:
432,176,101707,1,2,0:0:0:0:
408,160,101793,1,2,0:0:0:0:
408,160,101879,1,2,0:0:0:0:
456,168,101965,1,0,0:0:0:0:
408,200,102136,1,0,0:0:0:0:
384,216,102222,1,0,0:0:0:0:
360,232,102307,1,0,0:0:0:0:
376,208,102393,1,2,0:0:0:0:
392,184,102479,1,2,0:0:0:0:
400,224,102650,1,2,0:0:0:0:
408,192,102736,1,2,0:0:0:0:
424,168,102822,1,0,0:0:0:0:
432,176,102907,1,0,0:0:0:0:
456,168,102993,1,2,0:0:0:0:
456,168,103079,1,0,0:0:0:0:
432,176,103165,1,2,0:0:0:0:
424,168,103336,1,2,0:0:0:0:
424,168,103422,1,0,0:0:0:0:
456,168,103507,1,2,0:0:0:0:
456,168,103593,1,0,0:0:0:0:
432,176,103679,1,2,0:0:0:0:
464,128,103850,1,0,0:0:0:0:
424,168,103936,1,0,0:0:0:0:
392,184,104022,1,0,0:0:0:0:
416,176,104107,1,2,0:0:0:0:
432,176,104193,1,0,0:0:0:0:
424,168,104365,1,2,0:0:0:0:
416,192,104450,1,2,0:0:0:0:
392,208,104536,1,2,0:0:0:0:
416,192,104622,1,2,0:0:0:0:
456,168,104707,1,0,0:0:0:0:
416,176,104879,1,2,0:0:0:0:
456,136,105050,1,0,0:0:0:0:
424,168,105136,1,0,0:0:0:0:
432,192,105222,1,2,0:0:0:0:
432,216,105279,1,2,0:0:0:0:
432,232,105336,1,2,0:0:0:0:
432,232,105393,1,2,0:0:0:0:
408,216,105479,1,2,0:0:0:0:
416,192,105565,1,4,0:0:0:0:
432,176,105736,1,2,0:0:0:0:
456,136,105822,1,0,0:0:0:0:
424,168,105907,1,0,0:0:0:0:
480,160,106079,1,2,0:0:0:0:
432,192,106165,1,0,0:0:0:0:
416,176,106250,1,0,0:0:0:0:
392,168,106336,1,2,0:0:0:0:
440,160,106422,1,2,0:0:0:0:
400,200,106593,1,2,0:0:0:0:
376,216,106679,1,2,0:0:0:0:
360,240,106765,1,2,0:0:0:0:
360,240,106850,1,2,0:0:0:0:
456,136,106936,1,0,0:0:0:0:
432,176,107107,1,0,0:0:0:0:
432,176,107193,1,2,0:0:0:0:
432,176,107279,1,2,0:0:0:0:
424,168,107365,1,2,0:0:0:0:
440,160,107450,1,0,0:0:0:0:
400,200,107622,1,0,0:0:0:0:
352,168,107793,1,0,0:0:0:0:
440,160,107879,1,2,0:0:0:0:
400,200,107965,1,2,0:0:0:0:
416,144,108136,1,2,0:0:0:0:
400,168,108222,1,2,0:0:0:0:
432,176,108307,1,0,0:0:0:0:
440,160,108479,1,2,0:0:0:0:
448,216,108650,1,0,0:0:0:0:
432,176,108822,1,0,0:0:0:0:
424,200,108907,1,0,0:0:0:0:
424,200,108993,1,0,0:0:0:0:
440,160,109079,1,2,0:0:0:0:
400,168,109165,1,2,0:0:0:0:
432,176,109336,1,0,0:0:0:0:
400,200,109507,1,0,0:0:0:0:
400,200,109593,1,0,0:0:0:0:
400,200,109679,1,0,0:0:0:0:
440,160,109850,1,2,0:0:0:0:
440,160,109936,1,2,0:0:0:0:
440,160,110022,1,2,0:0:0:0:
432,176,110107,1,2,0:0:0:0:
432,176,110193,1,0,0:0:0:0:
440,160,110365,1,2,0:0:0:0:
440,160,110422,1,2,0:0:0:0:
424,152,110479,1,2,0:0:0:0:
432,176,110536,1,0,0:0:0:0:
400,200,110622,1,0,0:0:0:0:
432,176,110707,1,2,0:0:0:0:
376,152,110879,1,2,0:0:0:0:
384,176,110965,1,2,0:0:0:0:
408,160,111050,1,0,0:0:0:0:
432,176,111222,1,2,0:0:0:0:
424,152,111393,1,0,0:0:0:0:
424,152,111479,1,0,0:0:0:0:
424,176,111565,1,2,0:0:0:0:
480,168,111736,1,0,0:0:0:0:
480,168,111822,1,2,0:0:0:0:
440,160,111907,1,2,0:0:0:0:
432,176,112079,1,0,0:0:0:0:
408,160,112165,1,0,0:0:0:0:
432,176,112250,1,2,0:0:0:0:
408,160,112336,1,2,0:0:0:0:
432,160,112422,1,0,0:0:0:0:
440,160,112593,1,2,0:0:0:0:
424,152,112679,1,2,0:0:0:0:
424,152,112765,1,2,0:0:0:0:
424,176,112850,1,2,0:0:0:0:
440,160,112936,1,0,0:0:0:0:
416,208,113107,1,0,0:0:0:0:
416,208,113193,1,0,0:0:0:0:
440,192,113279,1,2,0:0:0:0:
456,168,113365,1,0,0:0:0:0:
480,152,113450,1,2,0:0:0:0:
432,176,113622,1,2,0:0:0:0:
416,208,113707,1,2,0:0:0:0:
488,176,113793,1,4,0:0:0:0:
448,216,113965,1,0,0:0:0:0:
480,152,114136,1,2,0:0:0:0:
464,208,114307,1,4,0:0:0:0:
488,160,114479,1,0,0:0:0:0:
480,152,114650,1,2,0:0:0:0:
488,176,114822,1,4,0:0:0:0:
448,216,114993,1,0,0:0:0:0:
456,192,115079,1,2,0:0:0:0:
432,200,115165,1,0,0:0:0:0:
448,176,115250,1,2,0:0:0:0:
448,144,115336,1,0,0:0:0:0:
432,168,115422,1,0,0:0:0:0:
416,192,115507,1,0,0:0:0:0:
480,152,115593,1,2,0:0:0:0:
456,192,115679,1,0,0:0:0:0:
448,176,115765,1,0,0:0:0:0:
448,176,115850,1,2,0:0:0:0:
424,176,115936,1,2,0:0:0:0:
408,216,116022,1,0,0:0:0:0:
408,216,116107,1,0,0:0:0:0:
456,192,116193,1,0,0:0:0:0:
432,168,116279,1,2,0:0:0:0:
416,168,116322,1,2,0:0:0:0:
400,176,116365,1,2,0:0:0:0:
392,200,116450,1,2,0:0:0:0:
448,176,116536,1,4,0:0:0:0:
432,200,116707,1,2,0:0:0:0:
416,192,116793,1,2,0:0:0:0:
480,152,116879,1,0,0:0:0:0:
424,160,117050,1,2,0:0:0:0:
448,176,117136,1,2,0:0:0:0:
456,192,117222,1,0,0:0:0:0:
424,176,117307,1,0,0:0:0:0:
424,176,117393,1,2,0:0:0:0:
432,200,117565,1,2,0:0:0:0:
408,216,117650,1,2,0:0:0:0:
408,216,117736,1,2,0:0:0:0:
384,200,117822,1,2,0:0:0:0:
416,192,117907,1,0,0:0:0:0:
456,192,117993,1,2,0:0:0:0:
480,176,118079,1,0,0:0:0:0:
432,200,118165,1,0,0:0:0:0:
448,176,118250,1,2,0:0:0:0:
440,120,118422,1,0,0:0:0:0:
416,192,118593,1,0,0:0:0:0:
384,200,118679,1,0,0:0:0:0:
408,184,118765,1,2,0:0:0:0:
440,120,118936,1,2,0:0:0:0:
424,128,118993,1,2,0:0:0:0:
424,128,119050,1,2,0:0:0:0:
416,144,119107,1,2,0:0:0:0:
416,144,119165,1,2,0:0:0:0:
416,144,119222,1,2,0:0:0:0:
432,200,119279,1,4,0:0:0:0:
432,200,119450,1,2,0:0:0:0:
456,184,119536,1,0,0:0:0:0:
448,176,119622,1,2,0:0:0:0:
400,208,119793,1,2,0:0:0:0:
400,208,119879,1,2,0:0:0:0:
376,224,119965,1,2,0:0:0:0:
376,224,120050,1,2,0:0:0:0:
400,208,120136,1,0,0:0:0:0:
432,160,120307,1,0,0:0:0:0:
488,160,120479,1,2,0:0:0:0:
416,144,120565,1,2,0:0:0:0:
440,144,120650,1,0,0:0:0:0:
488,160,120822,1,2,0:0:0:0:
464,168,120907,1,0,0:0:0:0:
456,184,120993,1,2,0:0:0:0:
400,184,121165,1,2,0:0:0:0:
400,208,121250,1,2,0:0:0:0:
400,208,121336,1,2,0:0:0:0:
400,208,121422,1,2,0:0:0:0:
464,168,121507,1,0,0:0:0:0:
464,168,121679,1,2,0:0:0:0:
408,168,121850,1,2,0:0:0:0:
400,184,121936,1,2,0:0:0:0:
408,168,122022,1,4,0:0:0:0:
464,184,122193,1,2,0:0:0:0:
488,184,122279,1,0,0:0:0:0:
456,184,122365,1,2,0:0:0:0:
408,160,122536,1,2,0:0:0:0:
384,168,122622,1,2,0:0:0:0:
384,168,122707,1,2,0:0:0:0:
384,168,122793,1,2,0:0:0:0:
464,168,122879,1,0,0:0:0:0:
408,176,123050,1,2,0:0:0:0:
384,168,123136,1,0,0:0:0:0:
416,168,123222,1,2,0:0:0:0:
416,168,123307,1,2,0:0:0:0:
464,168,123393,1,0,0:0:0:0:
440,184,123479,1,0,0:0:0:0:
464,184,123565,1,2,0:0:0:0:
456,184,123650,1,0,0:0:0:0:
440,208,123736,1,2,0:0:0:0:
384,224,123907,1,2,0:0:0:0:
384,224,123993,1,2,0:0:0:0:
400,200,124079,1,0,0:0:0:0:
416,168,124165,1,0,0:0:0:0:
408,176,124250,1,2,0:0:0:0:
400,200,124336,1,0,0:0:0:0:
400,168,124422,1,2,0:0:0:0:
416,168,124593,1,2,0:0:0:0:
408,176,124650,1,2,0:0:0:0:
392,184,124707,1,2,0:0:0:0:
448,168,124765,1,0,0:0:0:0:
408,136,124936,1,0,0:0:0:0:
408,176,125022,1,0,0:0:0:0:
392,184,125107,1,2,0:0:0:0:
448,168,125279,1,2,0:0:0:0:
400,200,125365,1,2,0:0:0:0:
392,184,125450,1,2,0:0:0:0:
368,200,125536,1,2,0:0:0:0:
448,168,125622,1,0,0:0:0:0:
480,120,125793,1,2,0:0:0:0:
416,168,125965,1,2,0:0:0:0:
400,200,126050,1,2,0:0:0:0:
424,192,126136,1,0,0:0:0:0:
448,168,126307,1,2,0:0:0:0:
440,192,126393,1,0,0:0:0:0:
424,216,126479,1,2,0:0:0:0:
416,168,126650,1,0,0:0:0:0:
424,192,126822,1,2,0:0:0:0:
472,160,126993,1,0,0:0:0:0:
480,184,127079,1,2,0:0:0:0:
448,168,127165,1,0,0:0:0:0:
424,192,127250,1,0,0:0:0:0:
448,168,127336,1,2,0:0:0:0:
416,168,127507,1,6,0:0:0:0:
360,168,127679,1,0,0:0:0:0:
448,168,127765,1,2,0:0:0:0:
472,160,127850,1,6,0:0:0:0:
448,168,128022,1,0,0:0:0:0:
424,192,128107,1,0,0:0:0:0:
472,160,128193,1,6,0:0:0:0:
480,104,128365,1,0,0:0:0:0:
456,120,128450,1,0,0:0:0:0:
440,144,128536,1,0,0:0:0:0:
416,160,128622,1,0,0:0:0:0:
440,176,128707,1,6,0:0:0:0:
480,104,128879,1,0,0:0:0:0:
464,128,128965,1,0,0:0:0:0:
456,152,129050,1,2,0:0:0:0:
456,184,129136,1,0,0:0:0:0:
488,184,129222,1,6,0:0:0:0:
424,192,129393,1,2,0:0:0:0:
400,184,129479,1,2,0:0:0:0:
376,184,129565,1,2,0:0:0:0:
376,184,129650,1,2,0:0:0:0:
464,128,129736,1,0,0:0:0:0:
416,160,129822,1,0,0:0:0:0:
408,136,129907,1,2,0:0:0:0:
400,152,129965,1,2,0:0:0:0:
392,168,130022,1,2,0:0:0:0:
424,192,130079,1,0,0:0:0:0:
400,184,130165,1,0,0:0:0:0:
424,200,130250,1,6,0:0:0:0:
456,184,130422,1,0,0:0:0:0:
432,176,130507,1,0,0:0:0:0:
408,192,130593,1,2,0:0:0:0:
424,192,130765,1,0,0:0:0:0:
424,192,130850,1,0,0:0:0:0:
424,192,130936,1,0,0:0:0:0:
456,184,131022,1,2,0:0:0:0:
448,208,131107,1,0,0:0:0:0:
424,192,131193,1,0,0:0:0:0:
448,208,131279,1,2,0:0:0:0:
424,192,131450,1,0,0:0:0:0:
408,192,131536,1,0,0:0:0:0:
424,192,131622,1,2,0:0:0:0:
456,184,131793,1,2,0:0:0:0:
440,208,131879,1,0,0:0:0:0:
432,232,131965,1,2,0:0:0:0:
384,208,132136,1,2,0:0:0:0:
360,200,132222,1,2,0:0:0:0:
408,192,132307,1,0,0:0:0:0:
440,176,132393,1,2,0:0:0:0:
440,208,132479,1,0,0:0:0:0:
424,192,132565,1,0,0:0:0:0:
448,176,132650,1,2,0:0:0:0:
432,184,132707,1,2,0:0:0:0:
416,192,132765,1,2,0:0:0:0:
400,200,132822,1,2,0:0:0:0:
376,216,132907,1,2,0:0:0:0:
400,232,132993,1,4,0:0:0:0:
432,232,133165,1,0,0:0:0:0:
400,232,133250,1,0,0:0:0:0:
440,208,133336,1,2,0:0:0:0:
432,232,133507,1,4,0:0:0:0:
480,208,133679,1,0,0:0:0:0:
472,152,133850,1,2,0:0:0:0:
432,184,134022,1,0,0:0:0:0:
464,232,134193,1,4,0:0:0:0:
416,192,134365,1,0,0:0:0:0:
400,168,134450,1,0,0:0:0:0:
376,176,134536,1,0,0:0:0:0:
368,216,134622,1,0,0:0:0:0:
384,192,134707,1,2,0:0:0:0:
392,176,134765,1,2,0:0:0:0:
392,160,134822,1,2,0:0:0:0:
400,144,134879,1,2,0:0:0:0:
400,168,134965,1,2,0:0:0:0:
408,192,135050,1,0,0:0:0:0:
400,168,135136,1,0,0:0:0:0:
400,168,135222,1,0,0:0:0:0:
384,192,135307,1,0,0:0:0:0:
408,200,135393,1,2,0:0:0:0:
400,216,135436,1,2,0:0:0:0:
400,216,135479,1,2,0:0:0:0:
392,232,135522,1,2,0:0:0:0:
416,192,135565,1,2,0:0:0:0:
384,192,135650,1,2,0:0:0:0:
408,208,135736,1,6,0:0:0:0:
456,232,135907,1,0,0:0:0:0:
408,208,135993,1,0,0:0:0:0:
424,232,136079,1,6,0:0:0:0:
448,184,136250,1,0,0:0:0:0:
432,208,136336,1,0,0:0:0:0:
456,200,136422,1,6,0:0:0:0:
448,184,136593,1,0,0:0:0:0:
456,200,136679,1,0,0:0:0:0:
456,200,136765,1,6,0:0:0:0:
456,232,136936,1,2,0:0:0:0:
448,184,137022,1,0,0:0:0:0:
456,200,137107,1,6,0:0:0:0:
408,208,137279,1,2,0:0:0:0:
432,200,137365,1,0,0:0:0:0:
424,232,137450,1,2,0:0:0:0:
432,176,137622,1,2,0:0:0:0:
448,184,137707,1,0,0:0:0:0:
408,208,137793,1,0,0:0:0:0:
432,208,137879,1,2,0:0:0:0:
432,200,137965,1,0,0:0:0:0:
432,200,138050,1,0,0:0:0:0:
432,200,138136,1,2,0:0:0:0:
432,200,138222,1,2,0:0:0:0:
448,176,138307,1,0,0:0:0:0:
456,200,138479,1,4,0:0:0:0:
456,200,138650,1,0,0:0:0:0:
432,200,138736,1,0,0:0:0:0:
408,208,138822,1,0,0:0:0:0:
448,184,138993,1,4,0:0:0:0:
456,200,139079,1,0,0:0:0:0:
456,200,139165,1,2,0:0:0:0:
408,208,139336,1,2,0:0:0:0:
456,176,139507,1,2,0:0:0:0:
456,176,139679,1,0,0:0:0:0:
408,152,139850,1,2,0:0:0:0:
408,184,139936,1,2,0:0:0:0:
408,152,140022,1,2,0:0:0:0:
408,152,140079,1,0,0:0:0:0:
408,152,140136,1,0,0:0:0:0:
408,152,140193,1,0,0:0:0:0:
400,176,140279,1,0,0:0:0:0:
456,176,140365,1,2,0:0:0:0:
448,184,140450,1,0,0:0:0:0:
448,184,140536,1,2,0:0:0:0:
472,168,140622,1,0,0:0:0:0:
456,200,140707,1,2,0:0:0:0:
456,176,140793,1,0,0:0:0:0:
408,184,140879,1,0,0:0:0:0:
408,184,140965,1,0,0:0:0:0:
456,176,141050,1,2,0:0:0:0:
456,200,141136,1,0,0:0:0:0:
472,168,141222,1,4,0:0:0:0:
456,200,141393,1,2,0:0:0:0:
456,176,141479,1,0,0:0:0:0:
464,200,141565,1,6,0:0:0:0:
424,240,141736,1,2,0:0:0:0:
424,240,141822,1,2,0:0:0:0:
424,240,141907,1,2,0:0:0:0:
424,240,141993,1,2,0:0:0:0:
456,200,142079,1,4,0:0:0:0:
464,144,142250,1,6,0:0:0:0:
456,200,142422,1,2,0:0:0:0:
432,216,142507,1,2,0:0:0:0:
456,200,142593,1,4,0:0:0:0:
400,192,142765,1,0,0:0:0:0:
376,184,142850,1,0,0:0:0:0:
400,176,142936,1,2,0:0:0:0:
400,192,143107,1,2,0:0:0:0:
400,192,143193,1,2,0:0:0:0:
392,216,143279,1,2,0:0:0:0:
392,216,143365,1,2,0:0:0:0:
456,200,143450,1,4,0:0:0:0:
416,160,143622,1,6,0:0:0:0:
400,176,143793,1,2,0:0:0:0:
400,192,143879,1,2,0:0:0:0:
424,208,143965,1,4,0:0:0:0:
472,240,144136,1,0,0:0:0:0:
448,232,144222,1,0,0:0:0:0:
424,232,144307,1,2,0:0:0:0:
440,208,144393,1,0,0:0:0:0:
448,184,144479,1,0,0:0:0:0:
448,168,144536,1,0,0:0:0:0:
432,152,144593,1,0,0:0:0:0:
448,152,144650,1,2,0:0:0:0:
416,160,144736,1,0,0:0:0:0:
400,136,144822,1,0,0:0:0:0:
400,176,144907,1,0,0:0:0:0:
400,192,144993,1,2,0:0:0:0:
416,160,145050,1,0,0:0:0:0:
400,176,145107,1,0,0:0:0:0:
400,176,145165,1,0,0:0:0:0:
448,168,145250,1,2,0:0:0:0:
432,152,145336,1,2,0:0:0:0:
424,208,145422,1,0,0:0:0:0:
400,216,145507,1,0,0:0:0:0:
400,176,145593,1,2,0:0:0:0:
400,176,145679,1,2,0:0:0:0:
416,176,145736,1,2,0:0:0:0:
432,176,145793,1,0,0:0:0:0:
448,176,145850,1,2,0:0:0:0:
448,184,145936,1,0,0:0:0:0:
448,184,146022,1,2,0:0:0:0:
448,168,146107,1,0,0:0:0:0:
400,176,146193,1,0,0:0:0:0:
416,160,146279,1,0,0:0:0:0:
448,184,146365,1,2,0:0:0:0:
432,176,146450,1,0,0:0:0:0:
408,192,146536,1,0,0:0:0:0:
432,176,146622,1,2,0:0:0:0:
432,200,146707,1,4,0:0:0:0:
424,208,146879,1,0,0:0:0:0:
400,216,146965,1,0,0:0:0:0:
432,176,147050,1,2,0:0:0:0:
400,176,147222,1,0,0:0:0:0:
376,192,147307,1,0,0:0:0:0:
360,216,147393,1,0,0:0:0:0:
448,184,147479,1,2,0:0:0:0:
400,176,147565,1,2,0:0:0:0:
432,128,147736,1,0,0:0:0:0:
432,128,147907,1,0,0:0:0:0:
400,232,148250,1,0,0:0:0:0:
432,176,148336,1,2,0:0:0:0:
448,184,148422,1,2,0:0:0:0:
448,184,148507,1,0,0:0:0:0:
432,176,148593,1,0,0:0:0:0:
448,184,148679,1,2,0:0:0:0:
424,200,148765,1,0,0:0:0:0:
448,184,148936,1,2,0:0:0:0:
424,200,149107,1,2,0:0:0:0:
416,176,149193,1,2,0:0:0:0:
408,200,149279,1,0,0:0:0:0:
416,176,149450,1,2,0:0:0:0:
408,200,149536,1,2,0:0:0:0:
432,184,149622,1,0,0:0:0:0:
456,184,149707,1,2,0:0:0:0:
448,184,149793,1,0,0:0:0:0:
408,224,149965,1,0,0:0:0:0:
384,240,150050,1,0,0:0:0:0:
448,184,150136,1,2,0:0:0:0:
448,184,150222,1,2,0:0:0:0:
456,184,150307,1,0,0:0:0:0:
424,200,150479,1,2,0:0:0:0:
456,160,150650,1,0,0:0:0:0:
432,176,150736,1,0,0:0:0:0:
408,184,150822,1,0,0:0:0:0:
432,200,150907,1,2,0:0:0:0:
408,200,150993,1,0,0:0:0:0:
408,200,151079,1,0,0:0:0:0:
432,200,151165,1,2,0:0:0:0:
424,200,151250,1,2,0:0:0:0:
424,200,151336,1,0,0:0:0:0:
424,200,151422,1,0,0:0:0:0:
432,200,151507,1,2,0:0:0:0:
416,176,151593,1,0,0:0:0:0:
392,160,151679,1,0,0:0:0:0:
392,160,151765,1,0,0:0:0:0:
456,160,151850,1,2,0:0:0:0:
432,152,151936,1,2,0:0:0:0:
408,160,152022,1,2,0:0:0:0:
408,160,152107,1,2,0:0:0:0:
416,184,152193,1,4,0:0:0:0:
408,184,152365,1,0,0:0:0:0:
416,240,152536,1,2,0:0:0:0:
416,176,153050,1,2,0:0:0:0:
448,192,153393,1,0,0:0:0:0:
352,136,153736,1,0,0:0:0:0:
280,224,153907,1,2,0:0:0:0:
392,200,154250,1,0,0:0:0:0:
504,192,154765,1,0,0:0:0:0:
400,232,154936,1,0,0:0:0:0:
472,152,155279,1,2,0:0:0:0:
304,168,155793,1,2,0:0:0:0:
464,152,156136,1,2,0:0:0:0:
