osu file format v13

[General]
AudioFilename: Song~~~.mp3
AudioLeadIn: 0
PreviewTime: 32598
Countdown: 0
SampleSet: Soft
StackLeniency: 0.3
Mode: 0
LetterboxInBreaks: 0
WidescreenStoryboard: 1

[Editor]
Bookmarks: 16598,20598,24598,28598,40598,48598
DistanceSpacing: 1.2
BeatDivisor: 4
GridSize: 4
TimelineZoom: 1.2

[Metadata]
Title:Kyuuri no Uta
TitleUnicode:きゅうりのうた
Artist:Maruguri
ArtistUnicode:まるぐり
Creator:kamisamaaa
Version:Normal
Source:
Tags:[_Crystal]
BeatmapID:416311
BeatmapSetID:172025

[Difficulty]
HPDrainRate:4
CircleSize:3
OverallDifficulty:4
ApproachRate:5
SliderMultiplier:1.2
SliderTickRate:1

[Events]
//Background and Video events
0,0,"BG.jpg",0,0
//Break Periods
//Storyboard Layer 0 (Background)
//Storyboard Layer 1 (Fail)
//Storyboard Layer 2 (Pass)
//Storyboard Layer 3 (Foreground)
//Storyboard Sound Samples
//Background Colour Transformations
3,100,163,162,255

[TimingPoints]
598,500,4,2,1,30,1,0
16598,-100,4,2,2,30,0,0
16848,-100,4,2,1,45,0,0
24098,-100,4,2,2,30,0,0
24598,-100,4,2,1,45,0,0
30598,-100,4,2,2,30,0,0
31098,-100,4,2,1,45,0,0
32598,-100,4,2,2,60,0,1
32723,-100,4,2,1,60,0,1
40598,-100,4,2,2,60,0,1
40723,-100,4,2,1,60,0,1
48598,-100,4,2,2,60,0,1
48723,-100,4,2,1,60,0,1
56598,-100,4,2,2,60,0,1
56723,-100,4,2,1,60,0,1
64598,-100,4,2,1,30,0,0
67848,-100,4,2,1,5,0,0

[Colours]
Combo1 : 244,154,193
Combo2 : 9,225,114
Combo3 : 0,174,239

[HitObjects]
209,116,598,5,6,0:0:0:0:
337,50,1098,2,0,P|352:144|304:226,1,180,2|0,0:0|0:0,0:0:0:0:
251,251,2098,2,0,L|174:269,1,60,2|0,0:0|0:0,0:0:0:0:
122,280,2598,5,2,0:0:0:0:
105,136,3098,2,0,L|178:121,1,60,2|0,0:0|0:0,0:0:0:0:
200,61,3598,2,0,L|273:46,1,60,2|0,0:0|0:0,0:0:0:0:
395,96,4348,1,0,0:0:0:0:
388,167,4598,2,0,P|374:240|339:282,1,120,6|0,0:0|0:0,0:0:0:0:
132,296,5848,6,0,L|77:344,2,60
186,249,6598,2,0,P|268:212|363:236,1,180,2|0,0:0|0:0,0:0:0:0:
404,280,7598,1,2,0:0:0:0:
281,354,8098,1,2,0:0:0:0:
186,249,8598,1,2,0:0:0:0:
54,190,9098,6,0,P|152:106|268:125,1,240,2|0,0:0|0:0,0:0:0:0:
385,180,10598,1,6,0:0:0:0:
406,111,10848,6,0,L|428:42,1,60
358,25,11348,2,0,P|293:19|236:26,1,120,2|0,0:0|0:0,0:0:0:0:
167,53,12098,2,0,L|104:93,1,60,2|0,0:0|0:0,0:0:0:0:
51,116,12598,5,2,0:0:0:0:
24,257,13098,1,0,0:0:0:0:
225,334,13848,2,0,L|297:362,2,60,0|2|0,0:0|0:0|0:0,0:0:0:0:
191,270,14598,6,0,P|214:206|257:153,1,120,2|0,0:0|0:0,0:0:0:0:
388,175,15598,2,0,P|422:126|441:69,1,120,2|0,0:0|1:0,0:0:0:0:
298,57,16598,6,0,P|240:50|177:59,1,120,6|0,1:2|1:0,0:0:0:0:
111,82,17348,1,0,0:0:0:0:
69,141,17598,2,0,P|63:201|66:269,1,120,2|0,0:2|1:0,0:0:0:0:
199,208,18598,6,0,P|247:176|312:162,1,120,2|0,0:0|1:0,0:0:0:0:
378,157,19348,1,0,0:0:0:0:
436,199,19598,2,0,L|468:257,2,60,2|0|0,0:0|0:0|1:0,0:0:0:0:
371,70,20598,5,2,0:0:0:0:
227,55,21098,1,0,1:0:0:0:
278,189,21598,2,0,P|295:247|294:309,1,120,2|0,0:0|1:0,0:0:0:0:
156,263,22598,6,0,L|84:275,1,60,2|0,0:0|0:0,0:0:0:0:
25,283,23098,1,0,1:0:0:0:
33,139,23598,2,0,P|61:91|115:55,1,120,2|4,0:0|0:0,0:0:0:0:
169,188,24598,6,0,P|234:197|299:185,1,120,2|0,0:0|1:0,0:0:0:0:
328,129,25348,1,0,0:0:0:0:
289,67,25598,2,0,P|224:58|159:70,1,120,2|0,0:0|1:0,0:0:0:0:
41,131,26598,6,0,P|34:199|37:262,1,120,2|0,0:0|1:0,0:0:0:0:
46,321,27348,1,0,0:0:0:0:
116,308,27598,2,0,P|179:305|245:317,1,120,2|0,0:0|1:0,0:0:0:0:
377,335,28598,5,2,0:0:0:0:
430,51,29598,1,2,0:0:0:0:
156,142,30598,1,4,0:0:0:0:
296,172,31098,6,0,L|359:186,1,60,0|0,1:0|1:0,0:0:0:0:
368,255,31598,2,0,P|281:280|207:234,1,180,0|0,1:0|1:0,0:0:0:0:
153,190,32598,6,0,P|125:137|121:68,1,120,6|0,1:2|1:0,0:0:0:0:
186,51,33348,2,0,L|228:9,2,60,2|0|0,0:0|1:0|0:0,0:0:0:0:
229,108,34098,6,0,P|288:102|341:74,1,120,2|0,1:2|1:0,0:0:0:0:
405,43,34848,2,0,L|466:10,2,60,2|0|0,0:0|1:0|0:0,0:0:0:0:
427,111,35598,2,0,P|437:177|434:237,1,120,2|0,1:2|1:0,0:0:0:0:
430,301,36348,1,2,0:0:0:0:
358,311,36598,6,0,P|291:326|234:318,1,120,2|0,1:2|1:0,0:0:0:0:
169,308,37348,1,2,0:0:0:0:
206,246,37598,2,0,P|226:191|231:121,1,120,0|2,1:0|1:2,0:0:0:0:
227,57,38348,1,2,0:0:0:0:
155,63,38598,6,0,P|96:71|32:97,1,120,0|0,1:0|1:0,0:0:0:0:
27,163,39348,1,2,0:0:0:0:
95,185,39598,2,0,P|98:256|92:309,1,120,2|0,1:2|1:0,0:0:0:0:
156,338,40348,1,2,0:0:0:0:
223,314,40598,6,0,P|278:298|358:293,1,120,6|0,1:2|1:0,0:0:0:0:
412,286,41348,1,2,0:0:0:0:
476,254,41598,2,0,P|492:231|505:196,2,60,0|2|0,1:0|0:0|1:0,0:0:0:0:
360,168,42598,6,0,P|355:106|355:43,1,120,0|0,1:0|1:0,0:0:0:0:
210,49,43598,2,0,P|215:111|215:174,1,120,0|0,1:0|1:0,0:0:0:0:
75,203,44598,6,0,P|109:263|162:299,1,120,2|0,1:2|1:0,0:0:0:0:
219,311,45348,1,0,0:0:0:0:
290,300,45598,2,0,P|336:262|364:209,1,120,0|0,1:0|1:0,0:0:0:0:
222,183,46598,6,0,P|246:118|292:74,1,120,2|0,1:2|1:0,0:0:0:0:
347,53,47348,1,0,0:0:0:0:
419,53,47598,2,0,P|470:83|506:131,1,120,0|0,1:0|1:0,0:0:0:0:
371,183,48598,6,0,P|380:245|376:303,1,120,6|0,1:2|1:0,0:0:0:0:
308,328,49348,2,0,L|263:367,2,60,2|0|0,0:0|1:0|0:0,0:0:0:0:
282,261,50098,6,0,P|204:248|155:253,1,120,2|0,1:2|1:0,0:0:0:0:
101,287,50848,2,0,L|80:343,2,60,2|0|0,0:0|1:0|0:0,0:0:0:0:
98,214,51598,2,0,P|101:149|87:85,1,120,2|0,1:2|1:0,0:0:0:0:
72,25,52348,1,2,0:0:0:0:
143,28,52598,6,0,P|215:31|254:71,1,120,2|0,1:2|1:0,0:0:0:0:
280,126,53348,1,2,0:0:0:0:
349,143,53598,2,0,P|421:146|460:186,1,120,0|0,1:0|1:1,0:0:0:0:
486,241,54348,1,2,0:0:0:0:
461,308,54598,6,0,P|414:343|355:341,1,120,0|0,1:0|1:0,0:0:0:0:
290,309,55348,1,2,0:0:0:0:
279,237,55598,2,0,P|237:187|176:176,1,120,0|0,1:2|1:0,0:0:0:0:
113,173,56348,1,2,0:0:0:0:
88,105,56598,6,0,P|136:67|214:45,1,120,6|0,1:2|1:0,0:0:0:0:
262,39,57348,1,2,0:0:0:0:
333,36,57598,2,0,L|394:35,2,60,0|2|0,1:0|0:0|1:0,0:0:0:0:
298,175,58598,6,0,P|298:234|303:294,1,120,0|0,1:0|1:0,0:0:0:0:
159,296,59598,2,0,P|158:236|153:176,1,120,0|0,1:0|1:0,0:0:0:0:
14,140,60598,6,0,P|48:80|101:44,1,120,2|0,1:2|1:0,0:0:0:0:
158,34,61348,1,0,0:0:0:0:
229,43,61598,2,0,P|275:81|303:134,1,120,0|0,1:0|1:0,0:0:0:0:
163,169,62598,6,0,P|187:233|233:277,1,120,2|0,1:2|1:0,0:0:0:0:
291,289,63348,2,0,L|364:274,1,60,0|0,0:0|1:0,0:0:0:0:
420,287,63848,2,0,L|446:342,2,60,0|2|0,0:0|1:2|0:0,0:0:0:0:
350,277,64598,5,2,1:0:0:0:
256,192,64848,12,0,68098,0:0:0:0:
