osu file format v13

[General]
AudioFilename: Song~~~.mp3
AudioLeadIn: 0
PreviewTime: 32598
Countdown: 0
SampleSet: Soft
StackLeniency: 0.3
Mode: 0
LetterboxInBreaks: 0
WidescreenStoryboard: 1

[Editor]
Bookmarks: 16598,20598,24598,28598,40598,45598,48598
DistanceSpacing: 1.2
BeatDivisor: 2
GridSize: 4
TimelineZoom: 0.5999999

[Metadata]
Title:Kyuuri no Uta
TitleUnicode:きゅうりのうた
Artist:Maruguri
ArtistUnicode:まるぐり
Creator:kamisamaaa
Version:Easy
Source:
Tags:[_Crystal]
BeatmapID:417812
BeatmapSetID:172025

[Difficulty]
HPDrainRate:2
CircleSize:2
OverallDifficulty:2
ApproachRate:3
SliderMultiplier:0.8
SliderTickRate:1

[Events]
//Background and Video events
0,0,"BG.jpg",0,0
//Break Periods
//Storyboard Layer 0 (Background)
//Storyboard Layer 1 (Fail)
//Storyboard Layer 2 (Pass)
//Storyboard Layer 3 (Foreground)
//Storyboard Sound Samples
//Background Colour Transformations
3,100,163,162,255

[TimingPoints]
598,500,4,2,1,30,1,0
16598,-100,4,2,2,30,0,0
16848,-100,4,2,1,45,0,0
24098,-100,4,2,2,30,0,0
24598,-100,4,2,1,45,0,0
30598,-100,4,2,2,30,0,0
31098,-100,4,2,1,45,0,0
32598,-100,4,2,2,60,0,1
32848,-100,4,2,1,60,0,1
40598,-100,4,2,2,60,0,1
40848,-100,4,2,1,60,0,1
48598,-100,4,2,2,60,0,1
48848,-100,4,2,1,60,0,1
56598,-100,4,2,2,60,0,1
56848,-100,4,2,1,60,0,1
64598,-100,4,2,1,30,0,0
67848,-100,4,2,1,5,0,0

[Colours]
Combo1 : 244,154,193
Combo2 : 9,225,114
Combo3 : 0,174,239

[HitObjects]
144,108,598,5,6,0:0:0:0:
234,77,1098,2,0,P|356:69|442:144,1,240,2|2,0:0|0:0,0:0:0:0:
416,236,3098,2,0,P|404:288|405:318,2,80,2|0|0,0:0|0:0|0:0,0:0:0:0:
440,141,4598,5,6,0:0:0:0:
220,43,5848,2,0,P|205:93|210:135,1,80
246,148,6598,2,0,P|252:204|250:243,1,80,2|0,0:0|0:0,0:0:0:0:
156,240,7598,2,0,P|156:279|161:319,1,80,2|0,0:0|0:0,0:0:0:0:
255,340,8598,5,2,0:0:0:0:
350,334,9098,2,0,P|456:287|483:163,1,240,2|4,0:0|0:0,0:0:0:0:
272,64,11848,2,0,P|319:86|342:117,1,80
341,154,12598,2,0,P|344:217|352:257,1,80,2|0,0:0|0:0,0:0:0:0:
60,268,14598,6,0,P|101:246|141:208,1,80,2|0,0:0|0:0,0:0:0:0:
175,142,15598,2,0,L|154:107,2,40,2|8|0,0:0|0:3|1:0,0:0:0:0:
260,97,16598,6,0,L|356:115,1,80,4|0,0:0|1:0,0:0:0:0:
433,126,17598,2,0,L|436:224,1,80,2|0,0:0|1:0,0:0:0:0:
355,258,18598,2,0,L|357:337,1,80,2|0,0:0|1:0,0:0:0:0:
310,351,19348,2,0,P|238:355|173:342,1,120,2|0,0:0|1:0,0:0:0:0:
110,294,20598,5,2,0:0:0:0:
64,209,21098,1,0,1:0:0:0:
73,113,21598,2,0,P|121:104|169:106,1,80,2|0,0:0|1:0,0:0:0:0:
229,161,22598,2,0,P|233:219|239:250,1,80,2|0,0:0|1:0,0:0:0:0:
322,196,23598,2,0,L|419:184,1,80,2|4,0:0|0:0,0:0:0:0:
497,175,24598,5,2,0:0:0:0:
439,98,25098,1,0,1:0:0:0:
352,56,25598,2,0,P|290:50|263:52,1,80,2|0,0:0|1:0,0:0:0:0:
188,98,26598,2,0,P|156:135|117:153,1,80,2|0,0:0|1:0,0:0:0:0:
101,57,27598,2,0,L|20:24,1,80,2|0,0:0|1:0,0:0:0:0:
8,121,28598,5,2,0:0:0:0:
55,307,29598,1,2,0:0:0:0:
246,312,30598,1,4,0:0:0:0:
341,307,31098,2,0,P|440:249|445:122,1,240,2|6,0:0|1:2,0:0:0:0:
332,50,33348,6,0,P|395:55|444:109,1,120,2|2,0:0|0:0,0:0:0:0:
353,141,34598,1,0,1:0:0:0:
313,168,34848,2,0,P|261:195|201:200,1,120,2|0,0:0|1:0,0:0:0:0:
108,171,36098,1,0,1:0:0:0:
25,121,36598,6,0,P|73:81|137:81,2,120,0|2|0,1:2|0:0|1:0,0:0:0:0:
23,217,38598,1,0,1:0:0:0:
41,261,38848,2,0,P|96:289|163:295,1,120,2|0,0:0|1:0,0:0:0:0:
249,300,40098,1,0,1:0:0:0:
344,289,40598,6,0,P|383:249|394:220,1,80,4|0,1:2|1:0,0:0:0:0:
298,203,41598,2,0,P|316:167|346:141,1,80,0|0,1:0|1:0,0:0:0:0:
430,95,42598,1,0,1:0:0:0:
345,49,43098,1,0,1:0:0:0:
249,49,43598,1,0,1:0:0:0:
158,82,44098,1,0,1:0:0:0:
79,136,44598,6,0,P|70:184|68:232,1,80,0|0,1:0|1:0,0:0:0:0:
162,195,45598,2,0,P|158:234|150:274,1,80,0|0,1:0|1:0,0:0:0:0:
224,334,46598,2,0,P|340:318|408:214,1,240,0|0,1:0|1:0,0:0:0:0:
407,126,48598,6,0,P|369:79|305:58,2,120,4|2|0,1:2|0:0|1:0,0:0:0:0:
316,158,50598,1,0,1:0:0:0:
268,167,50848,2,0,P|197:169|146:157,1,120,2|0,0:0|1:0,0:0:0:0:
62,116,52098,1,0,1:0:0:0:
54,211,52598,6,0,P|55:284|70:333,2,120,0|2|0,1:0|0:0|1:0,0:0:0:0:
62,116,54598,1,0,1:0:0:0:
91,78,54848,2,0,P|145:50|212:49,1,120,2|0,0:0|1:0,0:0:0:0:
299,54,56098,1,0,1:0:0:0:
380,105,56598,6,0,L|415:189,1,80,4|0,1:2|1:0,0:0:0:0:
317,201,57598,2,0,L|352:285,1,80,0|0,1:0|1:0,0:0:0:0:
299,358,58598,1,0,1:0:0:0:
203,349,59098,1,0,1:0:0:0:
110,323,59598,1,0,1:0:0:0:
31,267,60098,1,0,1:0:0:0:
18,171,60598,6,0,P|46:133|77:112,1,80,0|0,1:0|1:0,0:0:0:0:
146,174,61598,2,0,P|177:150|200:117,1,80,0|0,1:0|1:0,0:0:0:0:
270,51,62598,2,0,P|334:112|351:190,1,160,0|0,1:0|1:0,0:0:0:0:
332,222,63848,2,0,P|318:271|313:309,1,80,2|2,0:0|0:0,0:0:0:0:
313,347,64598,1,2,1:0:0:0:
256,192,64848,12,0,68098,0:0:0:0:
