osu file format v14

[General]
AudioFilename: Hungarian dance No.5 in G minor (Brahms).mp3
AudioLeadIn: 0
PreviewTime: 21380
Countdown: 0
SampleSet: Soft
StackLeniency: 0.7
Mode: 0
LetterboxInBreaks: 0
WidescreenStoryboard: 0

[Editor]
Bookmarks: 1877,2115,5243,8621,11216,13526,15369,17616,19498,21380,22874,24796,26504,28212,29734,31648,33355,35206,35634,39059,41058,43099,44553,46273,47615,49147,50680,52435,53784,55508,56845,58565,59928,61476,63024,64336,66016,67497,68998,70310,71998,73498,74998,77248,79498,81748,83998,85498,86998,88498,89998,91498,93051
DistanceSpacing: 1.2
BeatDivisor: 4
GridSize: 32
TimelineZoom: 1.199999

[Metadata]
Title:Hungarian Dance No. 5 in G minor
TitleUnicode:Hungarian Dance No. 5 in G minor
Artist:Martynas
ArtistUnicode:Martynas
Creator:Sieg
Version:Normal
Source:
Tags:brahms instrumental violin accordion
BeatmapID:653798
BeatmapSetID:199998

[Difficulty]
HPDrainRate:2
CircleSize:2.5
OverallDifficulty:2
ApproachRate:3
SliderMultiplier:1.19999990463257
SliderTickRate:2

[Events]
//Background and Video events
0,0,"bg.jpg",0,0
//Break Periods
//Storyboard Layer 0 (Background)
//Storyboard Layer 1 (Fail)
//Storyboard Layer 2 (Pass)
//Storyboard Layer 3 (Foreground)
//Storyboard Sound Samples

[TimingPoints]
1877,952.380952380952,4,2,1,50,1,8
2115,930.232558139535,4,2,1,70,1,0
2115,-83.3333333333333,4,2,1,70,0,0
2580,1000,4,2,1,70,1,8
3080,890.207715133531,4,2,1,70,1,8
3525,869.565217391304,4,2,1,70,1,8
3959,833.333333333333,4,2,1,70,1,8
3959,-83.3333333333333,4,2,1,70,0,8
4375,895.522388059701,4,2,1,70,1,8
4821,845.070422535211,4,2,1,70,1,8
5666,784.313725490196,4,2,1,70,1,0
5666,-83.3333333333333,4,2,1,70,0,0
6450,769.230769230769,4,2,1,70,1,8
6834,701.754385964912,4,2,1,70,1,8
6834,-83.3333333333333,4,2,1,70,0,8
7184,821.917808219178,4,2,1,70,1,8
7551,727.272727272727,4,2,1,70,1,8
7551,-83.3333333333333,4,2,1,70,0,8
7914,727.272727272727,4,2,1,70,1,8
8278,685.714285714286,4,2,1,70,1,8
8621,689.655172413793,4,2,1,70,1,0
8621,-90.9090909090909,4,2,1,70,0,0
9310,674.157303370787,4,2,1,70,1,8
9647,634.920634920635,4,2,1,70,1,8
9647,-90.9090909090909,4,2,1,70,0,8
9964,626.304801670146,4,2,1,70,1,8
10277,-90.9090909090909,4,2,1,70,0,8
11216,600,4,2,1,70,1,0
11216,-90.9090909090909,4,2,1,70,0,0
12416,555.555555555556,4,2,1,70,1,8
12416,-90.9090909090909,4,2,1,70,0,8
13526,544.464609800363,4,2,1,70,1,0
14070,521.739130434783,4,2,1,70,1,8
14330,500,4,2,1,70,1,8
14580,526.315789473684,4,2,1,70,1,8
15369,550.45871559633,4,2,1,70,1,8
15644,465.116279069767,4,2,1,70,1,0
15876,508.474576271186,4,2,1,70,1,8
16384,502.092050209205,4,2,1,70,1,8
16635,490.998363338789,4,2,1,70,1,8
17616,470.588235294118,4,2,1,70,1,0
21380,427.046263345196,4,2,1,70,1,1
21380,-105.263157894737,4,2,1,70,0,1
28212,434.782608695652,4,2,1,70,1,1
28646,441.176470588235,4,2,1,70,1,9
28646,-105.263157894737,4,2,1,70,0,9
29307,416.666666666667,4,2,1,70,1,9
29307,-105.263157894737,4,2,1,70,0,9
29515,438.59649122807,4,2,1,70,1,9
29953,410.958904109589,4,2,1,70,1,1
30158,441.176470588235,4,2,1,70,1,9
30378,441.176470588235,4,2,1,70,1,9
30818,389.61038961039,4,2,1,70,1,9
31012,444.444444444444,4,2,1,70,1,9
31234,400,4,2,1,70,1,9
31434,428.571428571429,4,2,1,70,1,9
31648,446.760982874162,4,2,1,70,1,1
32094,423.429781227946,4,2,1,70,1,9
32517,416.666666666667,4,2,1,70,1,9
32933,422.535211267606,4,2,1,70,1,9
33355,443.458980044346,4,2,1,70,1,1
34020,400,4,2,1,70,1,9
34220,441.176470588235,4,2,1,70,1,9
34661,1090.90909090909,4,2,1,70,1,9
34729,-100,4,2,1,70,0,8
35206,857.142857142857,4,2,1,40,1,8
35634,821.917808219178,4,2,1,70,1,0
35634,-83.3333333333333,4,2,1,70,0,0
36865,731.707317073171,4,2,1,70,1,8
37230,731.707317073171,4,2,1,70,1,8
37230,-83.3333333333333,4,2,1,70,0,8
38693,731.707317073171,4,2,1,70,1,0
39059,666.666666666667,4,2,1,70,1,8
39392,666.666666666667,4,2,1,70,1,8
39725,-83.3333333333333,4,2,1,70,0,8
40058,500,4,2,1,70,1,8
41058,512.820512820513,4,2,1,70,1,0
41570,487.80487804878,4,2,1,70,1,8
42056,375,4,2,1,70,1,8
42243,428.571428571429,4,2,1,70,1,8
42457,428.571428571429,4,2,1,70,1,8
42885,428.571428571429,4,2,1,70,1,0
43527,-105.263157894737,4,2,1,70,0,0
43955,402.684563758389,4,2,1,70,1,8
43955,-117.647058823529,4,2,1,70,0,8
44156,397.350993377483,4,2,1,70,1,8
44553,394.736842105263,4,2,1,70,1,0
44553,-105.263157894737,4,2,1,70,0,0
45342,372.670807453416,4,2,1,70,1,8
45342,-111.111111111111,4,2,1,70,0,8
46087,372.670807453416,4,2,1,70,1,0
46646,400,4,2,1,70,1,8
46646,-111.111111111111,4,2,1,70,0,8
46846,400,4,2,1,70,1,8
47446,338.028169014084,4,2,1,70,1,8
47615,363.636363636364,4,2,1,70,1,0
48251,451.127819548872,4,2,1,70,1,8
48363,400,4,2,1,70,1,8
48763,384.615384615385,4,2,1,70,1,8
49147,413.793103448276,4,2,1,70,1,0
49353,394.736842105263,4,2,1,70,1,8
49550,376.884422110553,4,2,1,70,1,8
49738,-111.111111111111,4,2,1,70,0,8
50680,390.879478827362,4,2,1,70,1,1
50680,-111.111111111111,4,2,1,70,0,1
52243,385.852090032154,4,2,1,70,1,1
52821,-111.111111111111,4,2,1,70,0,1
53784,383.386581469649,4,2,1,70,1,1
53784,-111.111111111111,4,2,1,70,0,1
55317,382.165605095541,4,2,1,70,1,1
55890,-111.111111111111,4,2,1,70,0,1
59520,408.163265306122,4,2,1,70,1,9
59928,387.096774193548,4,2,1,70,1,1
61476,-111.111111111111,4,2,1,70,0,1
62661,-100,4,2,1,70,0,0
63024,375,4,2,1,70,1,0
63024,-111.111111111111,4,2,1,70,0,0
65276,370.37037037037,4,2,1,70,1,8
66016,370.37037037037,4,2,1,70,1,8
66016,-111.111111111111,4,2,1,70,0,8
67498,375,4,2,1,70,1,0
67498,-111.111111111111,4,2,1,70,0,0
74998,-111.111111111111,4,2,1,70,0,1
75021,-111.111111111111,4,2,1,70,0,0
79498,-111.111111111111,4,2,1,70,0,1
79521,-111.111111111111,4,2,1,70,0,0
83998,-111.111111111111,4,2,1,70,0,1
92623,428.571428571429,4,2,1,70,1,9
92649,-100,4,2,1,70,0,8
93051,402.684563758389,4,2,1,50,1,0
93051,-111.111111111111,4,2,1,50,0,0
93453,379.746835443038,4,2,1,50,1,8
93832,365.853658536585,4,2,1,50,1,8
93832,-111.111111111111,4,2,1,50,0,8
94197,375,4,2,1,50,1,8
94572,389.61038961039,4,2,1,50,1,0
94572,-111.111111111111,4,2,1,50,0,0
94961,379.746835443038,4,2,1,50,1,8
95340,384.615384615385,4,2,1,50,1,8
95340,-111.111111111111,4,2,1,50,0,8
95724,387.096774193548,4,2,1,50,1,8
96111,487.80487804878,4,2,1,50,1,0
96354,431.654676258993,4,2,1,50,1,8
96569,431.654676258993,4,2,1,50,1,8
97001,365.853658536585,4,2,1,50,1,8
97183,480,4,2,1,50,1,8
97423,521.739130434783,4,2,1,50,1,8
97683,428.571428571429,4,2,1,50,1,8
97897,545.454545454546,4,2,1,50,1,0
98442,422.535211267606,4,2,1,50,1,8

[Colours]
Combo1 : 85,53,146
Combo2 : 175,0,42
Combo3 : 0,123,167
Combo4 : 255,191,0

[HitObjects]
438,87,2115,6,0,L|471:232,1,149.4,4|8,0:0|0:0,0:0:0:0:
431,289,3525,1,0,0:0:0:0:
366,264,3959,2,0,L|347:188,1,71.9999920806888
287,65,5243,5,0,0:0:0:0:
223,33,5666,2,0,P|155:28|106:81,1,143.999984161378,0|8,0:0|0:0,0:0:0:0:
81,142,6834,2,0,L|86:216,1,71.9999920806888
49,271,7551,2,0,L|55:344,1,71.9999920806888,0|8,0:0|0:0,0:0:0:0:
191,345,8621,6,0,P|259:350|305:293,1,131.999993537903,0|8,0:0|0:0,0:0:0:0:
350,266,9647,2,0,L|424:249,1,65.9999967689514
454,202,10277,2,0,L|534:186,1,65.9999967689514,0|8,0:0|0:0,0:0:0:0:
427,60,11216,6,0,P|371:20|301:47,1,131.999993537903,4|0,0:0|0:0,0:0:0:0:
270,80,12116,1,0,0:0:0:0:
277,143,12416,2,0,P|282:204|229:254,1,131.999993537903,0|8,0:0|0:0,0:0:0:0:
89,307,13526,6,0,B|71:187,1,119.999990463257,0|8,0:0|0:0,0:0:0:0:
23,138,14330,2,0,L|13:73,1,59.9999952316285
57,29,14843,2,0,P|124:31|164:86,1,119.999990463257
189,127,15644,6,0,P|239:156|295:139,1,125.5,0|8,0:0|0:0,0:0:0:0:
337,78,16384,2,0,P|415:35|483:96,1,177
509,215,17616,5,2,0:0:0:0:
475,342,18086,1,8,0:0:0:0:
357,281,18557,1,2,0:0:0:0:
241,344,19027,1,8,0:0:0:0:
235,212,19498,6,0,P|244:154|208:108,1,119.999990463257,2|0,0:0|0:0,0:0:0:0:
78,83,20439,2,0,L|66:166,1,59.9999952316285,0|8,0:0|0:0,0:0:0:0:
43,203,20910,1,4,0:0:0:0:
172,273,21380,6,0,B|216:305|252:273|260:273|299:250|342:278,1,170.999981843949,4|2,0:0|0:0,0:0:0:0:
392,310,22234,2,0,P|447:296|476:247,1,113.999987895966,0|8,0:0|0:0,0:0:0:0:
490,185,22874,5,2,0:0:0:0:
432,145,23088,2,0,L|311:126,1,113.999987895966,0|8,0:0|0:0,0:0:0:0:
262,88,23728,2,0,L|140:69,1,113.999987895966,2|2,0:0|0:0,0:0:0:0:
88,35,24369,1,8,0:0:0:0:
22,151,24796,6,0,L|10:270,1,113.999987895966,0|8,0:0|0:0,0:0:0:0:
52,321,25436,2,0,P|109:317|149:274,1,113.999987895966,2|2,0:0|0:0,0:0:0:0:
162,209,26077,1,8,0:0:0:0:
141,79,26504,6,0,P|194:45|258:57,1,113.999987895966
362,119,27358,2,0,P|418:113|452:67,1,113.999987895966,0|8,0:0|0:0,0:0:0:0:
509,181,28212,6,0,L|502:245,1,59.9999952316285,0|2,0:0|0:0,0:0:0:0:
488,303,28646,2,0,P|448:344|390:336,1,113.999987895966,0|4,0:0|0:0,0:0:0:0:
327,318,29307,2,0,L|302:193,1,116.8,2|2,0:0|0:0,0:0:0:0:
287,137,29953,5,0,0:0:0:0:
160,301,30598,2,0,P|130:340|13:294,1,173,2|0,0:0|0:0,0:0:0:0:
10,195,31648,5,2,0:0:0:0:
62,66,32094,1,8,0:0:0:0:
194,43,32517,1,2,0:0:0:0:
291,129,32933,1,8,0:0:0:0:
187,200,33355,6,0,P|153:245|166:303,1,119.999990463257,2|0,0:0|0:0,0:0:0:0:
294,344,34220,2,0,L|362:330,1,59.9999952316285,0|8,0:0|0:0,0:0:0:0:
403,302,34661,1,4,0:0:0:0:
487,79,35634,6,0,L|413:68,1,71.9999920806888,4|0,0:0|0:0,0:0:0:0:
348,79,36455,2,0,L|263:68,1,71.9999920806888
233,124,37230,2,0,P|200:170|103:164,1,143.999984161378,0|8,0:0|0:0,0:0:0:0:
55,148,38327,2,0,L|38:69,1,71.9999920806888
75,17,39058,5,0,0:0:0:0:
207,36,39725,2,0,L|295:25,1,71.9999920806888,8|0,0:0|0:0,0:0:0:0:
332,65,40308,2,0,L|412:54,1,59.9999952316285,0|4,0:0|0:0,0:0:0:0:
483,157,41058,6,0,P|492:219|433:268,1,119.999990463257
345,328,42056,1,0,0:0:0:0:
152,312,42671,2,0,L|81:325,1,59.9999952316285
27,332,43099,5,0,0:0:0:0:
16,198,43527,2,0,L|27:139,1,56.999993947983,8|0,0:0|0:0,0:0:0:0:
88,111,43955,2,0,L|98:54,1,50.999996919632,0|4,0:0|0:0,0:0:0:0:
216,93,44553,6,0,P|251:150|218:207,1,113.999987895966
196,321,45342,2,0,P|248:340|300:311,1,107.999988121033,8|0,0:0|0:0,0:0:0:0:
350,275,45901,2,0,B|411:264,1,53.9999940605166
467,234,46273,5,0,0:0:0:0:
488,113,46646,2,0,P|461:42|375:46,1,161.99998218155,8|0,0:0|0:0,0:0:0:0:
296,117,47615,5,4,0:0:0:0:
34,276,48763,1,0,0:0:0:0:
10,155,49147,6,0,L|16:90,1,59.9999952316285,4|4,0:0|0:0,0:0:0:0:
151,59,49738,2,0,L|145:122,1,53.9999940605166,8|0,0:0|0:0,0:0:0:0:
191,167,50115,2,0,L|185:230,1,53.9999940605166,8|0,0:0|0:0,0:0:0:0:
232,338,50680,6,0,P|294:345|328:307,1,107.999988121033,4|0,0:0|0:0,0:0:0:0:
433,232,51461,2,0,P|481:201|485:144,1,107.999988121033,0|8,0:0|0:0,0:0:0:0:
471,86,52048,2,0,L|402:78,1,53.9999940605166,2|0,0:0|0:0,0:0:0:0:
354,49,52435,5,2,0:0:0:0:
239,117,52821,2,0,L|246:194,1,53.9999940605166,10|8,0:0|0:0,0:0:0:0:
296,218,53207,2,0,L|303:294,1,53.9999940605166,10|0,0:0|0:0,0:0:0:0:
190,350,53784,6,0,P|116:343|92:307,1,107.999988121033,4|0,0:0|0:0,0:0:0:0:
32,191,54550,2,0,P|18:134|48:88,1,107.999988121033,0|8,0:0|0:0,0:0:0:0:
102,57,55125,2,0,L|168:42,1,53.9999940605166,2|0,0:0|0:0,0:0:0:0:
223,26,55508,5,2,0:0:0:0:
366,25,55890,2,0,P|403:87|335:157,1,161.99998218155,10|0,0:0|0:0,0:0:0:0:
221,180,56845,6,0,P|188:233|207:285,1,107.999988121033,4|0,0:0|0:0,0:0:0:0:
302,353,57609,2,0,P|360:350|393:310,1,107.999988121033,8|0,0:0|0:0,0:0:0:0:
382,247,58183,2,0,L|369:186,1,53.9999940605166,8|0,0:0|0:0,0:0:0:0:
353,127,58565,5,0,0:0:0:0:
453,32,58947,2,0,L|465:94,1,53.9999940605166,8|0,0:0|0:0,0:0:0:0:
501,143,59329,2,0,L|514:206,1,53.9999940605166,8|0,0:0|0:0,0:0:0:0:
447,321,59928,5,4,0:0:0:0:
48,238,61089,1,8,0:0:0:0:
97,127,61476,6,0,B|165:115,1,53.9999940605166,4|4,0:0|0:0,0:0:0:0:
241,32,62057,2,0,L|302:57,1,53.9999940605166,8|0,0:0|0:0,0:0:0:0:
362,50,62444,2,0,L|422:74,1,53.9999940605166,8|0,0:0|0:0,0:0:0:0:
432,207,63024,6,0,P|378:273|296:252,1,161.99998218155,4|2,0:0|0:0,0:0:0:0:
270,206,63774,2,0,P|261:120|185:91,1,161.99998218155,0|2,0:0|0:0,0:0:0:0:
129,93,64524,5,0,0:0:0:0:
38,265,65086,2,0,P|52:321|102:347,1,107.999988121033,2|10,0:0|0:0,0:0:0:0:
161,340,65646,1,0,0:0:0:0:
298,309,66016,6,0,P|306:251|269:212,1,107.999988121033,0|8,0:0|0:0,0:0:0:0:
216,177,66571,2,0,P|177:133|189:79,1,107.999988121033,2|2,0:0|0:0,0:0:0:0:
221,28,67127,1,8,0:0:0:0:
352,31,67498,6,0,P|413:38|439:94,1,107.999988121033,4|0,0:0|0:0,0:0:0:0:
440,209,68248,2,0,L|436:339,1,107.999988121033,0|8,0:0|0:0,0:0:0:0:
318,344,68998,6,0,L|322:281,1,53.9999940605166,4|2,0:0|0:0,0:0:0:0:
308,223,69373,2,0,P|264:184|212:193,1,107.999988121033
81,348,70310,5,2,0:0:0:0:
43,292,70498,2,0,L|35:165,1,107.999988121033,0|8,0:0|0:0,0:0:0:0:
18,115,71060,2,0,P|60:69|107:71,1,107.999988121033,2|10,0:0|0:0,0:0:0:0:
168,95,71623,1,0,0:0:0:0:
190,230,71998,5,8,0:0:0:0:
262,340,72373,1,2,0:0:0:0:
393,329,72748,1,8,0:0:0:0:
442,206,73123,1,2,0:0:0:0:
401,80,73498,6,0,L|520:34,2,107.999988121033,12|8|0,0:0|0:0|0:0,0:0:0:0:
284,142,74623,1,4,0:0:0:0:
173,69,74998,6,0,P|123:32|69:41,1,107.999988121033,4|8,0:0|0:0,0:0:0:0:
25,83,75560,1,2,0:0:0:0:
6,149,75748,2,0,L|0:282,1,107.999988121033,0|8,0:0|0:0,0:0:0:0:
100,334,76498,1,0,0:0:0:0:
190,250,76873,1,0,0:0:0:0:
296,312,77248,6,0,P|348:339|401:322,1,107.999988121033,4|8,0:0|0:0,0:0:0:0:
456,291,77810,1,2,0:0:0:0:
492,232,77998,2,0,L|477:109,1,107.999988121033,0|8,0:0|0:0,0:0:0:0:
374,58,78748,1,0,0:0:0:0:
280,141,79123,1,0,0:0:0:0:
263,267,79498,6,0,P|216:303|159:295,1,107.999988121033,4|8,0:0|0:0,0:0:0:0:
104,269,80060,1,2,0:0:0:0:
46,226,80248,2,0,L|35:95,1,107.999988121033,0|8,0:0|0:0,0:0:0:0:
120,25,80998,1,0,0:0:0:0:
203,118,81373,1,0,0:0:0:0:
311,53,81748,6,0,L|438:40,1,107.999988121033,4|8,0:0|0:0,0:0:0:0:
483,78,82310,1,2,0:0:0:0:
475,144,82498,2,0,L|346:158,1,107.999988121033,0|8,0:0|0:0,0:0:0:0:
248,201,83248,1,0,0:0:0:0:
288,315,83623,1,0,0:0:0:0:
164,330,83998,6,0,L|49:342,2,107.999988121033,4|0|8,0:0|0:0|0:0,0:0:0:0:
288,315,85123,1,0,0:0:0:0:
405,274,85498,5,4,0:0:0:0:
477,176,85873,2,0,P|479:119|436:79,1,107.999988121033,8|0,0:0|0:0,0:0:0:0:
331,41,86623,1,0,0:0:0:0:
258,141,86998,6,0,L|275:272,2,107.999988121033,4|0|0,0:0|0:0|0:0,0:0:0:0:
163,57,88123,1,0,0:0:0:0:
66,138,88498,6,0,P|36:188|51:244,2,107.999988121033,4|8|0,0:0|0:0|0:0,0:0:0:0:
163,57,89623,1,0,0:0:0:0:
287,73,89998,5,4,0:0:0:0:
395,136,90373,2,0,P|410:192|377:240,1,107.999988121033,0|8,0:0|0:0,0:0:0:0:
289,313,91123,1,0,0:0:0:0:
168,299,91498,6,0,L|57:351,2,107.999988121033,4|8|0,0:0|0:0|0:0,0:0:0:0:
179,181,92623,1,4,0:0:0:0:
68,106,93051,6,0,P|104:60|157:54,1,107.999988121033,8|8,3:2|3:2,0:0:0:0:
275,83,93832,2,0,P|332:90|375:53,1,107.999988121033,8|8,3:2|3:2,0:0:0:0:
460,142,94572,2,0,L|447:270,1,107.999988121033,8|8,3:2|3:2,0:0:0:0:
335,295,95340,2,0,L|350:170,1,107.999988121033,8|8,3:2|3:2,0:0:0:0:
256,192,96111,12,0,98864,0:0:0:0:
