osu file format v14

[General]
AudioFilename: Hungarian dance No.5 in G minor (Brahms).mp3
AudioLeadIn: 0
PreviewTime: 21380
Countdown: 0
SampleSet: Soft
StackLeniency: 0.7
Mode: 0
LetterboxInBreaks: 0
WidescreenStoryboard: 0

[Editor]
Bookmarks: 1877,2115,5243,8621,11216,13526,15369,17616,19498,21380,22874,24796,26504,28212,29734,31648,33355,35206,35634,39059,41058,43099,44553,46273,47615,49147,50680,52435,53784,55508,56845,58565,59928,61476,63024,64336,66016,67497,68998,70310,71998,73498,74998,77248,79498,81748,83998,85498,86998,88498,89998,91498,93051
DistanceSpacing: 1
BeatDivisor: 4
GridSize: 32
TimelineZoom: 1.499999

[Metadata]
Title:Hungarian Dance No. 5 in G minor
TitleUnicode:Hungarian Dance No. 5 in G minor
Artist:Martynas
ArtistUnicode:Martynas
Creator:Sieg
Version:Hard
Source:
Tags:brahms instrumental violin accordion
BeatmapID:599129
BeatmapSetID:199998

[Difficulty]
HPDrainRate:5
CircleSize:3.5
OverallDifficulty:6
ApproachRate:7
SliderMultiplier:2.39999990463257
SliderTickRate:2

[Events]
//Background and Video events
0,0,"bg.jpg",0,0
//Break Periods
//Storyboard Layer 0 (Background)
//Storyboard Layer 1 (Fail)
//Storyboard Layer 2 (Pass)
//Storyboard Layer 3 (Foreground)
//Storyboard Sound Samples

[TimingPoints]
1877,952.380952380952,4,2,1,50,1,8
2115,930.232558139535,4,2,1,70,1,0
2580,1000,4,2,1,70,1,8
3080,890.207715133531,4,2,1,70,1,8
3525,869.565217391304,4,2,1,70,1,8
3959,833.333333333333,4,2,1,70,1,8
4375,895.522388059701,4,2,1,70,1,8
4821,845.070422535211,4,2,1,70,1,8
5666,784.313725490196,4,2,1,70,1,0
6450,769.230769230769,4,2,1,70,1,8
6834,701.754385964912,4,2,1,70,1,8
7184,821.917808219178,4,2,1,70,1,8
7551,727.272727272727,4,2,1,70,1,8
7914,727.272727272727,4,2,1,70,1,8
8278,685.714285714286,4,2,1,70,1,8
8621,689.655172413793,4,2,1,70,1,0
9310,674.157303370787,4,2,1,70,1,8
9647,634.920634920635,4,2,1,70,1,8
9964,626.304801670146,4,2,1,70,1,8
11216,600,4,2,1,70,1,0
12416,555.555555555556,4,2,1,70,1,8
13526,544.464609800363,4,2,1,70,1,0
14070,521.739130434783,4,2,1,70,1,8
14330,500,4,2,1,70,1,8
14580,526.315789473684,4,2,1,70,1,8
15369,550.45871559633,4,2,1,70,1,8
15644,465.116279069767,4,2,1,70,1,0
15876,508.474576271186,4,2,1,70,1,8
16384,502.092050209205,4,2,1,70,1,8
16635,490.998363338789,4,2,1,70,1,8
17616,470.588235294118,4,2,1,70,1,0
21380,427.046263345196,4,2,1,70,1,1
28212,434.782608695652,4,2,1,70,1,1
28646,441.176470588235,4,2,1,70,1,9
29307,416.666666666667,4,2,1,70,1,9
29515,438.59649122807,4,2,1,70,1,9
29953,410.958904109589,4,2,1,70,1,1
30158,441.176470588235,4,2,1,70,1,9
30378,441.176470588235,4,2,1,70,1,9
30818,389.61038961039,4,2,1,70,1,9
31012,444.444444444444,4,2,1,70,1,9
31234,400,4,2,1,70,1,9
31434,428.571428571429,4,2,1,70,1,9
31648,446.760982874162,4,2,1,70,1,1
32094,423.429781227946,4,2,1,70,1,9
32517,416.666666666667,4,2,1,70,1,9
32933,422.535211267606,4,2,1,70,1,9
33355,443.458980044346,4,2,1,70,1,1
34020,400,4,2,1,70,1,9
34220,441.176470588235,4,2,1,70,1,9
34661,1090.90909090909,4,2,1,70,1,9
34729,-100,4,2,1,70,0,8
35206,857.142857142857,4,2,1,40,1,8
35634,821.917808219178,4,2,1,70,1,0
36865,731.707317073171,4,2,1,70,1,8
37230,731.707317073171,4,2,1,70,1,8
38693,731.707317073171,4,2,1,70,1,0
39059,666.666666666667,4,2,1,70,1,8
39392,666.666666666667,4,2,1,70,1,8
40058,500,4,2,1,70,1,8
41058,512.820512820513,4,2,1,70,1,0
41570,487.80487804878,4,2,1,70,1,8
42056,375,4,2,1,70,1,8
42056,-117.647058823529,4,2,1,70,0,8
42243,428.571428571429,4,2,1,70,1,8
42457,428.571428571429,4,2,1,70,1,8
42885,428.571428571429,4,2,1,70,1,0
43955,402.684563758389,4,2,1,70,1,8
44156,397.350993377483,4,2,1,70,1,8
44553,394.736842105263,4,2,1,70,1,0
45342,372.670807453416,4,2,1,70,1,8
46087,372.670807453416,4,2,1,70,1,0
46646,400,4,2,1,70,1,8
46846,400,4,2,1,70,1,8
47446,338.028169014084,4,2,1,70,1,8
47615,363.636363636364,4,2,1,70,1,0
48251,451.127819548872,4,2,1,70,1,8
48363,400,4,2,1,70,1,8
48763,384.615384615385,4,2,1,70,1,8
49147,413.793103448276,4,2,1,70,1,0
49353,394.736842105263,4,2,1,70,1,8
49550,376.884422110553,4,2,1,70,1,8
50680,390.879478827362,4,2,1,70,1,1
52243,385.852090032154,4,2,1,70,1,1
53784,383.386581469649,4,2,1,70,1,1
55317,382.165605095541,4,2,1,70,1,1
59520,408.163265306122,4,2,1,70,1,9
59928,387.096774193548,4,2,1,70,1,1
62661,-100,4,2,1,70,0,0
63024,375,4,2,1,70,1,0
65276,370.37037037037,4,2,1,70,1,8
66016,370.37037037037,4,2,1,70,1,8
67498,375,4,2,1,70,1,0
74998,-100,4,2,1,70,0,1
75021,-100,4,2,1,70,0,0
79498,-100,4,2,1,70,0,1
79521,-100,4,2,1,70,0,0
83998,-100,4,2,1,70,0,1
92623,428.571428571429,4,2,1,70,1,9
92649,-100,4,2,1,70,0,8
93051,402.684563758389,4,2,1,50,1,0
93252,-100,4,2,1,20,0,0
93453,379.746835443038,4,2,1,50,1,8
93642,-100,4,2,1,20,0,8
93832,365.853658536585,4,2,1,50,1,8
94014,-100,4,2,1,20,0,8
94197,375,4,2,1,50,1,8
94384,-100,4,2,1,20,0,8
94572,389.61038961039,4,2,1,50,1,0
94766,-100,4,2,1,20,0,0
94961,379.746835443038,4,2,1,50,1,8
95150,-100,4,2,1,20,0,8
95340,384.615384615385,4,2,1,50,1,8
95532,-100,4,2,1,20,0,8
95724,387.096774193548,4,2,1,50,1,8
95917,-100,4,2,1,20,0,8
96111,487.80487804878,4,2,1,50,1,0
96354,431.654676258993,4,2,1,50,1,8
96569,431.654676258993,4,2,1,50,1,8
97001,365.853658536585,4,2,1,50,1,8
97183,480,4,2,1,50,1,8
97423,521.739130434783,4,2,1,50,1,8
97683,428.571428571429,4,2,1,50,1,8
97897,545.454545454546,4,2,1,50,1,0
98442,422.535211267606,4,2,1,50,1,8

[Colours]
Combo1 : 85,53,146
Combo2 : 175,0,42
Combo3 : 0,123,167
Combo4 : 255,191,0

[HitObjects]
75,79,1877,6,0,L|48:130,1,39.9999984105428
87,149,2115,2,0,L|95:269,1,119.999995231629,4|0,0:0|0:0,0:0:0:0:
256,320,3080,1,8,0:0:0:0:
411,260,3525,2,0,L|417:194,1,59.9999976158143,0|0,0:0|0:0,0:0:0:0:
493,152,3959,2,0,L|480:30,1,119.999995231629,0|0,0:0|0:0,0:0:0:0:
320,64,4821,1,8,0:0:0:0:
332,231,5243,6,0,L|308:301,1,59.9999976158143,0|0,0:0|0:0,0:0:0:0:
227,279,5666,2,0,P|207:209|151:186,1,119.999995231629
9,162,6450,1,8,0:0:0:0:
121,50,6834,2,0,L|182:40,1,59.9999976158143,0|0,0:0|0:0,0:0:0:0:
252,94,7184,2,0,L|371:108,1,107.5,0|0,0:0|0:0,0:0:0:0:
512,192,7914,1,8,0:0:0:0:
512,192,8277,1,0,0:0:0:0:
400,316,8621,6,0,P|338:354|281:334,1,119.999995231629
311,186,9310,1,8,0:0:0:0:
461,101,9647,2,0,L|507:28,1,59.9999976158143,0|0,0:0|0:0,0:0:0:0:
406,19,9964,2,0,P|347:61|288:45,1,119.999995231629
140,37,10590,1,8,0:0:0:0:
140,37,10903,1,0,0:0:0:0:
41,161,11216,6,0,L|32:228,2,59.9999976158143,4|0|0,0:0|0:0|0:0,0:0:0:0:
121,211,11666,2,0,L|138:294,1,59.9999976158143,0|0,0:0|0:0,0:0:0:0:
277,351,12116,2,0,L|298:291,1,59.9999976158143,0|0,0:0|0:0,0:0:0:0:
256,220,12416,2,0,B|241:201|257:163|257:157|275:125|259:103,1,119.999995231629,0|0,0:0|0:0,0:0:0:0:
372,37,12971,1,8,0:0:0:0:
372,37,13249,1,0,0:0:0:0:
496,140,13527,6,0,P|502:212|458:254,1,119.999995231629
362,350,14070,1,8,0:0:0:0:
205,298,14330,2,0,L|136:328,1,59.9999976158143,0|0,0:0|0:0,0:0:0:0:
78,266,14580,2,0,P|139:228|147:168,1,119.999995231629
14,132,15106,1,8,0:0:0:0:
129,40,15369,6,0,P|169:48|192:68,1,59.9999976158143,0|0,0:0|0:0,0:0:0:0:
252,109,15644,2,0,P|309:64|368:78,1,119.999995231629
341,192,16130,1,8,0:0:0:0:
246,293,16384,2,0,L|184:272,2,59.9999976158143,0|0|0,0:0|0:0|0:0,0:0:0:0:
372,329,16880,1,8,0:0:0:0:
482,257,17125,1,0,0:0:0:0:
494,125,17371,1,8,0:0:0:0:
359,34,17616,6,0,P|327:47|303:89,2,59.9999976158143,2|0|0,0:0|0:0|0:0,0:0:0:0:
209,59,18086,2,0,P|191:88|196:136,2,59.9999976158143,8|0|0,0:0|0:0|0:0,0:0:0:0:
66,112,18557,2,0,P|59:145|82:188,2,59.9999976158143,2|0|0,0:0|0:0|0:0,0:0:0:0:
9,256,19027,2,0,P|23:286|67:308,2,59.9999976158143,8|0|0,0:0|0:0|0:0,0:0:0:0:
225,257,19498,6,0,L|212:334,2,59.9999976158143,2|0|0,0:0|0:0|0:0,0:0:0:0:
355,160,19968,2,0,P|426:172|455:225,2,119.999995231629
352,292,20674,1,8,0:0:0:0:
149,350,20910,1,4,0:0:0:0:
8,30,21380,6,0,L|142:19,1,119.999995231629,4|2,0:0|0:0,0:0:0:0:
215,120,21807,1,8,0:0:0:0:
97,180,22020,2,0,L|62:235,1,59.9999976158143,2|0,0:0|0:0,0:0:0:0:
30,303,22234,2,0,P|99:271|143:293,1,119.999995231629,0|2,0:0|0:0,0:0:0:0:
256,339,22661,1,8,0:0:0:0:
377,287,22874,6,0,L|437:261,1,59.9999976158143,2|0,0:0|0:0,0:0:0:0:
506,233,23088,2,0,P|431:221|405:179,1,119.999995231629,0|2,0:0|0:0,0:0:0:0:
507,101,23515,1,8,0:0:0:0:
400,23,23728,1,2,0:0:0:0:
352,28,23835,1,0,0:0:0:0:
304,35,23942,2,0,L|294:167,1,119.999995231629,0|2,0:0|0:0,0:0:0:0:
234,314,24369,1,8,0:0:0:0:
159,204,24582,1,2,0:0:0:0:
40,327,24796,6,0,B|12:289|12:289|12:198,1,119.999995231629,0|2,0:0|0:0,0:0:0:0:
56,90,25223,1,8,0:0:0:0:
171,27,25436,1,2,0:0:0:0:
207,58,25543,1,0,0:0:0:0:
243,88,25650,2,0,B|271:126|271:126|271:217,1,119.999995231629,0|2,0:0|0:0,0:0:0:0:
291,329,26077,1,8,0:0:0:0:
291,329,26291,1,2,0:0:0:0:
401,200,26504,6,0,L|474:220,2,59.9999976158143,0|0|2,0:0|0:0|0:0,0:0:0:0:
234,257,26931,2,0,P|183:307|116:300,1,119.999995231629,0|2,0:0|0:0,0:0:0:0:
113,108,27358,2,0,P|164:58|231:65,1,119.999995231629,0|2,0:0|0:0,0:0:0:0:
176,184,27785,1,8,0:0:0:0:
176,184,27999,1,2,0:0:0:0:
289,90,28212,6,0,P|349:96|408:52,1,119.999995231629,0|2,0:0|0:0,0:0:0:0:
210,56,28646,2,0,P|151:63|113:107,1,119.999995231629,0|2,0:0|0:0,0:0:0:0:
119,240,29087,1,4,0:0:0:0:
201,352,29307,1,2,0:0:0:0:
76,361,29515,1,0,0:0:0:0:
8,216,29734,6,0,L|-2:142,1,59.9999976158143,2|0,0:0|0:0,0:0:0:0:
0,105,29953,2,0,P|63:69|119:92,1,119.999995231629,0|2,0:0|0:0,0:0:0:0:
224,170,30378,1,8,0:0:0:0:
283,304,30598,2,0,L|338:253,1,59.9999976158143,2|0,0:0|0:0,0:0:0:0:
360,299,30818,2,0,P|431:313|477:275,1,119.999995231629,0|2,0:0|0:0,0:0:0:0:
478,243,31123,1,0,0:0:0:0:
489,193,31234,2,0,L|514:65,1,119.999995231629,0|2,0:0|0:0,0:0:0:0:
383,104,31648,6,0,L|398:18,2,59.9999976158143,2|0|0,0:0|0:0|0:0,0:0:0:0:
273,77,32094,2,0,L|258:-8,2,59.9999976158143,8|0|0,0:0|0:0|0:0,0:0:0:0:
153,79,32517,2,0,L|110:4,2,59.9999976158143,2|0|0,0:0|0:0|0:0,0:0:0:0:
46,119,32933,2,0,L|-20:64,2,59.9999976158143,8|0|0,0:0|0:0|0:0,0:0:0:0:
20,266,33355,6,0,L|-5:342,2,59.9999976158143,2|0|0,0:0|0:0|0:0,0:0:0:0:
140,311,33798,2,0,P|210:329|258:293,1,119.999995231629,0|2,0:0|0:0,0:0:0:0:
331,214,34220,1,0,0:0:0:0:
183,172,34440,1,8,0:0:0:0:
300,63,34661,1,4,0:0:0:0:
327,284,35206,6,0,P|271:306|226:292,1,89.9999964237214,4|0,0:0|0:0,0:0:0:0:
216,275,35634,2,0,P|152:310|96:287,1,119.999995231629,4|0,0:0|0:0,0:0:0:0:
25,132,36455,2,0,P|88:96|144:119,1,119.999995231629
302,106,37230,2,0,B|337:56|337:56|409:33,1,119.999995231629,0|0,0:0|0:0,0:0:0:0:
431,183,37961,1,8,0:0:0:0:
407,330,38327,2,0,B|347:317|347:317|297:260,1,119.999995231629
209,136,39059,6,0,L|80:119,1,119.999995231629
16,242,39725,2,0,L|-8:327,2,59.9999976158143,8|0|0,0:0|0:0|0:0,0:0:0:0:
137,331,40308,2,0,L|188:283,1,59.9999976158143,0|0,0:0|0:0,0:0:0:0:
204,333,40558,2,0,P|269:363|324:336,1,119.999995231629,4|0,0:0|0:0,0:0:0:0:
253,183,41058,6,0,P|187:152|132:179,1,119.999995231629
331,217,41570,2,0,P|281:264|214:257,1,119.999995231629,0|0,0:0|0:0,0:0:0:0:
321,135,42056,2,0,P|386:156|409:193,1,101.99999789238
405,325,42457,1,8,0:0:0:0:
507,240,42671,2,0,L|513:100,1,119.999995231629,0|0,0:0|0:0,0:0:0:0:
385,54,43099,6,0,P|318:25|264:54,1,119.999995231629
222,222,43527,2,0,L|294:242,2,59.9999976158143,8|0|0,0:0|0:0|0:0,0:0:0:0:
172,343,43955,2,0,L|108:323,1,59.9999976158143,0|0,0:0|0:0,0:0:0:0:
71,346,44156,2,0,P|14:300|15:239,1,119.999995231629,4|0,0:0|0:0,0:0:0:0:
9,57,44553,6,0,L|137:24,1,119.999995231629,0|0,0:0|0:0,0:0:0:0:
165,140,44947,2,0,L|299:126,1,119.999995231629,0|0,0:0|0:0,0:0:0:0:
370,42,45342,1,8,0:0:0:0:
482,91,45528,2,0,L|515:219,1,119.999995231629
402,240,45901,2,0,B|414:303|414:303|385:368,1,119.999995231629,0|0,0:0|0:0,0:0:0:0:
261,268,46273,6,0,B|249:205|249:205|278:140,1,119.999995231629
365,73,46646,2,0,L|266:67,2,59.9999976158143,8|0|0,0:0|0:0|0:0,0:0:0:0:
271,153,47046,2,0,L|204:150,1,59.9999976158143,8|0,0:0|0:0,0:0:0:0:
164,154,47246,2,0,P|105:197|104:258,1,119.999995231629
233,325,47615,5,4,0:0:0:0:
489,205,48251,2,0,B|481:138,1,59.9999976158143
256,32,48763,1,0,0:0:0:0:
213,260,49147,5,4,0:0:0:0:
299,124,49353,1,4,0:0:0:0:
47,60,49738,2,0,L|22:122,2,59.9999976158143,8|0|0,0:0|0:0|0:0,0:0:0:0:
109,212,50115,2,0,L|134:150,2,59.9999976158143,8|0|0,0:0|0:0|0:0,0:0:0:0:
482,99,50680,6,0,P|494:179|456:236,1,119.999995231629,4|2,0:0|0:0,0:0:0:0:
320,96,51070,2,0,P|395:124|424:186,1,119.999995231629,0|2,0:0|0:0,0:0:0:0:
232,232,51461,2,0,P|294:181|362:186,1,119.999995231629,0|2,0:0|0:0,0:0:0:0:
334,304,51852,1,8,0:0:0:0:
219,352,52048,2,0,L|89:332,1,119.999995231629,2|0,0:0|0:0,0:0:0:0:
3,215,52435,6,0,P|20:144|75:119,1,119.999995231629,2|0,0:0|0:0,0:0:0:0:
173,217,52821,2,0,L|241:236,2,59.9999976158143,10|0|8,0:0|0:0|0:0,0:0:0:0:
262,123,53207,2,0,L|321:141,1,59.9999976158143,10|0,0:0|0:0,0:0:0:0:
355,167,53400,2,0,P|352:239|398:278,1,119.999995231629,0|2,0:0|0:0,0:0:0:0:
512,130,53784,6,0,P|514:57|468:18,1,119.999995231629,4|2,0:0|0:0,0:0:0:0:
323,59,54167,2,0,P|254:83|203:52,1,119.999995231629,0|2,0:0|0:0,0:0:0:0:
47,35,54550,2,0,L|34:159,1,119.999995231629,0|2,0:0|0:0,0:0:0:0:
21,294,54934,1,8,0:0:0:0:
140,223,55125,2,0,P|157:152|212:127,1,119.999995231629,2|0,0:0|0:0,0:0:0:0:
258,227,55508,6,0,B|272:255|259:285|259:295|244:323|258:355,1,119.999995231629,2|0,0:0|0:0,0:0:0:0:
380,227,55890,2,0,L|403:172,2,59.9999976158143,10|0|0,0:0|0:0|0:0,0:0:0:0:
487,268,56272,2,0,L|465:324,2,59.9999976158143,10|0|0,0:0|0:0|0:0,0:0:0:0:
232,336,56845,6,0,P|159:338|120:292,1,119.999995231629,4|0,0:0|0:0,0:0:0:0:
138,164,57227,2,0,P|65:161|26:207,1,119.999995231629
201,248,57609,1,8,0:0:0:0:
211,100,57801,2,0,P|174:36|114:28,1,119.999995231629
236,174,58183,1,8,0:0:0:0:
311,298,58374,1,0,0:0:0:0:
395,179,58565,6,0,L|512:140,1,119.999995231629
371,67,58947,2,0,L|348:12,2,59.9999976158143,8|0|0,0:0|0:0|0:0,0:0:0:0:
314,194,59329,2,0,L|336:250,2,59.9999976158143,8|0|0,0:0|0:0|0:0,0:0:0:0:
249,61,59724,1,0,0:0:0:0:
240,253,59928,5,4,0:0:0:0:
454,106,60508,2,0,B|468:128|456:171|455:164|439:196|454:227,1,119.999995231629
249,61,61089,1,8,0:0:0:0:
298,334,61476,5,4,0:0:0:0:
117,195,61669,1,4,0:0:0:0:
295,196,62057,2,0,L|318:141,2,59.9999976158143,8|0|0,0:0|0:0|0:0,0:0:0:0:
196,287,62444,2,0,L|174:343,2,59.9999976158143,8|0|0,0:0|0:0|0:0,0:0:0:0:
420,306,63024,6,0,P|461:246|444:188,1,119.999995231629,4|2,0:0|0:0,0:0:0:0:
425,84,63399,1,8,0:0:0:0:
304,53,63586,2,0,P|231:60|189:17,1,119.999995231629,2|0,0:0|0:0,0:0:0:0:
84,78,63961,1,10,0:0:0:0:
40,190,64149,1,0,0:0:0:0:
95,296,64336,6,0,P|128:288|165:301,1,59.9999976158143,2|0,0:0|0:0,0:0:0:0:
197,320,64524,2,0,P|269:317|305:268,1,119.999995231629,0|2,0:0|0:0,0:0:0:0:
213,201,64899,1,8,0:0:0:0:
275,99,65086,2,0,L|208:56,2,59.9999976158143,2|0|0,0:0|0:0|0:0,0:0:0:0:
378,163,65461,1,10,0:0:0:0:
447,260,65646,1,0,0:0:0:0:
366,348,65831,1,2,0:0:0:0:
208,348,66016,6,0,P|142:316|129:257,1,119.999995231629,0|2,0:0|0:0,0:0:0:0:
216,169,66386,1,8,0:0:0:0:
350,204,66571,1,2,0:0:0:0:
378,163,66664,1,0,0:0:0:0:
389,119,66756,2,0,P|377:61|328:29,1,119.999995231629,0|2,0:0|0:0,0:0:0:0:
184,49,67127,1,8,0:0:0:0:
184,49,67312,1,2,0:0:0:0:
225,160,67498,6,0,L|257:242,2,59.9999976158143,4|0|2,0:0|0:0|0:0,0:0:0:0:
150,254,67873,2,0,P|57:247|7:173,1,179.999992847443,0|0,0:0|0:0,0:0:0:0:
7,137,68248,2,0,P|9:78|52:38,1,119.999995231629,0|2,0:0|0:0,0:0:0:0:
184,49,68623,1,8,0:0:0:0:
104,164,68810,1,2,0:0:0:0:
240,226,68998,6,0,P|295:229|345:181,1,119.999995231629,4|2,0:0|0:0,0:0:0:0:
352,49,69373,2,0,L|298:24,2,59.9999976158143,0|0|2,0:0|0:0|0:0,0:0:0:0:
489,100,69748,2,0,P|520:148|507:205,1,119.999995231629,0|2,0:0|0:0,0:0:0:0:
483,354,70123,1,8,0:0:0:0:
362,357,70310,6,0,L|270:340,1,59.9999976158143,2|0,0:0|0:0,0:0:0:0:
267,321,70498,2,0,P|222:279|152:283,1,119.999995231629,0|2,0:0|0:0,0:0:0:0:
57,328,70873,1,8,0:0:0:0:
20,213,71060,2,0,L|-3:140,2,59.9999976158143,2|0|0,0:0|0:0|0:0,0:0:0:0:
125,155,71435,1,10,0:0:0:0:
57,55,71623,1,0,0:0:0:0:
176,46,71810,1,2,0:0:0:0:
318,58,71998,6,0,L|385:47,2,59.9999976158143,8|0|0,0:0|0:0|0:0,0:0:0:0:
304,232,72373,2,0,L|359:268,2,59.9999976158143,2|0|0,0:0|0:0|0:0,0:0:0:0:
375,153,72748,2,0,L|436:164,2,59.9999976158143,8|0|0,0:0|0:0|0:0,0:0:0:0:
271,326,73123,2,0,L|297:381,2,59.9999976158143,2|0|0,0:0|0:0|0:0,0:0:0:0:
179,247,73498,5,12,0:0:0:0:
179,247,73591,1,0,0:0:0:0:
179,247,73685,1,2,0:0:0:0:
94,161,73873,2,0,B|80:139|92:96|93:103|109:71|94:40,2,119.999995231629,8|0|0,0:0|0:0|0:0,0:0:0:0:
124,309,74435,1,4,0:0:0:0:
249,185,74623,1,4,0:0:0:0:
505,281,74998,6,0,P|444:312|383:312,1,119.999995231629,4|2,0:0|0:0,0:0:0:0:
412,169,75373,1,8,0:0:0:0:
412,169,75560,1,2,0:0:0:0:
250,185,75748,2,0,P|189:216|111:218,1,119.999995231629,0|2,0:0|0:0,0:0:0:0:
151,75,76123,1,8,0:0:0:0:
151,75,76310,1,2,0:0:0:0:
250,185,76498,2,0,P|281:246|283:324,1,119.999995231629,0|2,0:0|0:0,0:0:0:0:
329,146,76873,2,0,P|355:84|414:32,1,119.999995231629,0|2,0:0|0:0,0:0:0:0:
204,76,77248,6,0,P|135:72|67:33,1,119.999995231629,4|2,0:0|0:0,0:0:0:0:
21,188,77623,1,8,0:0:0:0:
21,188,77810,1,2,0:0:0:0:
127,327,77998,2,0,P|195:323|263:284,1,119.999995231629,0|2,0:0|0:0,0:0:0:0:
299,162,78373,1,8,0:0:0:0:
299,162,78560,1,2,0:0:0:0:
414,58,78748,2,0,P|458:110|479:185,1,119.999995231629,0|2,0:0|0:0,0:0:0:0:
417,335,79123,2,0,P|355:302|286:297,1,119.999995231629,0|2,0:0|0:0,0:0:0:0:
127,327,79498,6,0,P|96:265|93:196,1,119.999995231629,4|2,0:0|0:0,0:0:0:0:
160,82,79873,1,8,0:0:0:0:
160,82,80060,1,2,0:0:0:0:
222,222,80248,2,0,P|284:253|353:256,1,119.999995231629,0|2,0:0|0:0,0:0:0:0:
482,231,80623,1,8,0:0:0:0:
482,231,80810,1,2,0:0:0:0:
384,113,80998,2,0,P|446:83|515:80,1,119.999995231629,0|2,0:0|0:0,0:0:0:0:
304,148,81373,2,0,P|235:137|177:98,1,119.999995231629,0|2,0:0|0:0,0:0:0:0:
322,303,81748,6,0,P|360:246|372:177,1,119.999995231629,4|2,0:0|0:0,0:0:0:0:
310,59,82123,1,8,0:0:0:0:
310,59,82310,1,2,0:0:0:0:
162,98,82498,2,0,P|104:60|35:48,1,119.999995231629,0|2,0:0|0:0,0:0:0:0:
49,197,82873,1,8,0:0:0:0:
49,197,83060,1,2,0:0:0:0:
160,306,83248,2,0,P|217:345|286:357,1,119.999995231629,0|2,0:0|0:0,0:0:0:0:
432,299,83623,2,0,P|470:242|482:173,1,119.999995231629,0|2,0:0|0:0,0:0:0:0:
338,116,83998,6,0,L|306:52,2,59.9999976158143,4|0|2,0:0|0:0|0:0,0:0:0:0:
188,88,84373,2,0,L|156:24,2,59.9999976158143,0|0|2,0:0|0:0|0:0,0:0:0:0:
64,173,84748,1,8,0:0:0:0:
64,173,84841,1,0,0:0:0:0:
64,173,84935,1,2,0:0:0:0:
42,322,85123,2,0,P|82:355|165:335,1,119.999995231629,0|10,0:0|0:0,0:0:0:0:
241,182,85498,6,0,L|263:105,2,59.9999976158143,4|0|2,0:0|0:0|0:0,0:0:0:0:
225,315,85873,2,0,P|265:348|348:328,1,119.999995231629,8|2,0:0|0:0,0:0:0:0:
432,233,86248,1,0,0:0:0:0:
451,86,86435,1,10,0:0:0:0:
451,86,86529,1,0,0:0:0:0:
451,86,86623,1,0,0:0:0:0:
314,141,86810,1,10,0:0:0:0:
212,256,86998,6,0,L|231:339,2,59.9999976158143,4|0|2,0:0|0:0|0:0,0:0:0:0:
151,130,87373,1,0,0:0:0:0:
51,32,87560,2,0,P|12:81|22:160,1,119.999995231629,10|0,0:0|0:0,0:0:0:0:
80,269,87935,2,0,L|50:345,2,59.9999976158143,2|0|0,0:0|0:0|0:0,0:0:0:0:
214,179,88310,1,10,0:0:0:0:
230,25,88498,6,0,L|143:16,2,59.9999976158143,4|0|2,0:0|0:0|0:0,0:0:0:0:
380,40,88873,1,8,0:0:0:0:
380,40,88966,1,0,0:0:0:0:
380,40,89060,1,2,0:0:0:0:
512,119,89248,1,0,0:0:0:0:
381,191,89435,2,0,B|393:315|393:313,1,119.999995231629,10|0,0:0|0:0,0:0:0:0:
248,348,89810,1,10,0:0:0:0:
283,203,89998,6,0,L|307:118,2,59.9999976158143,4|0|2,0:0|0:0|0:0,0:0:0:0:
176,92,90373,2,0,L|137:0,2,59.9999976158143,0|0|2,0:0|0:0|0:0,0:0:0:0:
209,250,90748,2,0,P|183:318|128:337,1,119.999995231629,8|2,0:0|0:0,0:0:0:0:
36,203,91123,2,0,P|62:135|117:116,1,119.999995231629,0|10,0:0|0:0,0:0:0:0:
258,84,91498,6,0,L|247:6,2,59.9999976158143,4|0|2,0:0|0:0|0:0,0:0:0:0:
285,230,91873,1,8,0:0:0:0:
285,230,91966,1,0,0:0:0:0:
285,230,92060,1,2,0:0:0:0:
427,106,92248,1,0,0:0:0:0:
427,106,92623,1,4,0:0:0:0:
52,327,93051,6,0,P|66:271|136:226,1,119.999995231629,8|0,3:2|0:0,0:0:0:0:
285,231,93453,2,0,L|435:259,1,119.999995231629,8|0,3:2|0:0,0:0:0:0:
495,79,93832,2,0,P|452:118|369:122,1,119.999995231629,8|0,3:2|0:0,0:0:0:0:
244,72,94197,2,0,P|194:42|112:55,1,119.999995231629,8|0,3:2|0:0,0:0:0:0:
106,256,94572,2,0,P|149:218|162:136,1,119.999995231629,8|0,3:2|0:0,0:0:0:0:
320,103,94961,2,0,B|449:88,1,119.999995231629,8|0,3:2|0:0,0:0:0:0:
340,207,95340,2,0,P|382:246|392:328,1,119.999995231629,8|0,3:2|0:0,0:0:0:0:
190,335,95724,2,0,L|329:350,1,119.999995231629,8|0,3:2|0:0,0:0:0:0:
200,193,96111,1,12,3:2:0:0:
256,192,96354,12,0,98864,0:0:0:0:
