osu file format v12

[General]
AudioFilename: 01 Animals.mp3
AudioLeadIn: 0
PreviewTime: 164785
Countdown: 1
SampleSet: Soft
StackLeniency: 0.7
Mode: 1
LetterboxInBreaks: 1
WidescreenStoryboard: 1

[Editor]
Bookmarks: 45254,47129,49004,50879,52754,54629,56504,58379,60254,217988,225254,232988,238379
DistanceSpacing: 1.5
BeatDivisor: 4
GridSize: 32
TimelineZoom: 1

[Metadata]
Title:Animals
TitleUnicode:Animals
Artist:Martin Garrix
ArtistUnicode:Martin Garrix
Creator:binaryfruit
Version:Muzukashii
Source:
Tags:
BeatmapID:429050
BeatmapSetID:177428

[Difficulty]
HPDrainRate:5
CircleSize:5
OverallDifficulty:8
ApproachRate:5
SliderMultiplier:1.4
SliderTickRate:1

[Events]
//Background and Video events
0,0,"AnimalsBG.jpg",0,228
//Break Periods
2,60454,66554
2,142954,149054
//Storyboard Layer 0 (Background)
//Storyboard Layer 1 (Fail)
//Storyboard Layer 2 (Pass)
//Storyboard Layer 3 (Foreground)
//Storyboard Sound Samples
//Background Colour Transformations
3,100,163,162,255

[TimingPoints]
254.03597383721,468.75,4,2,0,5,1,0
7754,-100,4,2,0,10,0,0
11504,-100,4,2,0,15,0,0
13379,-100,4,2,0,30,0,0
13847,-100,4,2,0,50,0,0
14316,-100,4,2,0,70,0,0
14785,-100,4,2,0,90,0,0
15250,-100,4,2,0,15,0,0
19004,-100,4,2,0,15,0,0
20879,-100,4,2,0,30,0,0
21347,-100,4,2,0,50,0,0
21816,-100,4,2,0,70,0,0
22285,-100,4,2,0,90,0,0
22754,-100,4,2,0,5,0,0
24629,-100,4,2,0,5,0,0
26504,-100,4,2,0,5,0,0
28379,-100,4,2,0,100,0,0
29785,-100,4,2,0,100,0,0
45255,-95.2380952380952,4,2,0,100,0,0
47130,-90.9090909090909,4,2,0,100,0,0
49005,-86.9565217391304,4,2,0,100,0,0
50880,-83.3333333333333,4,2,0,100,0,0
52755,-80,4,2,0,100,0,0
54630,-76.9230769230769,4,2,0,100,0,0
56505,-74.0740740740741,4,2,0,100,0,0
58261,-71.4285714285714,4,2,0,100,0,0
60254,-66.6666666666667,4,2,0,100,0,0
67754,-100,4,2,0,100,0,0
82754,-80,4,2,0,100,0,1
99629,-76.9230769230769,4,2,0,100,0,1
101504,-74.0740740740741,4,2,0,100,0,1
103379,-71.4285714285714,4,2,0,100,0,1
105254,-68.9655172413793,4,2,0,100,0,1
107129,-66.6666666666667,4,2,0,100,0,1
110879,-133.333333333333,4,2,0,100,0,1
112754,-100,4,2,0,100,0,0
125879,-80,4,2,0,100,0,1
127754,-100,4,2,0,100,0,0
140879,-80,4,2,0,100,0,1
142754,-80,4,2,0,100,0,0
150254,-100,4,2,0,100,0,0
165254,-80,4,2,0,100,0,1
182129,-76.9230769230769,4,2,0,100,0,1
184004,-74.0740740740741,4,2,0,100,0,1
185879,-71.4285714285714,4,2,0,100,0,1
187754,-68.9655172413793,4,2,0,100,0,1
189629,-66.6666666666667,4,2,0,100,0,1
193379,-133.333333333333,4,2,0,100,0,1
195254,-117.647058823529,4,2,0,100,0,0
208379,-80,4,2,0,100,0,1
210254,-117.647058823529,4,2,0,100,0,0
217988,-111.111111111111,4,2,0,100,0,0
223379,-80,4,2,0,100,0,1
225488,-100,4,2,0,100,0,0
232988,-90.9090909090909,4,2,0,100,0,0
238379,-80,4,2,0,100,0,1
240254,-100,4,2,0,100,0,0

[HitObjects]
256,192,254,5,8,0:0:0:0:
256,192,722,1,0,0:0:0:0:
256,192,1191,1,0,0:0:0:0:
256,192,1660,1,0,0:0:0:0:
256,192,2129,1,8,0:0:0:0:
256,192,2597,1,0,0:0:0:0:
256,192,3066,1,0,0:0:0:0:
256,192,3535,1,0,0:0:0:0:
256,192,4004,1,8,0:0:0:0:
256,192,4472,1,0,0:0:0:0:
256,192,4941,1,0,0:0:0:0:
256,192,5410,1,0,0:0:0:0:
256,192,5879,1,8,0:0:0:0:
256,192,6347,1,8,0:0:0:0:
256,192,6816,1,8,0:0:0:0:
256,192,7285,1,8,0:0:0:0:
256,192,7754,1,8,0:0:0:0:
256,192,8222,1,0,0:0:0:0:
256,192,8691,1,0,0:0:0:0:
256,192,9160,1,0,0:0:0:0:
256,192,9629,1,8,0:0:0:0:
256,192,10097,1,0,0:0:0:0:
256,192,10566,1,0,0:0:0:0:
256,192,11035,1,0,0:0:0:0:
256,192,11504,1,8,0:0:0:0:
256,192,11972,1,0,0:0:0:0:
256,192,12441,1,0,0:0:0:0:
256,192,12910,1,0,0:0:0:0:
256,192,13379,1,8,0:0:0:0:
256,192,13847,1,8,0:0:0:0:
256,192,14316,1,8,0:0:0:0:
256,192,14550,1,8,0:0:0:0:
256,192,14785,1,8,0:0:0:0:
256,192,15019,1,8,0:0:0:0:
256,192,15254,1,8,0:0:0:0:
256,192,15722,1,0,0:0:0:0:
256,192,16191,1,0,0:0:0:0:
256,192,16660,1,0,0:0:0:0:
256,192,17129,1,8,0:0:0:0:
256,192,17597,1,0,0:0:0:0:
256,192,18066,1,0,0:0:0:0:
256,192,18535,1,0,0:0:0:0:
256,192,19004,1,8,0:0:0:0:
256,192,19472,1,0,0:0:0:0:
256,192,19941,1,8,0:0:0:0:
256,192,20410,1,0,0:0:0:0:
256,192,20879,1,8,0:0:0:0:
256,192,21347,1,8,0:0:0:0:
256,192,21816,1,8,0:0:0:0:
256,192,22050,1,0,0:0:0:0:
256,192,22285,1,8,0:0:0:0:
256,192,22519,1,8,0:0:0:0:
256,192,22754,1,8,0:0:0:0:
256,192,23222,1,0,0:0:0:0:
256,192,23691,1,0,0:0:0:0:
256,192,24160,1,0,0:0:0:0:
256,192,24629,1,8,0:0:0:0:
256,192,25097,1,0,0:0:0:0:
256,192,25566,1,0,0:0:0:0:
256,192,26035,1,0,0:0:0:0:
256,192,26504,1,8,0:0:0:0:
256,192,26972,1,0,0:0:0:0:
256,192,27441,1,0,0:0:0:0:
256,192,27910,1,0,0:0:0:0:
256,192,28379,1,4,0:0:0:0:
256,192,30254,1,0,0:0:0:0:
256,192,30722,1,8,0:0:0:0:
256,192,31191,1,0,0:0:0:0:
256,192,31425,1,0,0:0:0:0:
256,192,31660,1,8,0:0:0:0:
256,192,32129,1,0,0:0:0:0:
256,192,32597,1,8,0:0:0:0:
256,192,33066,1,0,0:0:0:0:
256,192,33300,1,0,0:0:0:0:
256,192,33535,1,8,0:0:0:0:
256,192,34004,1,0,0:0:0:0:
256,192,34472,1,8,0:0:0:0:
256,192,34941,1,0,0:0:0:0:
256,192,35175,1,0,0:0:0:0:
256,192,35410,1,8,0:0:0:0:
256,192,35644,1,0,0:0:0:0:
256,192,35761,1,8,0:0:0:0:
256,192,35879,1,0,0:0:0:0:
256,192,36347,1,8,0:0:0:0:
256,192,36816,1,8,0:0:0:0:
256,192,37285,1,4,0:0:0:0:
256,192,37754,1,4,0:0:0:0:
256,192,38222,1,8,0:0:0:0:
256,192,38691,1,0,0:0:0:0:
256,192,38925,1,0,0:0:0:0:
256,192,39160,1,8,0:0:0:0:
256,192,39629,1,0,0:0:0:0:
256,192,40097,1,8,0:0:0:0:
256,192,40566,1,0,0:0:0:0:
256,192,41035,1,8,0:0:0:0:
256,192,41504,1,0,0:0:0:0:
256,192,41972,1,8,0:0:0:0:
256,192,42441,1,0,0:0:0:0:
256,192,42910,1,8,0:0:0:0:
256,192,43144,1,0,0:0:0:0:
256,192,43261,1,8,0:0:0:0:
256,192,43379,1,0,0:0:0:0:
256,192,43847,1,8,0:0:0:0:
256,192,44316,1,0,0:0:0:0:
256,192,44550,1,8,0:0:0:0:
256,192,44668,1,8,0:0:0:0:
256,192,44785,1,8,0:0:0:0:
256,192,45019,1,8,0:0:0:0:
256,192,45254,1,12,0:0:0:0:
256,192,45722,1,0,0:0:0:0:
256,192,46191,1,0,0:0:0:0:
256,192,46660,1,8,0:0:0:0:
256,192,47129,1,8,0:0:0:0:
256,192,47597,1,0,0:0:0:0:
256,192,48066,1,0,0:0:0:0:
256,192,48535,1,8,0:0:0:0:
256,192,48769,1,8,0:0:0:0:
256,192,49004,1,8,0:0:0:0:
256,192,49472,1,0,0:0:0:0:
256,192,49941,1,0,0:0:0:0:
256,192,50410,1,8,0:0:0:0:
256,192,50644,1,8,0:0:0:0:
256,192,50879,1,8,0:0:0:0:
256,192,51347,1,0,0:0:0:0:
256,192,51816,1,0,0:0:0:0:
256,192,52050,1,0,0:0:0:0:
256,192,52285,1,0,0:0:0:0:
256,192,52754,1,8,0:0:0:0:
256,192,53222,1,0,0:0:0:0:
256,192,53691,1,0,0:0:0:0:
256,192,54160,1,8,0:0:0:0:
256,192,54394,1,0,0:0:0:0:
256,192,54629,1,8,0:0:0:0:
256,192,55097,1,0,0:0:0:0:
256,192,55332,1,8,0:0:0:0:
256,192,55566,1,0,0:0:0:0:
256,192,56035,1,8,0:0:0:0:
256,192,56269,1,8,0:0:0:0:
256,192,56504,1,8,0:0:0:0:
256,192,56972,1,0,0:0:0:0:
256,192,57207,1,8,0:0:0:0:
256,192,57441,1,0,0:0:0:0:
256,192,57910,1,8,0:0:0:0:
256,192,58144,1,0,0:0:0:0:
256,192,58379,1,8,0:0:0:0:
256,192,58496,1,8,0:0:0:0:
256,192,58613,1,8,0:0:0:0:
256,192,58847,1,0,0:0:0:0:
256,192,58964,1,0,0:0:0:0:
256,192,59082,1,0,0:0:0:0:
256,192,59316,1,8,0:0:0:0:
256,192,59433,1,8,0:0:0:0:
256,192,59550,1,8,0:0:0:0:
256,192,59785,1,0,0:0:0:0:
256,192,59902,1,0,0:0:0:0:
256,192,60019,1,0,0:0:0:0:
256,192,60254,1,12,0:0:0:0:
256,192,67754,5,8,0:0:0:0:
256,192,68222,1,8,0:0:0:0:
256,192,68457,1,8,0:0:0:0:
256,192,68691,1,8,0:0:0:0:
256,192,69160,1,8,0:0:0:0:
256,192,69511,1,0,0:0:0:0:
256,192,69863,1,0,0:0:0:0:
256,192,70097,1,0,0:0:0:0:
256,192,70332,1,0,0:0:0:0:
256,192,70566,1,0,0:0:0:0:
256,192,71504,1,0,0:0:0:0:
256,192,71738,1,0,0:0:0:0:
256,192,71972,1,8,0:0:0:0:
256,192,72207,1,8,0:0:0:0:
256,192,72441,1,0,0:0:0:0:
256,192,72910,1,8,0:0:0:0:
256,192,73144,1,0,0:0:0:0:
256,192,73261,1,0,0:0:0:0:
256,192,73379,1,0,0:0:0:0:
256,192,73613,1,0,0:0:0:0:
256,192,73847,1,8,0:0:0:0:
256,192,74082,1,8,0:0:0:0:
256,192,74316,1,0,0:0:0:0:
256,192,74785,1,4,0:0:0:0:
256,192,75254,1,0,0:0:0:0:
256,192,75722,1,0,0:0:0:0:
256,192,75957,1,0,0:0:0:0:
256,192,76191,1,8,0:0:0:0:
256,192,76660,1,8,0:0:0:0:
256,192,77011,1,0,0:0:0:0:
256,192,77363,1,8,0:0:0:0:
256,192,77597,1,0,0:0:0:0:
256,192,77832,1,0,0:0:0:0:
256,192,78066,1,0,0:0:0:0:
256,192,78535,1,8,0:0:0:0:
256,192,79004,1,0,0:0:0:0:
256,192,79238,1,0,0:0:0:0:
256,192,79472,1,8,0:0:0:0:
256,192,79707,1,8,0:0:0:0:
256,192,79941,1,0,0:0:0:0:
256,192,80644,1,0,0:0:0:0:
256,192,80761,1,0,0:0:0:0:
256,192,80879,1,0,0:0:0:0:
256,192,81113,1,0,0:0:0:0:
256,192,81347,1,0,0:0:0:0:
256,192,81582,1,0,0:0:0:0:
256,192,81816,1,0,0:0:0:0:
256,192,82050,1,4,0:0:0:0:
256,192,82285,1,12,0:0:0:0:
256,192,82754,1,4,0:0:0:0:
256,192,83222,1,0,0:0:0:0:
256,192,83457,1,0,0:0:0:0:
256,192,83691,1,8,0:0:0:0:
256,192,84160,1,8,0:0:0:0:
256,192,84511,1,8,0:0:0:0:
256,192,84629,1,8,0:0:0:0:
256,192,84863,1,8,0:0:0:0:
256,192,85097,1,8,0:0:0:0:
256,192,85332,1,8,0:0:0:0:
256,192,85566,1,0,0:0:0:0:
256,192,86035,1,4,0:0:0:0:
256,192,86504,1,0,0:0:0:0:
256,192,86738,1,0,0:0:0:0:
256,192,86972,1,8,0:0:0:0:
256,192,87207,1,8,0:0:0:0:
256,192,87441,1,0,0:0:0:0:
256,192,87910,1,4,0:0:0:0:
256,192,88144,1,0,0:0:0:0:
256,192,88261,1,0,0:0:0:0:
256,192,88379,1,0,0:0:0:0:
256,192,88613,1,0,0:0:0:0:
256,192,88847,1,8,0:0:0:0:
256,192,89082,1,8,0:0:0:0:
256,192,89316,1,0,0:0:0:0:
256,192,89785,1,12,0:0:0:0:
256,192,90254,1,0,0:0:0:0:
256,192,90722,1,0,0:0:0:0:
256,192,90957,1,0,0:0:0:0:
256,192,91191,1,8,0:0:0:0:
256,192,91660,1,8,0:0:0:0:
256,192,92011,1,0,0:0:0:0:
256,192,92129,1,0,0:0:0:0:
256,192,92363,1,0,0:0:0:0:
256,192,92597,1,8,0:0:0:0:
256,192,92832,1,8,0:0:0:0:
256,192,93066,1,0,0:0:0:0:
256,192,93535,1,4,0:0:0:0:
256,192,94004,1,0,0:0:0:0:
256,192,94238,1,0,0:0:0:0:
256,192,94472,1,8,0:0:0:0:
256,192,94707,1,8,0:0:0:0:
256,192,94941,1,0,0:0:0:0:
256,192,95410,1,4,0:0:0:0:
256,192,95644,1,0,0:0:0:0:
256,192,95761,1,0,0:0:0:0:
256,192,95879,1,0,0:0:0:0:
256,192,96113,1,0,0:0:0:0:
256,192,96347,1,8,0:0:0:0:
256,192,96582,1,8,0:0:0:0:
256,192,96816,1,0,0:0:0:0:
256,192,97285,1,4,0:0:0:0:
256,192,97754,1,0,0:0:0:0:
256,192,98222,1,0,0:0:0:0:
256,192,98691,1,0,0:0:0:0:
256,192,99160,1,8,0:0:0:0:
256,192,99629,1,0,0:0:0:0:
256,192,100097,1,0,0:0:0:0:
256,192,100566,1,0,0:0:0:0:
256,192,101035,1,8,0:0:0:0:
256,192,101504,1,0,0:0:0:0:
256,192,101972,1,0,0:0:0:0:
256,192,102441,1,0,0:0:0:0:
256,192,102910,1,8,0:0:0:0:
256,192,103379,1,0,0:0:0:0:
256,192,103847,1,0,0:0:0:0:
256,192,104316,1,0,0:0:0:0:
256,192,104785,1,8,0:0:0:0:
256,192,105254,1,0,0:0:0:0:
256,192,105488,1,0,0:0:0:0:
256,192,105722,1,0,0:0:0:0:
256,192,105957,1,0,0:0:0:0:
256,192,106191,1,0,0:0:0:0:
256,192,106425,1,0,0:0:0:0:
256,192,106660,1,0,0:0:0:0:
256,192,106894,1,0,0:0:0:0:
256,192,107129,1,0,0:0:0:0:
256,192,107363,1,0,0:0:0:0:
256,192,107597,1,0,0:0:0:0:
256,192,107832,1,0,0:0:0:0:
256,192,108066,1,0,0:0:0:0:
256,192,108300,1,0,0:0:0:0:
256,192,108535,1,0,0:0:0:0:
256,192,108769,1,0,0:0:0:0:
256,128,109004,2,0,L|256:64,14,43.75
256,192,110879,1,12,0:0:0:0:
256,192,111113,1,4,0:0:0:0:
256,192,111347,1,4,0:0:0:0:
256,192,111582,1,12,0:0:0:0:
256,192,111816,1,12,0:0:0:0:
256,192,112050,1,4,0:0:0:0:
256,192,112168,1,4,0:0:0:0:
256,192,112754,1,0,0:0:0:0:
256,192,112988,1,8,0:0:0:0:
256,192,113222,1,0,0:0:0:0:
256,192,113457,1,8,0:0:0:0:
256,192,113691,1,0,0:0:0:0:
256,192,113925,1,8,0:0:0:0:
256,192,114160,1,0,0:0:0:0:
256,192,114394,1,8,0:0:0:0:
256,192,114863,1,8,0:0:0:0:
256,192,115097,1,0,0:0:0:0:
256,192,115332,1,8,0:0:0:0:
256,192,115566,1,0,0:0:0:0:
256,192,115800,1,8,0:0:0:0:
256,192,116035,1,0,0:0:0:0:
256,192,116269,1,0,0:0:0:0:
256,192,116738,1,0,0:0:0:0:
256,192,116972,1,0,0:0:0:0:
256,192,117207,1,8,0:0:0:0:
256,192,117441,1,0,0:0:0:0:
256,192,117675,1,8,0:0:0:0:
256,192,117910,1,0,0:0:0:0:
256,192,118144,1,8,0:0:0:0:
256,192,118613,1,8,0:0:0:0:
256,192,118847,1,0,0:0:0:0:
256,192,119082,1,8,0:0:0:0:
256,192,119316,1,0,0:0:0:0:
256,192,119550,1,0,0:0:0:0:
256,192,119785,1,12,0:0:0:0:
256,192,120488,1,0,0:0:0:0:
256,192,120722,1,0,0:0:0:0:
256,192,120956,1,8,0:0:0:0:
256,192,121191,1,0,0:0:0:0:
256,192,121425,1,8,0:0:0:0:
256,192,121660,1,0,0:0:0:0:
256,192,121894,1,8,0:0:0:0:
256,192,122363,1,0,0:0:0:0:
256,192,122597,1,8,0:0:0:0:
256,192,122832,1,8,0:0:0:0:
256,192,123066,1,0,0:0:0:0:
256,192,123300,1,8,0:0:0:0:
256,192,123535,1,0,0:0:0:0:
256,192,123769,1,8,0:0:0:0:
256,192,124238,1,0,0:0:0:0:
256,192,124472,1,8,0:0:0:0:
256,192,124707,1,0,0:0:0:0:
256,192,124941,1,0,0:0:0:0:
256,192,125175,1,8,0:0:0:0:
256,192,125410,1,8,0:0:0:0:
256,192,125644,1,0,0:0:0:0:
256,192,125879,1,4,0:0:0:0:
256,192,126230,1,4,0:0:0:0:
256,192,126582,1,4,0:0:0:0:
256,192,126816,1,12,0:0:0:0:
256,192,127285,1,12,0:0:0:0:
256,192,127754,1,12,0:0:0:0:
256,192,127988,1,8,0:0:0:0:
256,192,128222,1,0,0:0:0:0:
256,192,128457,1,8,0:0:0:0:
256,192,128574,1,8,0:0:0:0:
256,192,128691,1,8,0:0:0:0:
256,192,128925,1,0,0:0:0:0:
256,192,129160,1,8,0:0:0:0:
256,192,129394,1,0,0:0:0:0:
256,192,129863,1,0,0:0:0:0:
256,192,130097,1,8,0:0:0:0:
256,192,130332,1,8,0:0:0:0:
256,192,130566,1,8,0:0:0:0:
256,192,130683,1,8,0:0:0:0:
256,192,130800,1,0,0:0:0:0:
256,192,131035,1,8,0:0:0:0:
256,192,131269,1,0,0:0:0:0:
256,192,131738,1,8,0:0:0:0:
256,192,131972,1,0,0:0:0:0:
256,192,132207,1,8,0:0:0:0:
256,192,132441,1,0,0:0:0:0:
256,192,132675,1,8,0:0:0:0:
256,192,132793,1,8,0:0:0:0:
256,192,132910,1,8,0:0:0:0:
256,192,133144,1,0,0:0:0:0:
256,192,133613,1,0,0:0:0:0:
256,192,133847,1,8,0:0:0:0:
256,192,134082,1,0,0:0:0:0:
256,192,134316,1,0,0:0:0:0:
256,192,134550,1,0,0:0:0:0:
256,192,134785,1,12,0:0:0:0:
256,192,135488,1,8,0:0:0:0:
256,192,135722,1,0,0:0:0:0:
256,192,135839,1,0,0:0:0:0:
256,192,135956,1,8,0:0:0:0:
256,192,136191,1,0,0:0:0:0:
256,192,136308,1,0,0:0:0:0:
256,192,136425,1,8,0:0:0:0:
256,192,136660,1,0,0:0:0:0:
256,192,136777,1,0,0:0:0:0:
256,192,136894,1,8,0:0:0:0:
256,192,137363,1,0,0:0:0:0:
256,192,137597,1,8,0:0:0:0:
256,192,137714,1,8,0:0:0:0:
256,192,137832,1,0,0:0:0:0:
256,192,138066,1,8,0:0:0:0:
256,192,138183,1,8,0:0:0:0:
256,192,138300,1,0,0:0:0:0:
256,192,138535,1,8,0:0:0:0:
256,192,138652,1,8,0:0:0:0:
256,192,138769,1,0,0:0:0:0:
256,192,139238,1,0,0:0:0:0:
256,192,139472,1,8,0:0:0:0:
256,192,139707,1,0,0:0:0:0:
256,192,139941,1,8,0:0:0:0:
256,192,140175,1,8,0:0:0:0:
256,192,140410,1,8,0:0:0:0:
256,192,140644,1,0,0:0:0:0:
256,192,140879,1,4,0:0:0:0:
256,192,141230,1,4,0:0:0:0:
256,192,141582,1,4,0:0:0:0:
256,192,141816,1,12,0:0:0:0:
256,192,142285,1,12,0:0:0:0:
256,192,142754,1,12,0:0:0:0:
256,192,150254,5,0,0:0:0:0:
256,192,150722,1,0,0:0:0:0:
256,192,150957,1,0,0:0:0:0:
256,192,151191,1,0,0:0:0:0:
256,192,151660,1,8,0:0:0:0:
256,192,152129,1,0,0:0:0:0:
256,192,152363,1,0,0:0:0:0:
256,192,152597,1,0,0:0:0:0:
256,192,152832,1,0,0:0:0:0:
256,192,153066,1,0,0:0:0:0:
256,192,154004,1,0,0:0:0:0:
256,192,154238,1,0,0:0:0:0:
256,192,154472,1,8,0:0:0:0:
256,192,154707,1,8,0:0:0:0:
256,192,154941,1,0,0:0:0:0:
256,192,155879,1,0,0:0:0:0:
256,192,156113,1,0,0:0:0:0:
256,192,156347,1,8,0:0:0:0:
256,192,156582,1,8,0:0:0:0:
256,192,156816,1,0,0:0:0:0:
256,192,157754,1,0,0:0:0:0:
256,192,158222,1,0,0:0:0:0:
256,192,158457,1,0,0:0:0:0:
256,192,158691,1,8,0:0:0:0:
256,192,159160,1,8,0:0:0:0:
256,192,159629,1,8,0:0:0:0:
256,192,160097,1,8,0:0:0:0:
256,192,160332,1,8,0:0:0:0:
256,192,160566,1,0,0:0:0:0:
256,192,161504,1,0,0:0:0:0:
256,192,161738,1,0,0:0:0:0:
256,192,161972,1,8,0:0:0:0:
256,192,162207,1,8,0:0:0:0:
256,192,162441,1,0,0:0:0:0:
256,192,163379,1,0,0:0:0:0:
256,192,163613,1,0,0:0:0:0:
256,192,163848,1,8,0:0:0:0:
256,192,164082,1,8,0:0:0:0:
256,192,164316,1,0,0:0:0:0:
256,192,165254,1,12,0:0:0:0:
256,192,165722,1,12,0:0:0:0:
256,192,166191,1,4,0:0:0:0:
256,192,166660,1,12,0:0:0:0:
256,192,167011,1,8,0:0:0:0:
256,192,167129,1,0,0:0:0:0:
256,192,167363,1,0,0:0:0:0:
256,192,167597,1,8,0:0:0:0:
256,192,167832,1,8,0:0:0:0:
256,192,168066,1,0,0:0:0:0:
256,192,168535,1,4,0:0:0:0:
256,192,169004,1,0,0:0:0:0:
256,192,169238,1,0,0:0:0:0:
256,192,169472,1,8,0:0:0:0:
256,192,169707,1,8,0:0:0:0:
256,192,169941,1,0,0:0:0:0:
256,192,170410,1,4,0:0:0:0:
256,192,170644,1,0,0:0:0:0:
256,192,170761,1,0,0:0:0:0:
256,192,170879,1,0,0:0:0:0:
256,192,171113,1,0,0:0:0:0:
256,192,171347,1,8,0:0:0:0:
256,192,171582,1,8,0:0:0:0:
256,192,171816,1,0,0:0:0:0:
256,192,172050,1,4,0:0:0:0:
256,192,172285,1,4,0:0:0:0:
256,192,172754,1,4,0:0:0:0:
256,192,173222,1,12,0:0:0:0:
256,192,173691,1,4,0:0:0:0:
256,192,174160,1,12,0:0:0:0:
256,192,174629,1,0,0:0:0:0:
256,192,174863,1,0,0:0:0:0:
256,192,175097,1,8,0:0:0:0:
256,192,175332,1,8,0:0:0:0:
256,192,175566,1,0,0:0:0:0:
256,192,176035,1,4,0:0:0:0:
256,192,176504,1,0,0:0:0:0:
256,192,176738,1,0,0:0:0:0:
256,192,176972,1,8,0:0:0:0:
256,192,177207,1,8,0:0:0:0:
256,192,177441,1,0,0:0:0:0:
256,192,177910,1,4,0:0:0:0:
256,192,178144,1,0,0:0:0:0:
256,192,178261,1,0,0:0:0:0:
256,192,178378,1,0,0:0:0:0:
256,192,178612,1,0,0:0:0:0:
256,192,178847,1,8,0:0:0:0:
256,192,179082,1,8,0:0:0:0:
256,192,179316,1,0,0:0:0:0:
256,192,179550,1,4,0:0:0:0:
256,192,179785,1,12,0:0:0:0:
256,192,180254,1,0,0:0:0:0:
256,192,180722,1,0,0:0:0:0:
256,192,181191,1,0,0:0:0:0:
256,192,181660,1,8,0:0:0:0:
256,192,182129,1,0,0:0:0:0:
256,192,182597,1,0,0:0:0:0:
256,192,183066,1,0,0:0:0:0:
256,192,183535,1,8,0:0:0:0:
256,192,184004,1,0,0:0:0:0:
256,192,184472,1,0,0:0:0:0:
256,192,184941,1,0,0:0:0:0:
256,192,185410,1,8,0:0:0:0:
256,192,185879,1,0,0:0:0:0:
256,192,186347,1,0,0:0:0:0:
256,192,186816,1,0,0:0:0:0:
256,192,187285,1,8,0:0:0:0:
256,192,187754,1,0,0:0:0:0:
256,192,187988,1,0,0:0:0:0:
256,192,188222,1,0,0:0:0:0:
256,192,188457,1,0,0:0:0:0:
256,192,188691,1,0,0:0:0:0:
256,192,188925,1,0,0:0:0:0:
256,192,189160,1,0,0:0:0:0:
256,192,189394,1,0,0:0:0:0:
256,192,189629,1,0,0:0:0:0:
256,192,189863,1,0,0:0:0:0:
256,192,190097,1,0,0:0:0:0:
256,192,190332,1,0,0:0:0:0:
256,192,190566,1,0,0:0:0:0:
256,192,190800,1,0,0:0:0:0:
256,192,191035,1,0,0:0:0:0:
256,192,191269,1,0,0:0:0:0:
320,192,191504,2,0,L|384:192,14,43.75
256,192,193379,1,12,0:0:0:0:
256,192,193613,1,4,0:0:0:0:
256,192,193847,1,4,0:0:0:0:
256,192,194082,1,12,0:0:0:0:
256,192,194316,1,12,0:0:0:0:
256,192,194550,1,4,0:0:0:0:
256,192,194668,1,4,0:0:0:0:
256,192,195722,1,8,0:0:0:0:
256,192,195839,1,8,0:0:0:0:
256,192,195957,1,8,0:0:0:0:
256,192,196191,1,0,0:0:0:0:
256,192,196425,1,0,0:0:0:0:
256,192,196660,1,0,0:0:0:0:
256,192,196894,1,8,0:0:0:0:
256,192,197129,1,0,0:0:0:0:
256,192,197597,1,8,0:0:0:0:
256,192,197714,1,8,0:0:0:0:
256,192,197832,1,8,0:0:0:0:
256,192,198066,1,0,0:0:0:0:
256,192,198300,1,0,0:0:0:0:
256,192,198535,1,8,0:0:0:0:
256,192,198769,1,0,0:0:0:0:
256,192,199238,1,0,0:0:0:0:
256,192,199472,1,8,0:0:0:0:
256,192,199589,1,8,0:0:0:0:
256,192,199707,1,8,0:0:0:0:
256,192,199941,1,0,0:0:0:0:
256,192,200175,1,8,0:0:0:0:
256,192,200410,1,8,0:0:0:0:
256,192,200644,1,0,0:0:0:0:
256,192,200879,1,0,0:0:0:0:
256,192,201347,1,8,0:0:0:0:
256,192,201582,1,0,0:0:0:0:
256,192,201816,1,0,0:0:0:0:
256,192,202050,1,8,0:0:0:0:
256,192,202285,1,12,0:0:0:0:
256,192,202988,1,0,0:0:0:0:
256,192,203222,1,8,0:0:0:0:
288,192,203339,1,8,0:0:0:0:
256,192,203457,1,8,0:0:0:0:
256,192,203691,1,8,0:0:0:0:
288,192,203808,1,8,0:0:0:0:
256,192,203925,1,8,0:0:0:0:
256,192,204160,1,0,0:0:0:0:
256,192,204394,1,0,0:0:0:0:
256,192,204863,1,0,0:0:0:0:
256,192,205097,1,8,0:0:0:0:
288,192,205214,1,8,0:0:0:0:
256,192,205332,1,8,0:0:0:0:
256,192,205566,1,0,0:0:0:0:
288,192,205683,1,0,0:0:0:0:
256,192,205800,1,0,0:0:0:0:
256,192,206035,1,8,0:0:0:0:
256,192,206269,1,0,0:0:0:0:
256,192,206738,1,0,0:0:0:0:
256,192,206972,1,8,0:0:0:0:
256,192,207207,1,8,0:0:0:0:
256,192,207441,1,0,0:0:0:0:
256,192,207675,1,8,0:0:0:0:
256,192,207910,1,0,0:0:0:0:
256,192,208144,1,8,0:0:0:0:
256,192,208379,1,4,0:0:0:0:
256,192,208730,1,12,0:0:0:0:
256,192,209082,1,4,0:0:0:0:
256,192,209316,1,4,0:0:0:0:
256,192,209785,1,12,0:0:0:0:
256,192,210254,1,4,0:0:0:0:
256,192,210488,1,0,0:0:0:0:
256,192,210722,1,8,0:0:0:0:
288,192,210839,1,8,0:0:0:0:
256,192,210957,1,8,0:0:0:0:
256,192,211191,1,0,0:0:0:0:
256,192,211425,1,0,0:0:0:0:
256,192,211660,1,8,0:0:0:0:
256,192,211894,1,0,0:0:0:0:
256,192,212129,1,0,0:0:0:0:
256,192,212597,1,8,0:0:0:0:
256,192,212832,1,8,0:0:0:0:
256,192,213066,1,8,0:0:0:0:
256,192,213300,1,0,0:0:0:0:
256,192,213535,1,0,0:0:0:0:
256,192,213769,1,8,0:0:0:0:
256,192,214238,1,0,0:0:0:0:
256,192,214472,1,8,0:0:0:0:
256,192,214707,1,0,0:0:0:0:
256,192,214941,1,8,0:0:0:0:
256,192,215175,1,0,0:0:0:0:
256,192,215410,1,8,0:0:0:0:
256,192,215644,1,0,0:0:0:0:
256,192,215879,1,0,0:0:0:0:
256,192,216113,1,0,0:0:0:0:
256,192,216347,1,8,0:0:0:0:
256,192,216582,1,0,0:0:0:0:
256,192,216816,1,8,0:0:0:0:
256,192,217050,1,0,0:0:0:0:
256,192,217285,1,4,0:0:0:0:
256,192,217988,1,0,0:0:0:0:
256,192,218222,1,8,0:0:0:0:
256,192,218457,1,8,0:0:0:0:
256,192,218691,1,0,0:0:0:0:
256,192,218925,1,8,0:0:0:0:
256,192,219160,1,8,0:0:0:0:
256,192,219394,1,0,0:0:0:0:
256,192,219629,1,0,0:0:0:0:
256,192,219863,1,0,0:0:0:0:
256,192,220097,1,8,0:0:0:0:
256,192,220332,1,0,0:0:0:0:
256,192,220566,1,8,0:0:0:0:
256,192,220800,1,8,0:0:0:0:
256,192,221035,1,0,0:0:0:0:
256,192,221269,1,0,0:0:0:0:
256,192,221738,1,0,0:0:0:0:
256,192,221972,1,8,0:0:0:0:
256,192,222207,1,0,0:0:0:0:
256,192,222441,1,8,0:0:0:0:
256,192,222675,1,0,0:0:0:0:
256,192,222910,1,0,0:0:0:0:
256,192,223144,1,0,0:0:0:0:
256,192,223379,1,4,0:0:0:0:
256,192,223730,1,4,0:0:0:0:
256,192,224082,1,12,0:0:0:0:
256,192,224316,1,4,0:0:0:0:
256,192,224785,1,12,0:0:0:0:
256,192,225254,1,4,0:0:0:0:
256,192,225722,1,0,0:0:0:0:
256,192,225839,1,0,0:0:0:0:
256,192,225957,1,0,0:0:0:0:
256,192,226074,1,0,0:0:0:0:
256,192,226191,1,0,0:0:0:0:
256,192,226425,1,0,0:0:0:0:
256,192,226660,1,0,0:0:0:0:
256,192,226894,1,0,0:0:0:0:
256,192,227363,1,0,0:0:0:0:
256,192,227597,1,8,0:0:0:0:
256,192,227714,1,8,0:0:0:0:
256,192,227832,1,8,0:0:0:0:
256,192,227949,1,8,0:0:0:0:
256,192,228066,1,8,0:0:0:0:
256,192,228300,1,8,0:0:0:0:
256,192,228535,1,8,0:0:0:0:
256,192,228769,1,8,0:0:0:0:
256,192,229238,1,8,0:0:0:0:
256,192,229472,1,0,0:0:0:0:
256,192,229589,1,0,0:0:0:0:
256,192,229707,1,0,0:0:0:0:
256,192,229824,1,0,0:0:0:0:
256,192,229941,1,0,0:0:0:0:
256,192,230175,1,0,0:0:0:0:
256,192,230410,1,8,0:0:0:0:
256,192,230644,1,0,0:0:0:0:
256,192,230879,1,0,0:0:0:0:
256,192,231113,1,0,0:0:0:0:
256,192,231347,1,8,0:0:0:0:
256,192,231582,1,0,0:0:0:0:
256,192,231816,1,8,0:0:0:0:
256,192,231933,1,8,0:0:0:0:
256,192,232050,1,8,0:0:0:0:
256,192,232285,1,12,0:0:0:0:
256,192,232988,1,0,0:0:0:0:
256,192,233222,1,8,0:0:0:0:
256,192,233457,1,8,0:0:0:0:
256,192,233691,1,8,0:0:0:0:
256,192,233925,1,8,0:0:0:0:
256,192,234160,1,0,0:0:0:0:
256,192,234394,1,8,0:0:0:0:
256,192,234629,1,0,0:0:0:0:
256,192,234863,1,0,0:0:0:0:
256,192,235097,1,8,0:0:0:0:
256,192,235332,1,8,0:0:0:0:
256,192,235566,1,0,0:0:0:0:
256,192,235800,1,0,0:0:0:0:
256,192,236035,1,8,0:0:0:0:
256,192,236269,1,0,0:0:0:0:
256,192,236504,1,8,0:0:0:0:
256,192,236738,1,0,0:0:0:0:
256,192,236972,1,8,0:0:0:0:
256,192,237207,1,0,0:0:0:0:
256,192,237441,1,8,0:0:0:0:
256,192,237675,1,0,0:0:0:0:
256,192,237910,1,8,0:0:0:0:
256,192,238144,1,8,0:0:0:0:
256,192,238379,12,0,239785,0:0:0:0:
256,192,240254,5,4,0:0:0:0:
256,192,240722,1,0,0:0:0:0:
256,192,241191,1,8,0:0:0:0:
256,192,241425,1,8,0:0:0:0:
256,192,241660,1,0,0:0:0:0:
256,192,242129,1,8,0:0:0:0:
256,192,242597,1,0,0:0:0:0:
256,192,243066,1,8,0:0:0:0:
256,192,243300,1,8,0:0:0:0:
256,192,243535,1,0,0:0:0:0:
256,192,243769,1,8,0:0:0:0:
256,192,244004,1,8,0:0:0:0:
256,192,244472,1,0,0:0:0:0:
256,192,244941,1,8,0:0:0:0:
256,192,245175,1,0,0:0:0:0:
256,192,245410,1,0,0:0:0:0:
256,192,245644,1,8,0:0:0:0:
256,192,245879,1,8,0:0:0:0:
256,192,246113,1,0,0:0:0:0:
256,192,246347,1,0,0:0:0:0:
256,192,246582,1,0,0:0:0:0:
256,192,246816,1,0,0:0:0:0:
256,192,247050,1,8,0:0:0:0:
256,192,247285,1,12,0:0:0:0:
256,192,248222,1,0,0:0:0:0:
256,192,248457,1,0,0:0:0:0:
256,192,248691,1,8,0:0:0:0:
256,192,248925,1,8,0:0:0:0:
256,192,249160,1,0,0:0:0:0:
256,192,249394,1,8,0:0:0:0:
256,192,249863,1,0,0:0:0:0:
256,192,250097,1,8,0:0:0:0:
256,192,250332,1,0,0:0:0:0:
256,192,250566,1,8,0:0:0:0:
256,192,250800,1,8,0:0:0:0:
256,192,251035,1,0,0:0:0:0:
256,192,251269,1,8,0:0:0:0:
256,192,251738,1,8,0:0:0:0:
256,192,251972,1,0,0:0:0:0:
256,192,252207,1,0,0:0:0:0:
256,192,252441,1,8,0:0:0:0:
256,192,252675,1,0,0:0:0:0:
256,192,252910,1,0,0:0:0:0:
256,192,253144,1,8,0:0:0:0:
256,192,255254,1,12,0:0:0:0:
256,192,255722,1,8,0:0:0:0:
256,192,256191,1,0,0:0:0:0:
256,192,256660,1,8,0:0:0:0:
256,192,257129,1,8,0:0:0:0:
256,192,257597,1,0,0:0:0:0:
256,192,258066,1,0,0:0:0:0:
256,192,258535,1,8,0:0:0:0:
256,192,259004,1,8,0:0:0:0:
256,192,259472,1,8,0:0:0:0:
256,192,259941,1,0,0:0:0:0:
256,192,260175,1,0,0:0:0:0:
256,192,260410,1,8,0:0:0:0:
256,192,260644,1,8,0:0:0:0:
256,192,260879,1,8,0:0:0:0:
256,192,261347,1,0,0:0:0:0:
256,192,261582,1,8,0:0:0:0:
256,192,261816,1,0,0:0:0:0:
256,192,262285,1,8,0:0:0:0:
256,192,262754,1,0,0:0:0:0:
256,192,263222,1,8,0:0:0:0:
256,192,263691,1,0,0:0:0:0:
256,192,263925,1,0,0:0:0:0:
256,192,264160,1,8,0:0:0:0:
256,192,264629,1,0,0:0:0:0:
256,192,264863,1,0,0:0:0:0:
256,192,265097,1,8,0:0:0:0:
256,192,265332,1,8,0:0:0:0:
256,192,265566,1,0,0:0:0:0:
256,192,265800,1,0,0:0:0:0:
256,192,266035,1,8,0:0:0:0:
256,192,266504,1,0,0:0:0:0:
256,192,266972,1,8,0:0:0:0:
256,192,267441,1,8,0:0:0:0:
256,192,267675,1,0,0:0:0:0:
256,192,267910,1,8,0:0:0:0:
256,192,268379,1,8,0:0:0:0:
256,192,268613,1,0,0:0:0:0:
256,192,268847,1,0,0:0:0:0:
256,192,269082,1,0,0:0:0:0:
256,192,269316,1,0,0:0:0:0:
256,192,269550,1,0,0:0:0:0:
256,192,269785,1,8,0:0:0:0:
256,192,270254,1,12,0:0:0:0:
256,192,270722,1,0,0:0:0:0:
256,192,271191,1,0,0:0:0:0:
256,192,271660,1,0,0:0:0:0:
256,192,272129,1,0,0:0:0:0:
256,192,272363,1,0,0:0:0:0:
256,192,272597,1,0,0:0:0:0:
256,192,272832,1,0,0:0:0:0:
256,192,273066,1,0,0:0:0:0:
256,192,273300,1,0,0:0:0:0:
256,192,273535,1,0,0:0:0:0:
256,192,274004,1,8,0:0:0:0:
256,192,274472,1,0,0:0:0:0:
256,192,274707,1,0,0:0:0:0:
256,192,274941,1,0,0:0:0:0:
256,192,275410,1,0,0:0:0:0:
256,192,275644,1,0,0:0:0:0:
256,192,275879,1,0,0:0:0:0:
256,192,276347,1,0,0:0:0:0:
256,192,276816,1,0,0:0:0:0:
256,192,277285,1,8,0:0:0:0:
256,192,277754,1,8,0:0:0:0:
256,192,278222,1,0,0:0:0:0:
256,192,278457,1,8,0:0:0:0:
256,192,278691,1,0,0:0:0:0:
256,192,279160,1,0,0:0:0:0:
256,192,279394,1,0,0:0:0:0:
256,192,279629,1,0,0:0:0:0:
256,192,280097,1,0,0:0:0:0:
256,192,280566,1,0,0:0:0:0:
256,192,281035,1,8,0:0:0:0:
256,192,281504,1,0,0:0:0:0:
256,192,281972,1,0,0:0:0:0:
256,192,282441,1,0,0:0:0:0:
256,192,282910,1,8,0:0:0:0:
256,192,283379,1,0,0:0:0:0:
256,192,283613,1,8,0:0:0:0:
256,192,283847,1,0,0:0:0:0:
256,192,284082,1,8,0:0:0:0:
256,192,284316,1,0,0:0:0:0:
256,192,284550,1,8,0:0:0:0:
256,192,284785,1,0,0:0:0:0:
256,192,285019,1,0,0:0:0:0:
256,192,285254,1,0,0:0:0:0:
256,192,285722,1,0,0:0:0:0:
256,192,286191,1,0,0:0:0:0:
256,192,286660,1,0,0:0:0:0:
256,192,286894,1,0,0:0:0:0:
256,192,287129,1,0,0:0:0:0:
256,192,287597,1,0,0:0:0:0:
256,192,288066,1,0,0:0:0:0:
256,192,288535,1,0,0:0:0:0:
256,192,288769,1,0,0:0:0:0:
256,192,289004,1,0,0:0:0:0:
256,192,289472,1,0,0:0:0:0:
256,192,289941,1,0,0:0:0:0:
256,192,290410,1,0,0:0:0:0:
256,192,290644,1,0,0:0:0:0:
256,192,290879,1,0,0:0:0:0:
256,192,291347,1,0,0:0:0:0:
256,192,291582,1,0,0:0:0:0:
256,192,291816,1,0,0:0:0:0:
256,192,292285,1,0,0:0:0:0:
256,192,292754,1,0,0:0:0:0:
256,192,293222,1,0,0:0:0:0:
256,192,293691,1,0,0:0:0:0:
256,192,294160,1,0,0:0:0:0:
256,192,294394,1,0,0:0:0:0:
256,192,294629,1,0,0:0:0:0:
256,192,295097,1,0,0:0:0:0:
256,192,295332,1,0,0:0:0:0:
256,192,295566,1,0,0:0:0:0:
256,192,296035,1,0,0:0:0:0:
256,192,296504,1,0,0:0:0:0:
256,192,296972,1,0,0:0:0:0:
256,192,297441,1,0,0:0:0:0:
256,192,297910,1,0,0:0:0:0:
256,192,298144,1,0,0:0:0:0:
256,192,298379,12,0,300254,0:0:0:0:
