osu file format v12

[General]
AudioFilename: 01 Animals.mp3
AudioLeadIn: 0
PreviewTime: 164785
Countdown: 1
SampleSet: Soft
StackLeniency: 0.7
Mode: 1
LetterboxInBreaks: 1
WidescreenStoryboard: 1

[Editor]
Bookmarks: 30254
DistanceSpacing: 1.5
BeatDivisor: 2
GridSize: 32
TimelineZoom: 1

[Metadata]
Title:Animals
TitleUnicode:Animals
Artist:Martin Garrix
ArtistUnicode:Martin Garrix
Creator:binaryfruit
Version:Kantan
Source:
Tags:
BeatmapID:430402
BeatmapSetID:177428

[Difficulty]
HPDrainRate:5
CircleSize:5
OverallDifficulty:8
ApproachRate:5
SliderMultiplier:1.4
SliderTickRate:1

[Events]
//Background and Video events
0,0,"AnimalsBG.jpg",0,228
//Break Periods
2,60454,66554
2,142954,149054
//Storyboard Layer 0 (Background)
//Storyboard Layer 1 (Fail)
//Storyboard Layer 2 (Pass)
//Storyboard Layer 3 (Foreground)
//Storyboard Sound Samples
//Background Colour Transformations
3,100,163,162,255

[TimingPoints]
254.03597383721,468.75,4,2,0,100,1,0
82754,-80,4,2,0,100,0,1
112754,-100,4,2,0,100,0,0
125879,-100,4,2,0,100,0,1
127754,-100,4,2,0,100,0,0
140879,-100,4,2,0,100,0,1
142754,-100,4,2,0,100,0,0
165254,-80,4,2,0,100,0,1
195254,-100,4,2,0,100,0,0
208379,-100,4,2,0,100,0,1
210254,-100,4,2,0,100,0,0
223379,-100,4,2,0,100,0,1
225254,-100,4,2,0,100,0,0
238379,-100,4,2,0,100,0,1
240254,-100,4,2,0,100,0,0

[HitObjects]
256,192,30254,5,0,0:0:0:0:
256,192,31191,1,0,0:0:0:0:
256,192,32129,1,0,0:0:0:0:
256,192,32597,1,0,0:0:0:0:
256,192,33066,1,0,0:0:0:0:
256,192,34004,1,0,0:0:0:0:
256,192,34941,1,0,0:0:0:0:
256,192,35879,1,0,0:0:0:0:
256,192,36347,1,0,0:0:0:0:
256,192,36816,1,0,0:0:0:0:
256,192,37754,1,0,0:0:0:0:
256,192,38691,1,0,0:0:0:0:
256,192,39629,1,0,0:0:0:0:
256,192,40097,1,0,0:0:0:0:
256,192,40566,1,0,0:0:0:0:
256,192,41035,1,8,0:0:0:0:
256,192,41504,1,0,0:0:0:0:
256,192,42441,1,0,0:0:0:0:
256,192,43379,1,0,0:0:0:0:
256,192,43847,1,0,0:0:0:0:
256,192,44316,1,8,0:0:0:0:
256,192,45254,1,4,0:0:0:0:
256,192,46191,1,8,0:0:0:0:
256,192,47129,1,0,0:0:0:0:
256,192,47597,1,0,0:0:0:0:
256,192,48066,1,8,0:0:0:0:
256,192,48535,1,0,0:0:0:0:
256,192,49004,1,0,0:0:0:0:
256,192,49941,1,8,0:0:0:0:
256,192,50879,1,0,0:0:0:0:
256,192,51347,1,0,0:0:0:0:
256,192,51816,1,8,0:0:0:0:
256,192,52285,1,0,0:0:0:0:
256,192,52754,1,0,0:0:0:0:
256,192,53691,1,8,0:0:0:0:
256,192,54629,1,0,0:0:0:0:
256,192,55097,1,0,0:0:0:0:
256,192,55566,1,8,0:0:0:0:
256,192,56035,1,0,0:0:0:0:
256,192,56504,1,0,0:0:0:0:
256,192,57441,1,8,0:0:0:0:
256,192,58379,1,0,0:0:0:0:
256,192,58847,1,0,0:0:0:0:
256,192,59316,1,8,0:0:0:0:
256,192,60254,1,12,0:0:0:0:
256,192,67754,5,0,0:0:0:0:
256,192,68222,1,0,0:0:0:0:
256,192,68691,1,8,0:0:0:0:
256,192,69629,1,0,0:0:0:0:
256,192,70097,1,8,0:0:0:0:
256,192,70566,1,0,0:0:0:0:
256,192,71504,1,0,0:0:0:0:
256,192,71972,1,8,0:0:0:0:
256,192,72441,1,0,0:0:0:0:
256,192,73379,1,0,0:0:0:0:
256,192,73847,1,8,0:0:0:0:
256,192,74316,1,0,0:0:0:0:
256,192,75254,1,0,0:0:0:0:
256,192,75722,1,0,0:0:0:0:
256,192,76191,1,8,0:0:0:0:
256,192,77129,1,0,0:0:0:0:
256,192,77597,1,8,0:0:0:0:
256,192,78066,1,0,0:0:0:0:
256,192,79004,1,0,0:0:0:0:
256,192,79472,1,8,0:0:0:0:
256,192,79941,1,0,0:0:0:0:
256,192,80879,1,0,0:0:0:0:
256,192,81347,1,8,0:0:0:0:
256,192,81816,1,0,0:0:0:0:
256,192,82754,1,0,0:0:0:0:
256,192,83222,1,0,0:0:0:0:
256,192,83691,1,8,0:0:0:0:
256,192,84629,1,0,0:0:0:0:
256,192,85097,1,8,0:0:0:0:
256,192,85566,1,0,0:0:0:0:
256,192,86504,1,0,0:0:0:0:
256,192,86972,1,8,0:0:0:0:
256,192,87441,1,0,0:0:0:0:
256,192,88379,1,0,0:0:0:0:
256,192,88847,1,8,0:0:0:0:
256,192,89316,1,0,0:0:0:0:
256,192,90254,1,0,0:0:0:0:
256,192,90722,1,0,0:0:0:0:
256,192,91191,1,8,0:0:0:0:
256,192,92129,1,0,0:0:0:0:
256,192,92597,1,8,0:0:0:0:
256,192,93066,1,0,0:0:0:0:
256,192,94004,1,0,0:0:0:0:
256,192,94472,1,8,0:0:0:0:
256,192,94941,1,0,0:0:0:0:
256,192,95879,1,0,0:0:0:0:
256,192,96347,1,8,0:0:0:0:
256,192,96816,1,0,0:0:0:0:
256,192,97754,1,0,0:0:0:0:
256,192,98691,1,0,0:0:0:0:
256,192,99629,1,0,0:0:0:0:
256,192,100566,1,0,0:0:0:0:
256,192,101504,1,0,0:0:0:0:
256,192,101972,1,0,0:0:0:0:
256,192,102441,1,0,0:0:0:0:
256,192,102910,1,0,0:0:0:0:
256,192,103379,1,0,0:0:0:0:
256,192,103847,1,0,0:0:0:0:
256,192,104316,1,0,0:0:0:0:
256,192,104785,1,0,0:0:0:0:
256,192,105254,12,0,110410,0:0:0:0:
256,192,110879,5,12,0:0:0:0:
256,192,111347,1,12,0:0:0:0:
256,192,111816,1,12,0:0:0:0:
256,192,112285,1,12,0:0:0:0:
256,192,113222,1,0,0:0:0:0:
256,192,113691,1,8,0:0:0:0:
256,192,114160,1,8,0:0:0:0:
256,192,115097,1,8,0:0:0:0:
256,192,115566,1,8,0:0:0:0:
256,192,116035,1,0,0:0:0:0:
256,192,116972,1,0,0:0:0:0:
256,192,117441,1,8,0:0:0:0:
256,192,117910,1,8,0:0:0:0:
256,192,118847,1,8,0:0:0:0:
256,192,119316,1,8,0:0:0:0:
256,192,119785,1,12,0:0:0:0:
256,192,120722,1,0,0:0:0:0:
256,192,121191,1,8,0:0:0:0:
256,192,121660,1,8,0:0:0:0:
256,192,122597,1,0,0:0:0:0:
256,192,123066,1,8,0:0:0:0:
256,192,123535,1,0,0:0:0:0:
256,192,124004,1,0,0:0:0:0:
256,192,124472,1,0,0:0:0:0:
256,192,124941,1,8,0:0:0:0:
256,192,125879,1,4,0:0:0:0:
256,192,126347,1,4,0:0:0:0:
256,192,126816,1,12,0:0:0:0:
256,192,127285,1,12,0:0:0:0:
256,192,128222,1,0,0:0:0:0:
256,192,128691,1,8,0:0:0:0:
256,192,129160,1,0,0:0:0:0:
256,192,130097,1,0,0:0:0:0:
256,192,130566,1,8,0:0:0:0:
256,192,131035,1,8,0:0:0:0:
256,192,131972,1,0,0:0:0:0:
256,192,132441,1,8,0:0:0:0:
256,192,132910,1,0,0:0:0:0:
256,192,133847,1,8,0:0:0:0:
256,192,134316,1,8,0:0:0:0:
256,192,134785,1,12,0:0:0:0:
256,192,135722,1,0,0:0:0:0:
256,192,136191,1,8,0:0:0:0:
256,192,136660,1,0,0:0:0:0:
256,192,137597,1,0,0:0:0:0:
256,192,138066,1,8,0:0:0:0:
256,192,138535,1,8,0:0:0:0:
256,192,139004,1,0,0:0:0:0:
256,192,139472,1,0,0:0:0:0:
256,192,139941,1,8,0:0:0:0:
256,192,140879,1,4,0:0:0:0:
256,192,141347,1,4,0:0:0:0:
256,192,141816,1,12,0:0:0:0:
256,192,142285,1,12,0:0:0:0:
256,192,142754,1,12,0:0:0:0:
256,192,150254,5,0,0:0:0:0:
256,192,151191,1,8,0:0:0:0:
256,192,152129,1,0,0:0:0:0:
256,192,152597,1,8,0:0:0:0:
256,192,153066,1,0,0:0:0:0:
256,192,154004,1,0,0:0:0:0:
256,192,154472,1,8,0:0:0:0:
256,192,154941,1,0,0:0:0:0:
256,192,155879,1,0,0:0:0:0:
256,192,156347,1,8,0:0:0:0:
256,192,156816,1,0,0:0:0:0:
256,192,157754,1,0,0:0:0:0:
256,192,158691,1,8,0:0:0:0:
256,192,159629,1,0,0:0:0:0:
256,192,160097,1,8,0:0:0:0:
256,192,160566,1,0,0:0:0:0:
256,192,161504,1,0,0:0:0:0:
256,192,161972,1,8,0:0:0:0:
256,192,162441,1,0,0:0:0:0:
256,192,163379,1,0,0:0:0:0:
256,192,163847,1,8,0:0:0:0:
256,192,164316,1,0,0:0:0:0:
256,192,165254,1,8,0:0:0:0:
256,192,165722,1,8,0:0:0:0:
256,192,166191,1,8,0:0:0:0:
256,192,166660,1,8,0:0:0:0:
256,192,167129,1,0,0:0:0:0:
256,192,167597,1,0,0:0:0:0:
256,192,168066,1,0,0:0:0:0:
256,192,169004,1,0,0:0:0:0:
256,192,169472,1,0,0:0:0:0:
256,192,169941,1,0,0:0:0:0:
256,192,170879,1,0,0:0:0:0:
256,192,171347,1,0,0:0:0:0:
256,192,171816,1,0,0:0:0:0:
256,192,172754,1,8,0:0:0:0:
256,192,173222,1,8,0:0:0:0:
256,192,173691,1,8,0:0:0:0:
256,192,174160,1,8,0:0:0:0:
256,192,174629,1,0,0:0:0:0:
256,192,175097,1,0,0:0:0:0:
256,192,175566,1,0,0:0:0:0:
256,192,176504,1,0,0:0:0:0:
256,192,176972,1,0,0:0:0:0:
256,192,177441,1,0,0:0:0:0:
256,192,178379,1,0,0:0:0:0:
256,192,178847,1,0,0:0:0:0:
256,192,179316,1,0,0:0:0:0:
256,192,180254,1,0,0:0:0:0:
256,192,181191,1,0,0:0:0:0:
256,192,182129,1,0,0:0:0:0:
256,192,183066,1,0,0:0:0:0:
256,192,184004,1,0,0:0:0:0:
256,192,184472,1,0,0:0:0:0:
256,192,184941,1,0,0:0:0:0:
256,192,185410,1,0,0:0:0:0:
256,192,185879,1,0,0:0:0:0:
256,192,186347,1,0,0:0:0:0:
256,192,186816,1,0,0:0:0:0:
256,192,187285,1,0,0:0:0:0:
256,192,187754,12,0,192910,0:0:0:0:
256,192,193379,5,4,0:0:0:0:
256,192,193847,1,4,0:0:0:0:
256,192,194316,1,4,0:0:0:0:
256,192,194785,1,4,0:0:0:0:
256,192,195722,1,8,0:0:0:0:
256,192,196191,1,8,0:0:0:0:
256,192,196660,1,0,0:0:0:0:
256,192,197597,1,8,0:0:0:0:
256,192,198066,1,0,0:0:0:0:
256,192,198535,1,8,0:0:0:0:
256,192,199472,1,8,0:0:0:0:
256,192,199941,1,0,0:0:0:0:
256,192,200410,1,0,0:0:0:0:
256,192,201347,1,8,0:0:0:0:
256,192,201816,1,0,0:0:0:0:
256,192,202285,1,12,0:0:0:0:
256,192,203222,1,8,0:0:0:0:
256,192,203691,1,0,0:0:0:0:
256,192,204160,1,0,0:0:0:0:
256,192,205097,1,8,0:0:0:0:
256,192,205566,1,0,0:0:0:0:
256,192,206035,1,8,0:0:0:0:
256,192,206504,1,0,0:0:0:0:
256,192,206972,1,0,0:0:0:0:
256,192,207441,1,0,0:0:0:0:
256,192,208379,1,4,0:0:0:0:
256,192,208847,1,4,0:0:0:0:
256,192,209316,1,12,0:0:0:0:
256,192,209785,1,12,0:0:0:0:
256,192,210722,1,8,0:0:0:0:
256,192,211191,1,0,0:0:0:0:
256,192,211660,1,0,0:0:0:0:
256,192,212597,1,8,0:0:0:0:
256,192,213066,1,0,0:0:0:0:
256,192,213535,1,8,0:0:0:0:
256,192,214472,1,8,0:0:0:0:
256,192,214941,1,0,0:0:0:0:
256,192,215410,1,0,0:0:0:0:
256,192,216347,1,8,0:0:0:0:
256,192,216816,1,0,0:0:0:0:
256,192,217285,1,12,0:0:0:0:
256,192,218222,1,8,0:0:0:0:
256,192,218691,1,0,0:0:0:0:
256,192,219160,1,0,0:0:0:0:
256,192,220097,1,8,0:0:0:0:
256,192,220566,1,0,0:0:0:0:
256,192,221035,1,8,0:0:0:0:
256,192,221504,1,8,0:0:0:0:
256,192,221972,1,0,0:0:0:0:
256,192,222441,1,0,0:0:0:0:
256,192,223379,1,4,0:0:0:0:
256,192,223847,1,12,0:0:0:0:
256,192,224316,1,4,0:0:0:0:
256,192,224785,1,12,0:0:0:0:
256,192,225722,1,0,0:0:0:0:
256,192,226191,1,8,0:0:0:0:
256,192,226660,1,8,0:0:0:0:
256,192,227597,1,0,0:0:0:0:
256,192,228066,1,8,0:0:0:0:
256,192,228535,1,0,0:0:0:0:
256,192,229472,1,0,0:0:0:0:
256,192,229941,1,8,0:0:0:0:
256,192,230410,1,8,0:0:0:0:
256,192,231347,1,0,0:0:0:0:
256,192,231816,1,8,0:0:0:0:
256,192,232285,1,12,0:0:0:0:
256,192,233222,1,0,0:0:0:0:
256,192,233691,1,8,0:0:0:0:
256,192,234160,1,8,0:0:0:0:
256,192,235097,1,8,0:0:0:0:
256,192,235566,1,0,0:0:0:0:
256,192,236035,1,0,0:0:0:0:
256,192,236504,1,0,0:0:0:0:
256,192,236972,1,0,0:0:0:0:
256,192,237441,1,8,0:0:0:0:
256,192,238379,1,4,0:0:0:0:
256,192,238847,1,4,0:0:0:0:
256,192,239316,1,4,0:0:0:0:
256,192,239785,1,8,0:0:0:0:
256,192,240254,1,4,0:0:0:0:
256,192,241191,1,0,0:0:0:0:
256,192,242129,1,0,0:0:0:0:
256,192,242597,1,0,0:0:0:0:
256,192,243066,1,0,0:0:0:0:
256,192,244004,1,0,0:0:0:0:
256,192,244941,1,0,0:0:0:0:
256,192,245879,1,0,0:0:0:0:
256,192,246347,1,0,0:0:0:0:
256,192,246816,1,0,0:0:0:0:
256,192,247285,1,8,0:0:0:0:
256,192,247754,1,0,0:0:0:0:
256,192,248691,1,0,0:0:0:0:
256,192,249629,1,0,0:0:0:0:
256,192,250097,1,0,0:0:0:0:
256,192,250566,1,0,0:0:0:0:
256,192,251504,1,0,0:0:0:0:
256,192,252441,1,0,0:0:0:0:
256,192,255254,1,12,0:0:0:0:
256,192,256191,1,8,0:0:0:0:
256,192,257129,1,8,0:0:0:0:
256,192,257597,1,8,0:0:0:0:
256,192,258066,1,8,0:0:0:0:
256,192,259004,1,8,0:0:0:0:
256,192,259941,1,8,0:0:0:0:
256,192,260879,1,8,0:0:0:0:
256,192,261347,1,8,0:0:0:0:
256,192,261816,1,8,0:0:0:0:
256,192,262754,1,8,0:0:0:0:
256,192,263691,1,8,0:0:0:0:
256,192,264629,1,8,0:0:0:0:
256,192,265097,1,8,0:0:0:0:
256,192,265566,1,8,0:0:0:0:
256,192,266504,1,8,0:0:0:0:
256,192,267441,1,8,0:0:0:0:
256,192,268379,1,8,0:0:0:0:
256,192,268847,1,8,0:0:0:0:
256,192,269316,1,8,0:0:0:0:
256,192,269785,1,8,0:0:0:0:
256,192,270254,1,12,0:0:0:0:
256,192,271191,1,0,0:0:0:0:
256,192,272129,1,0,0:0:0:0:
256,192,272597,1,8,0:0:0:0:
256,192,273066,1,0,0:0:0:0:
256,192,274004,1,0,0:0:0:0:
256,192,274941,1,0,0:0:0:0:
256,192,275879,1,0,0:0:0:0:
256,192,276347,1,8,0:0:0:0:
256,192,276816,1,0,0:0:0:0:
256,192,277754,1,0,0:0:0:0:
256,192,278691,1,0,0:0:0:0:
256,192,279629,1,0,0:0:0:0:
256,192,280097,1,8,0:0:0:0:
256,160,280566,1,0,0:0:0:0:
256,192,281504,1,0,0:0:0:0:
256,192,282441,1,0,0:0:0:0:
256,192,283379,1,8,0:0:0:0:
256,192,283847,1,8,0:0:0:0:
256,192,284316,1,8,0:0:0:0:
256,192,284785,1,8,0:0:0:0:
256,192,285254,1,0,0:0:0:0:
256,192,286191,1,0,0:0:0:0:
256,192,287129,1,0,0:0:0:0:
256,192,288066,1,8,0:0:0:0:
256,192,289004,1,0,0:0:0:0:
256,192,289941,1,0,0:0:0:0:
256,192,290879,1,0,0:0:0:0:
256,192,291816,1,8,0:0:0:0:
256,192,292754,1,0,0:0:0:0:
256,192,293691,1,0,0:0:0:0:
256,192,294629,1,0,0:0:0:0:
256,192,295566,1,8,0:0:0:0:
256,192,296504,1,0,0:0:0:0:
256,192,297441,1,0,0:0:0:0:
256,192,298379,1,8,0:0:0:0:
256,192,299316,1,8,0:0:0:0:
256,192,300254,1,12,0:0:0:0:
