osu file format v12

[General]
AudioFilename: 01 Animals.mp3
AudioLeadIn: 0
PreviewTime: 164785
Countdown: 1
SampleSet: Soft
StackLeniency: 0.7
Mode: 1
LetterboxInBreaks: 1
WidescreenStoryboard: 1

[Editor]
Bookmarks: 30254
DistanceSpacing: 1.5
BeatDivisor: 2
GridSize: 32
TimelineZoom: 1

[Metadata]
Title:Animals
TitleUnicode:Animals
Artist:Martin Garrix
ArtistUnicode:Martin Garrix
Creator:binaryfruit
Version:Futsuu
Source:
Tags:
BeatmapID:430233
BeatmapSetID:177428

[Difficulty]
HPDrainRate:5
CircleSize:5
OverallDifficulty:8
ApproachRate:5
SliderMultiplier:1.4
SliderTickRate:1

[Events]
//Background and Video events
0,0,"AnimalsBG.jpg",0,228
//Break Periods
2,60454,66554
2,142954,149054
//Storyboard Layer 0 (Background)
//Storyboard Layer 1 (Fail)
//Storyboard Layer 2 (Pass)
//Storyboard Layer 3 (Foreground)
//Storyboard Sound Samples
//Background Colour Transformations
3,100,163,162,255

[TimingPoints]
254.03597383721,468.75,4,2,0,100,1,0
82754,-80,4,2,0,100,0,1
112754,-100,4,2,0,100,0,0
125879,-100,4,2,0,100,0,1
127754,-100,4,2,0,100,0,0
140879,-100,4,2,0,100,0,1
142754,-100,4,2,0,100,0,0
165254,-80,4,2,0,100,0,1
195254,-100,4,2,0,100,0,0
208379,-100,4,2,0,100,0,1
210254,-100,4,2,0,100,0,0
223379,-100,4,2,0,100,0,1
225254,-100,4,2,0,100,0,0
238379,-100,4,2,0,100,0,1
240254,-100,4,2,0,100,0,0

[HitObjects]
256,192,30254,5,0,0:0:0:0:
256,192,30722,1,8,0:0:0:0:
256,192,31191,1,0,0:0:0:0:
256,192,31660,1,8,0:0:0:0:
256,192,32129,1,0,0:0:0:0:
256,192,32597,1,0,0:0:0:0:
256,192,33066,1,0,0:0:0:0:
256,192,33535,1,8,0:0:0:0:
256,192,34004,1,0,0:0:0:0:
256,192,34472,1,8,0:0:0:0:
256,192,34941,1,0,0:0:0:0:
256,192,35410,1,8,0:0:0:0:
256,192,35879,1,0,0:0:0:0:
256,192,36347,1,0,0:0:0:0:
256,192,36816,1,0,0:0:0:0:
256,192,37050,1,0,0:0:0:0:
256,192,37285,1,8,0:0:0:0:
256,192,37754,1,0,0:0:0:0:
256,192,38222,1,8,0:0:0:0:
256,192,38691,1,0,0:0:0:0:
256,192,39160,1,8,0:0:0:0:
256,192,39629,1,0,0:0:0:0:
256,192,40097,1,0,0:0:0:0:
256,192,40566,1,0,0:0:0:0:
256,192,41035,1,8,0:0:0:0:
256,192,41504,1,0,0:0:0:0:
256,192,41738,1,0,0:0:0:0:
256,192,41972,1,8,0:0:0:0:
256,192,42441,1,0,0:0:0:0:
256,192,42675,1,0,0:0:0:0:
256,192,42910,1,8,0:0:0:0:
256,192,43379,1,0,0:0:0:0:
256,192,43847,1,8,0:0:0:0:
256,192,44082,1,8,0:0:0:0:
256,192,44316,1,0,0:0:0:0:
256,192,44785,1,0,0:0:0:0:
256,192,45254,1,12,0:0:0:0:
256,192,45722,1,0,0:0:0:0:
256,192,46191,1,0,0:0:0:0:
256,192,46660,1,8,0:0:0:0:
256,192,47129,1,8,0:0:0:0:
256,192,47597,1,0,0:0:0:0:
256,192,48066,1,0,0:0:0:0:
256,192,48535,1,8,0:0:0:0:
256,192,49004,1,8,0:0:0:0:
256,192,49472,1,0,0:0:0:0:
256,192,49941,1,0,0:0:0:0:
256,192,50410,1,8,0:0:0:0:
256,192,50879,1,8,0:0:0:0:
256,192,51347,1,8,0:0:0:0:
256,192,51816,1,8,0:0:0:0:
256,192,52050,1,8,0:0:0:0:
256,192,52285,1,8,0:0:0:0:
256,192,52754,1,8,0:0:0:0:
256,192,53222,1,0,0:0:0:0:
256,192,53691,1,0,0:0:0:0:
256,192,54160,1,8,0:0:0:0:
256,192,54629,1,8,0:0:0:0:
256,192,55097,1,0,0:0:0:0:
256,192,55566,1,0,0:0:0:0:
256,192,56035,1,8,0:0:0:0:
256,192,56269,1,8,0:0:0:0:
256,192,56504,1,8,0:0:0:0:
256,192,56972,1,0,0:0:0:0:
256,192,57207,1,0,0:0:0:0:
256,192,57441,1,0,0:0:0:0:
256,192,57910,1,8,0:0:0:0:
256,192,58144,1,8,0:0:0:0:
256,192,58379,1,8,0:0:0:0:
256,192,58847,1,0,0:0:0:0:
256,192,59082,1,0,0:0:0:0:
256,192,59316,1,0,0:0:0:0:
256,192,59785,1,8,0:0:0:0:
256,192,60254,1,12,0:0:0:0:
256,192,67754,5,0,0:0:0:0:
256,192,68222,1,0,0:0:0:0:
256,192,68691,1,8,0:0:0:0:
256,192,69160,1,8,0:0:0:0:
256,192,69629,1,0,0:0:0:0:
256,192,70097,1,8,0:0:0:0:
256,192,70332,1,8,0:0:0:0:
256,192,70566,1,0,0:0:0:0:
256,192,71504,1,0,0:0:0:0:
256,192,71972,1,8,0:0:0:0:
256,192,72207,1,8,0:0:0:0:
256,192,72441,1,0,0:0:0:0:
256,192,73379,1,0,0:0:0:0:
256,192,73847,1,8,0:0:0:0:
256,192,74082,1,8,0:0:0:0:
256,192,74316,1,0,0:0:0:0:
256,192,75254,1,0,0:0:0:0:
256,192,75722,1,0,0:0:0:0:
256,192,76191,1,8,0:0:0:0:
256,192,76660,1,8,0:0:0:0:
256,192,77129,1,0,0:0:0:0:
256,192,77597,1,8,0:0:0:0:
256,192,77832,1,8,0:0:0:0:
256,192,78066,1,0,0:0:0:0:
256,192,79004,1,0,0:0:0:0:
256,192,79472,1,8,0:0:0:0:
256,192,79707,1,8,0:0:0:0:
256,192,79941,1,0,0:0:0:0:
256,192,80410,1,0,0:0:0:0:
256,192,80879,1,0,0:0:0:0:
256,192,81347,1,8,0:0:0:0:
256,192,81581,1,8,0:0:0:0:
256,192,81815,1,0,0:0:0:0:
256,192,82754,1,12,0:0:0:0:
256,192,83222,1,12,0:0:0:0:
256,192,83691,1,12,0:0:0:0:
256,192,84160,1,12,0:0:0:0:
256,192,84629,1,0,0:0:0:0:
256,192,84863,1,0,0:0:0:0:
256,192,85097,1,0,0:0:0:0:
256,192,85332,1,0,0:0:0:0:
256,192,85566,1,0,0:0:0:0:
256,192,86035,1,4,0:0:0:0:
256,192,86504,1,0,0:0:0:0:
256,192,86972,1,8,0:0:0:0:
256,192,87207,1,8,0:0:0:0:
256,192,87441,1,0,0:0:0:0:
256,192,87910,1,4,0:0:0:0:
256,192,88379,1,0,0:0:0:0:
256,192,88847,1,8,0:0:0:0:
256,192,89082,1,8,0:0:0:0:
256,192,89316,1,0,0:0:0:0:
256,192,89785,1,12,0:0:0:0:
256,192,90254,1,4,0:0:0:0:
256,192,90722,1,4,0:0:0:0:
256,192,91191,1,12,0:0:0:0:
256,192,91660,1,12,0:0:0:0:
256,192,92129,1,0,0:0:0:0:
256,192,92597,1,8,0:0:0:0:
256,192,92832,1,8,0:0:0:0:
256,192,93066,1,0,0:0:0:0:
256,192,93535,1,4,0:0:0:0:
256,192,94004,1,0,0:0:0:0:
256,192,94472,1,8,0:0:0:0:
256,192,94707,1,8,0:0:0:0:
256,192,94941,1,0,0:0:0:0:
256,192,95410,1,4,0:0:0:0:
256,192,95879,1,0,0:0:0:0:
256,192,96113,1,0,0:0:0:0:
256,192,96347,1,8,0:0:0:0:
256,192,96582,1,8,0:0:0:0:
256,192,96816,1,0,0:0:0:0:
256,192,97754,1,0,0:0:0:0:
256,192,98222,1,0,0:0:0:0:
256,192,98691,1,0,0:0:0:0:
256,192,99160,1,0,0:0:0:0:
256,192,99629,1,0,0:0:0:0:
256,192,100097,1,0,0:0:0:0:
256,192,100566,1,0,0:0:0:0:
256,192,101035,1,0,0:0:0:0:
256,192,101504,1,0,0:0:0:0:
256,192,101972,1,0,0:0:0:0:
256,192,102441,1,0,0:0:0:0:
256,192,102910,1,0,0:0:0:0:
256,192,103379,1,0,0:0:0:0:
256,192,103847,1,0,0:0:0:0:
256,192,104316,1,0,0:0:0:0:
256,192,104785,1,0,0:0:0:0:
256,192,105254,12,0,108535,0:0:0:0:
320,192,109004,6,0,L|384:192,12,43.75
256,192,110879,1,12,0:0:0:0:
256,192,111347,1,4,0:0:0:0:
256,192,111816,1,0,0:0:0:0:
256,192,112050,1,8,0:0:0:0:
256,192,112285,1,4,0:0:0:0:
256,192,112754,1,0,0:0:0:0:
256,192,113222,1,8,0:0:0:0:
256,192,113457,1,8,0:0:0:0:
256,192,113691,1,8,0:0:0:0:
256,192,114160,1,0,0:0:0:0:
256,192,114629,1,0,0:0:0:0:
256,192,115097,1,8,0:0:0:0:
256,192,115332,1,8,0:0:0:0:
256,192,115566,1,0,0:0:0:0:
256,192,116035,1,8,0:0:0:0:
256,192,116504,1,0,0:0:0:0:
256,192,116972,1,8,0:0:0:0:
256,192,117207,1,8,0:0:0:0:
256,192,117441,1,8,0:0:0:0:
256,192,117910,1,0,0:0:0:0:
256,192,118379,1,0,0:0:0:0:
256,192,118847,1,8,0:0:0:0:
256,192,119082,1,8,0:0:0:0:
256,192,119316,1,0,0:0:0:0:
256,192,119785,1,12,0:0:0:0:
256,192,120254,1,0,0:0:0:0:
256,192,120722,1,8,0:0:0:0:
256,192,120957,1,8,0:0:0:0:
256,192,121191,1,0,0:0:0:0:
256,192,121660,1,8,0:0:0:0:
256,192,122129,1,0,0:0:0:0:
256,192,122597,1,8,0:0:0:0:
256,192,122832,1,0,0:0:0:0:
256,192,123066,1,0,0:0:0:0:
256,192,123535,1,8,0:0:0:0:
256,192,124004,1,0,0:0:0:0:
256,192,124472,1,8,0:0:0:0:
256,192,124707,1,8,0:0:0:0:
256,192,124941,1,0,0:0:0:0:
256,192,125410,1,8,0:0:0:0:
256,192,125879,1,4,0:0:0:0:
256,192,126347,1,4,0:0:0:0:
256,192,126816,1,12,0:0:0:0:
256,192,127050,1,12,0:0:0:0:
256,192,127285,1,12,0:0:0:0:
256,192,127754,1,4,0:0:0:0:
256,192,128222,1,8,0:0:0:0:
256,192,128691,1,0,0:0:0:0:
256,192,129160,1,8,0:0:0:0:
256,192,129629,1,0,0:0:0:0:
256,192,130097,1,8,0:0:0:0:
256,192,130332,1,8,0:0:0:0:
256,192,130566,1,0,0:0:0:0:
256,192,131035,1,8,0:0:0:0:
256,192,131504,1,0,0:0:0:0:
256,192,131972,1,8,0:0:0:0:
256,192,132207,1,8,0:0:0:0:
256,192,132441,1,0,0:0:0:0:
256,192,132910,1,8,0:0:0:0:
256,192,133144,1,0,0:0:0:0:
256,192,133379,1,0,0:0:0:0:
256,192,133847,1,0,0:0:0:0:
256,192,134316,1,8,0:0:0:0:
256,192,134785,1,12,0:0:0:0:
256,192,135254,1,0,0:0:0:0:
256,192,135722,1,8,0:0:0:0:
256,192,136191,1,0,0:0:0:0:
256,192,136660,1,8,0:0:0:0:
256,192,136894,1,0,0:0:0:0:
256,192,137129,1,0,0:0:0:0:
256,192,137597,1,8,0:0:0:0:
256,192,138066,1,0,0:0:0:0:
256,192,138535,1,8,0:0:0:0:
256,192,139004,1,0,0:0:0:0:
256,192,139472,1,0,0:0:0:0:
256,192,139707,1,8,0:0:0:0:
256,192,139941,1,0,0:0:0:0:
256,192,140410,1,8,0:0:0:0:
256,192,140879,1,4,0:0:0:0:
256,192,141347,1,4,0:0:0:0:
256,192,141816,1,8,0:0:0:0:
256,192,142285,1,8,0:0:0:0:
256,192,142754,1,12,0:0:0:0:
256,192,150254,5,0,0:0:0:0:
256,192,150722,1,0,0:0:0:0:
256,192,151191,1,8,0:0:0:0:
256,192,151660,1,8,0:0:0:0:
256,192,152129,1,0,0:0:0:0:
256,192,152597,1,8,0:0:0:0:
256,192,152832,1,8,0:0:0:0:
256,192,153066,1,0,0:0:0:0:
256,192,154004,1,0,0:0:0:0:
256,192,154472,1,8,0:0:0:0:
256,192,154707,1,8,0:0:0:0:
256,192,154941,1,0,0:0:0:0:
256,192,155879,1,0,0:0:0:0:
256,192,156347,1,8,0:0:0:0:
256,192,156582,1,8,0:0:0:0:
256,192,156816,1,0,0:0:0:0:
256,192,157754,1,0,0:0:0:0:
256,192,158222,1,8,0:0:0:0:
256,192,158691,1,8,0:0:0:0:
256,192,159160,1,0,0:0:0:0:
256,192,159629,1,0,0:0:0:0:
256,192,160097,1,8,0:0:0:0:
256,192,160332,1,8,0:0:0:0:
256,192,160566,1,0,0:0:0:0:
256,192,161504,1,0,0:0:0:0:
256,192,161972,1,8,0:0:0:0:
256,192,162207,1,8,0:0:0:0:
256,192,162441,1,0,0:0:0:0:
256,192,163379,1,0,0:0:0:0:
256,192,163847,1,8,0:0:0:0:
256,192,164082,1,8,0:0:0:0:
256,192,164316,1,0,0:0:0:0:
256,192,164785,1,4,0:0:0:0:
256,192,165254,1,0,0:0:0:0:
256,192,165722,1,0,0:0:0:0:
256,192,166191,1,8,0:0:0:0:
256,192,166660,1,8,0:0:0:0:
256,192,167129,1,0,0:0:0:0:
256,192,167597,1,8,0:0:0:0:
256,192,167832,1,8,0:0:0:0:
256,192,168066,1,0,0:0:0:0:
256,192,168535,1,4,0:0:0:0:
256,192,169004,1,0,0:0:0:0:
256,192,169472,1,8,0:0:0:0:
256,192,169707,1,0,0:0:0:0:
256,192,169941,1,0,0:0:0:0:
256,192,170410,1,12,0:0:0:0:
256,192,170879,1,0,0:0:0:0:
256,192,171347,1,8,0:0:0:0:
256,192,171582,1,0,0:0:0:0:
256,192,171816,1,0,0:0:0:0:
256,192,172285,1,4,0:0:0:0:
256,192,172754,1,0,0:0:0:0:
256,192,173222,1,0,0:0:0:0:
256,192,173457,1,0,0:0:0:0:
256,192,173691,1,8,0:0:0:0:
256,192,174160,1,8,0:0:0:0:
256,192,174629,1,0,0:0:0:0:
256,192,175097,1,8,0:0:0:0:
256,192,175332,1,0,0:0:0:0:
256,192,175566,1,0,0:0:0:0:
256,192,176035,1,12,0:0:0:0:
256,192,176504,1,0,0:0:0:0:
256,192,176972,1,8,0:0:0:0:
256,192,177207,1,0,0:0:0:0:
256,192,177441,1,0,0:0:0:0:
256,192,177910,1,4,0:0:0:0:
256,192,178379,1,0,0:0:0:0:
256,192,178613,1,0,0:0:0:0:
256,192,178847,1,8,0:0:0:0:
256,192,179082,1,8,0:0:0:0:
256,192,179316,1,0,0:0:0:0:
256,192,180254,1,0,0:0:0:0:
256,192,180722,1,0,0:0:0:0:
256,192,181191,1,0,0:0:0:0:
256,192,181660,1,0,0:0:0:0:
256,192,182129,1,0,0:0:0:0:
256,192,182597,1,0,0:0:0:0:
256,192,183066,1,0,0:0:0:0:
256,192,183535,1,0,0:0:0:0:
256,192,184004,1,0,0:0:0:0:
256,192,184472,1,0,0:0:0:0:
256,192,184941,1,0,0:0:0:0:
256,192,185410,1,0,0:0:0:0:
256,192,185879,1,0,0:0:0:0:
256,192,186347,1,0,0:0:0:0:
256,192,186816,1,0,0:0:0:0:
256,192,187285,1,0,0:0:0:0:
256,192,187754,12,0,191035,0:0:0:0:
320,192,191504,6,0,L|416:192,6,87.5
256,192,193379,1,12,0:0:0:0:
256,192,193847,1,4,0:0:0:0:
256,192,194316,1,8,0:0:0:0:
256,192,194550,1,8,0:0:0:0:
256,192,194785,1,4,0:0:0:0:
256,192,195254,1,0,0:0:0:0:
256,192,195722,1,8,0:0:0:0:
256,192,196191,1,8,0:0:0:0:
256,192,196660,1,0,0:0:0:0:
256,192,196894,1,8,0:0:0:0:
256,192,197129,1,0,0:0:0:0:
256,192,197597,1,0,0:0:0:0:
256,192,198066,1,8,0:0:0:0:
256,192,198535,1,0,0:0:0:0:
256,192,198769,1,0,0:0:0:0:
256,192,199004,1,8,0:0:0:0:
256,192,199472,1,0,0:0:0:0:
256,192,199941,1,8,0:0:0:0:
256,192,200410,1,0,0:0:0:0:
256,192,200644,1,8,0:0:0:0:
256,192,200879,1,0,0:0:0:0:
256,192,201347,1,0,0:0:0:0:
256,192,201816,1,8,0:0:0:0:
256,192,202285,1,12,0:0:0:0:
256,192,202754,1,0,0:0:0:0:
256,192,203222,1,0,0:0:0:0:
256,192,203691,1,8,0:0:0:0:
256,192,204160,1,0,0:0:0:0:
256,192,204394,1,8,0:0:0:0:
256,192,204629,1,0,0:0:0:0:
256,192,205097,1,0,0:0:0:0:
256,192,205566,1,8,0:0:0:0:
256,192,206035,1,0,0:0:0:0:
256,192,206269,1,8,0:0:0:0:
256,192,206504,1,0,0:0:0:0:
256,192,206972,1,0,0:0:0:0:
256,192,207441,1,8,0:0:0:0:
256,192,207910,1,0,0:0:0:0:
256,192,208379,1,4,0:0:0:0:
256,192,208847,1,4,0:0:0:0:
256,192,209316,1,8,0:0:0:0:
256,192,209785,1,12,0:0:0:0:
256,192,210254,1,4,0:0:0:0:
256,192,210722,1,8,0:0:0:0:
256,192,211191,1,0,0:0:0:0:
256,192,211425,1,0,0:0:0:0:
256,192,211660,1,8,0:0:0:0:
256,192,212129,1,0,0:0:0:0:
256,192,212597,1,8,0:0:0:0:
256,192,213066,1,8,0:0:0:0:
256,192,213300,1,0,0:0:0:0:
256,192,213535,1,8,0:0:0:0:
256,192,214004,1,0,0:0:0:0:
256,192,214472,1,0,0:0:0:0:
256,192,214941,1,8,0:0:0:0:
256,192,215410,1,0,0:0:0:0:
256,192,215879,1,0,0:0:0:0:
256,192,216113,1,0,0:0:0:0:
256,192,216347,1,8,0:0:0:0:
256,192,216816,1,0,0:0:0:0:
256,192,217050,1,0,0:0:0:0:
256,192,217285,1,8,0:0:0:0:
256,192,217754,1,0,0:0:0:0:
256,192,218222,1,0,0:0:0:0:
256,192,218691,1,8,0:0:0:0:
256,192,218925,1,8,0:0:0:0:
256,192,219160,1,0,0:0:0:0:
256,192,219629,1,0,0:0:0:0:
256,192,220097,1,8,0:0:0:0:
256,192,220566,1,0,0:0:0:0:
256,192,220800,1,0,0:0:0:0:
256,192,221035,1,8,0:0:0:0:
256,192,221504,1,0,0:0:0:0:
256,192,221972,1,8,0:0:0:0:
256,192,222441,1,8,0:0:0:0:
256,192,222675,1,8,0:0:0:0:
256,192,222910,1,0,0:0:0:0:
256,192,223379,1,4,0:0:0:0:
256,192,223847,1,4,0:0:0:0:
256,192,224316,1,4,0:0:0:0:
256,192,224785,1,12,0:0:0:0:
256,192,225254,1,4,0:0:0:0:
256,192,225722,1,8,0:0:0:0:
256,192,225957,1,0,0:0:0:0:
256,192,226191,1,8,0:0:0:0:
256,192,226660,1,0,0:0:0:0:
256,192,227129,1,0,0:0:0:0:
256,192,227597,1,8,0:0:0:0:
256,192,227832,1,0,0:0:0:0:
256,192,228066,1,8,0:0:0:0:
256,192,228535,1,0,0:0:0:0:
256,192,229004,1,0,0:0:0:0:
256,192,229472,1,8,0:0:0:0:
256,192,229707,1,0,0:0:0:0:
256,192,229941,1,0,0:0:0:0:
256,192,230410,1,8,0:0:0:0:
256,192,230879,1,0,0:0:0:0:
256,192,231347,1,8,0:0:0:0:
256,192,231816,1,8,0:0:0:0:
256,192,232285,1,0,0:0:0:0:
256,192,232754,1,0,0:0:0:0:
256,192,233222,1,8,0:0:0:0:
256,192,233457,1,8,0:0:0:0:
256,192,233691,1,8,0:0:0:0:
256,192,234160,1,0,0:0:0:0:
256,192,234629,1,8,0:0:0:0:
256,192,235097,1,0,0:0:0:0:
256,192,235332,1,0,0:0:0:0:
256,192,235566,1,8,0:0:0:0:
256,192,236035,1,0,0:0:0:0:
256,192,236504,1,0,0:0:0:0:
256,192,236972,1,8,0:0:0:0:
256,192,237441,1,8,0:0:0:0:
256,192,237675,1,8,0:0:0:0:
256,192,237910,1,0,0:0:0:0:
256,192,238379,12,0,240254,0:0:0:0:
256,192,240722,1,8,0:0:0:0:
256,192,241191,1,0,0:0:0:0:
256,192,241425,1,0,0:0:0:0:
256,192,241660,1,8,0:0:0:0:
256,192,242128,1,0,0:0:0:0:
256,192,242597,1,8,0:0:0:0:
256,192,243066,1,0,0:0:0:0:
256,192,243300,1,0,0:0:0:0:
256,192,243535,1,8,0:0:0:0:
256,192,244003,1,0,0:0:0:0:
256,192,244472,1,8,0:0:0:0:
256,192,244941,1,0,0:0:0:0:
256,192,245175,1,0,0:0:0:0:
256,192,245410,1,8,0:0:0:0:
256,192,245879,1,0,0:0:0:0:
256,192,246347,1,8,0:0:0:0:
256,192,246816,1,0,0:0:0:0:
256,192,247285,1,12,0:0:0:0:
256,192,247754,1,0,0:0:0:0:
256,192,248222,1,8,0:0:0:0:
256,192,248925,1,0,0:0:0:0:
256,192,249159,1,8,0:0:0:0:
256,192,249629,1,0,0:0:0:0:
256,192,250097,1,8,0:0:0:0:
256,192,250800,1,0,0:0:0:0:
256,192,251035,1,8,0:0:0:0:
256,192,251504,1,0,0:0:0:0:
256,192,251972,1,8,0:0:0:0:
256,192,252441,1,0,0:0:0:0:
256,192,252675,1,0,0:0:0:0:
256,192,252910,1,0,0:0:0:0:
256,192,255254,1,12,0:0:0:0:
256,192,255722,1,8,0:0:0:0:
256,192,256191,1,0,0:0:0:0:
256,192,256425,1,0,0:0:0:0:
256,192,256660,1,8,0:0:0:0:
256,192,257129,1,0,0:0:0:0:
256,192,257597,1,8,0:0:0:0:
256,192,258066,1,8,0:0:0:0:
256,192,258300,1,0,0:0:0:0:
256,192,258535,1,8,0:0:0:0:
256,192,259004,1,0,0:0:0:0:
256,192,259472,1,8,0:0:0:0:
256,192,259941,1,0,0:0:0:0:
256,192,260175,1,0,0:0:0:0:
256,192,260410,1,8,0:0:0:0:
256,192,260879,1,0,0:0:0:0:
256,192,261347,1,0,0:0:0:0:
256,192,261816,1,0,0:0:0:0:
256,192,262285,1,4,0:0:0:0:
256,192,262754,1,0,0:0:0:0:
256,192,263222,1,8,0:0:0:0:
256,192,263691,1,0,0:0:0:0:
256,192,263925,1,0,0:0:0:0:
256,192,264160,1,8,0:0:0:0:
256,192,264629,1,8,0:0:0:0:
256,192,265097,1,0,0:0:0:0:
256,192,265566,1,8,0:0:0:0:
256,192,265800,1,8,0:0:0:0:
256,192,266035,1,0,0:0:0:0:
256,192,266504,1,0,0:0:0:0:
256,192,266972,1,8,0:0:0:0:
256,192,267441,1,0,0:0:0:0:
256,192,267675,1,0,0:0:0:0:
256,192,267910,1,8,0:0:0:0:
256,192,268379,1,0,0:0:0:0:
256,192,268847,1,0,0:0:0:0:
256,192,269316,1,0,0:0:0:0:
256,192,269785,1,8,0:0:0:0:
256,192,270254,1,12,0:0:0:0:
256,192,270722,1,0,0:0:0:0:
256,192,271191,1,0,0:0:0:0:
256,192,271660,1,0,0:0:0:0:
256,192,272129,1,8,0:0:0:0:
256,192,272597,1,0,0:0:0:0:
256,192,273066,1,0,0:0:0:0:
256,192,273535,1,0,0:0:0:0:
256,192,274004,1,8,0:0:0:0:
256,192,274472,1,0,0:0:0:0:
256,192,274941,1,0,0:0:0:0:
256,192,275410,1,8,0:0:0:0:
256,192,275879,1,8,0:0:0:0:
256,192,276113,1,8,0:0:0:0:
256,192,276582,1,0,0:0:0:0:
256,192,276816,1,8,0:0:0:0:
256,192,277754,1,0,0:0:0:0:
256,192,278222,1,0,0:0:0:0:
256,192,278691,1,0,0:0:0:0:
256,192,279160,1,8,0:0:0:0:
256,192,279629,1,0,0:0:0:0:
256,192,280097,1,0,0:0:0:0:
256,192,280566,1,0,0:0:0:0:
256,192,281035,1,8,0:0:0:0:
256,192,281504,1,0,0:0:0:0:
256,192,281972,1,0,0:0:0:0:
256,192,282441,1,8,0:0:0:0:
256,192,282910,1,8,0:0:0:0:
256,192,283379,12,0,284785,0:0:0:0:
256,192,285254,5,4,0:0:0:0:
256,192,285957,5,0,0:0:0:0:
256,192,286191,1,0,0:0:0:0:
256,192,287129,1,0,0:0:0:0:
256,192,287363,1,0,0:0:0:0:
256,192,287832,1,0,0:0:0:0:
256,192,288066,1,0,0:0:0:0:
256,192,288535,1,8,0:0:0:0:
256,192,289004,1,0,0:0:0:0:
256,192,289707,1,0,0:0:0:0:
256,192,289941,1,0,0:0:0:0:
256,192,290879,1,0,0:0:0:0:
256,192,291114,1,0,0:0:0:0:
256,192,291582,1,0,0:0:0:0:
256,192,291817,1,0,0:0:0:0:
256,192,292285,1,8,0:0:0:0:
256,192,292754,1,0,0:0:0:0:
256,192,292988,1,0,0:0:0:0:
256,192,293457,1,0,0:0:0:0:
256,192,293691,1,0,0:0:0:0:
256,192,294629,1,0,0:0:0:0:
256,192,294863,1,0,0:0:0:0:
256,192,295332,1,0,0:0:0:0:
256,192,295566,1,0,0:0:0:0:
256,192,295801,1,0,0:0:0:0:
256,192,296035,1,8,0:0:0:0:
256,192,296504,1,0,0:0:0:0:
256,192,296738,1,0,0:0:0:0:
256,192,297207,1,0,0:0:0:0:
256,192,297441,1,0,0:0:0:0:
256,192,298379,1,0,0:0:0:0:
256,192,298613,1,0,0:0:0:0:
256,192,298847,1,0,0:0:0:0:
256,192,299082,1,0,0:0:0:0:
256,192,299316,1,0,0:0:0:0:
256,192,299785,1,0,0:0:0:0:
256,192,300254,1,8,0:0:0:0:
