osu file format v5

[General]
AudioFilename: SMRPG.mp3
AudioLeadIn: 0
PreviewTime: -1
Countdown: 1
SampleSet: Normal
StackLeniency: 0.7
Mode: 0
LetterboxInBreaks: 1

[Metadata]
Title:Rawest Forest
Artist:Marta
Creator:depressio
Version:Easy
Source:
Tags:

[Difficulty]
HPDrainRate:3
CircleSize:5
OverallDifficulty:4
SliderMultiplier:1.6
SliderTickRate:1

[Events]
//Background and Video events
//Break Periods
2,24976,34436
2,61668,66099
2,92213,102418
2,114937,126445
//Storyboard Layer 0 (Background)
//Storyboard Layer 1 (Failing)
//Storyboard Layer 2 (Passing)
//Storyboard Layer 3 (Foreground)
//Storyboard Sound Samples
//Background Colour Transformations
3,100,2,104,7

[TimingPoints]
1490,375.041300000001,4,1,0,100,1

[Colours]
Combo1 : 1,116,4
Combo2 : 236,0,0
Combo3 : 20,51,156
Combo4 : 237,1,237

[HitObjects]
64,128,13444,1,0
128,192,13819,1,0
192,288,14194,2,0,B|384:288,1,160
352,288,14944,2,0,B|352:96,2,160
96,64,16444,5,0
96,192,16819,1,0
192,128,17194,1,0
192,256,17570,1,0
288,192,17945,1,0
288,320,18320,1,0
384,256,18695,1,0
256,128,19445,5,0
352,128,19820,1,0
448,128,20195,2,0,B|448:320,1,160
352,288,20945,2,0,B|160:288,1,160
192,288,21695,1,0
128,160,22445,6,0,B|480:160,3,320
256,192,35540,12,0,36790
64,64,37447,5,0
64,192,37822,1,0
64,320,38197,2,0,B|256:320,1,160
320,320,38947,1,0
256,224,39322,1,0
192,128,39697,1,0
64,288,40447,6,0,B|256:288,1,160
288,224,41197,1,0
192,160,41572,1,0
288,96,41947,1,0
416,96,42322,2,0,B|416:288,1,160
256,96,43447,5,0
128,160,43822,1,0
256,224,44197,1,0
128,288,44572,1,0
32,288,44948,2,0,B|32:96,1,160
32,128,45698,1,0
64,224,46448,6,0,B|256:224,1,160
224,224,47198,1,0
320,224,47573,1,0
416,128,47948,2,2,B|224:128,1,160
256,128,48698,1,2
96,256,49448,2,0,B|288:256,2,160
96,64,50948,1,0
224,160,51323,1,0
96,192,51698,2,0,B|224:320,1,160
416,64,52448,5,0
288,160,52823,1,0
416,224,53198,1,0
352,320,53573,2,0,B|192:192,4,160
256,192,55495,12,0,56996
320,96,57699,1,0
192,96,58074,1,0
64,128,58449,2,0,B|64:320,1,160
160,288,59199,2,0,B|160:96,1,160
256,128,59949,2,0,B|256:320,1,160
352,288,60699,2,0,B|352:96,2,160
96,96,67169,5,0
192,96,67544,1,0
192,256,68200,1,0
288,256,68528,1,0
384,96,69372,5,0
96,96,69747,2,0,B|96:352,1,240
256,192,70622,12,0,73372
160,224,74904,6,0,B|416:224,1,240
192,160,76170,2,0,B|352:160,1,140
160,64,79451,6,0,B|160:352,2,266.666666666667
320,96,81139,6,0,B|320:352,2,240
256,192,82670,12,0,85296
128,160,86952,2,0,B|273:52|416:160,3,266.666666666667
128,224,90046,6,0,B|284:309|416:192,3,266.666666666667
192,64,103454,5,0
128,160,103829,1,0
64,256,104204,2,0,B|256:256,1,160
352,256,104954,2,0,B|352:64,2,160
96,160,107579,5,0
96,288,107954,2,0,B|288:288,2,160
256,160,109423,2,0,B|448:160,1,160
416,160,110205,1,0
160,96,110955,1,0
160,160,111330,1,0
160,224,111705,1,0
256,96,112455,5,0
256,160,112830,1,0
256,224,113205,1,0
352,96,113955,5,0
352,160,114330,1,0
352,224,114705,1,0
64,64,127457,5,0
64,192,127832,1,0
64,288,128207,2,0,B|256:288,1,160
352,288,128957,1,0
288,192,129332,1,0
384,128,129707,1,0
64,96,130457,6,0,B|224:192,1,160
96,256,131207,1,0
192,320,131582,1,0
256,256,131957,1,0
256,160,132332,1,0
256,64,132707,1,0
96,64,133457,5,0
96,160,133832,1,0
96,256,134207,2,0,B|288:256,1,160
256,160,134926,2,0,B|448:160,1,160
416,160,135676,1,0
64,224,136458,6,0,B|256:224,1,160
224,224,137208,1,0
416,224,137583,1,0
416,128,137958,2,2,B|224:128,1,160
256,128,138708,1,2
96,64,139458,5,0
96,192,139833,1,0
96,320,140208,2,0,B|288:320,1,160
384,320,140958,1,0
352,224,141333,1,0
256,160,141708,2,0,B|448:160,1,160
352,64,142458,5,0
352,192,142833,1,0
352,320,143208,2,0,B|160:320,5,160
256,192,145318,12,0,146944
320,96,147662,1,0
192,96,148037,1,0
96,128,148412,2,0,B|96:320,1,160
192,288,149162,2,0,B|192:96,1,160
288,128,149912,2,0,B|288:320,1,160
384,288,150662,2,0,B|384:96,2,160
256,192,152381,12,0,156007
256,128,156663,2,0,B|256:320,2,160
