osu file format v14

[General]
AudioFilename: Marshmello x Ookay - Chasing Colors (ft. Noah Cyrus).mp3
AudioLeadIn: 0
PreviewTime: 38623
Countdown: 1
SampleSet: None
StackLeniency: 0.7
Mode: 0
LetterboxInBreaks: 1
WidescreenStoryboard: 0

[Editor]
Bookmarks: 6623,13023,25823,32223,38623
DistanceSpacing: 2
BeatDivisor: 4
GridSize: 8
TimelineZoom: 1.4

[Metadata]
Title:Chasing Colors (ft. Noah Cyrus)
TitleUnicode:Chasing Colors (ft. Noah Cyrus)
Artist:Marshmello x Ookay
ArtistUnicode:Marshmello x Ookay
Creator:Shiguri
Version:123
Source:
Tags:Dance Electronic
BeatmapID:1325438
BeatmapSetID:628724

[Difficulty]
HPDrainRate:6
CircleSize:4
OverallDifficulty:8
ApproachRate:8.5
SliderMultiplier:1.6
SliderTickRate:1

[Events]
//Background and Video events
0,0,"loligirltbh.jpg",0,0
//Break Periods
2,13223,25148
//Storyboard Layer 0 (Background)
//Storyboard Layer 1 (Fail)
//Storyboard Layer 2 (Pass)
//Storyboard Layer 3 (Foreground)
//Storyboard Sound Samples

[TimingPoints]
223,400,4,3,0,60,1,0
38623,-100,4,3,0,60,0,1
63423,-100,4,3,0,60,0,0
64223,-100,4,3,0,60,0,1
89823,-100,4,3,0,60,0,0

[HitObjects]
128,166,223,5,0,0:0:0:0:
128,166,423,1,0,0:0:0:0:
226,284,623,2,0,L|238:199,1,80
74,104,1023,5,0,0:0:0:0:
74,104,1223,1,0,0:0:0:0:
216,50,1423,2,0,L|206:146,1,80
147,284,1823,6,0,P|186:278|235:286,1,80
370,338,2223,2,0,P|327:342|283:362,1,80
382,219,2623,6,0,L|378:129,1,80
442,36,3023,1,0,0:0:0:0:
285,58,3223,1,0,0:0:0:0:
214,244,3423,6,0,L|317:241,1,80
165,190,3823,1,0,0:0:0:0:
136,171,4023,1,0,0:0:0:0:
251,313,4223,6,0,L|354:310,1,80
203,123,4623,1,0,0:0:0:0:
166,99,4823,1,0,0:0:0:0:
290,383,5023,6,0,L|393:380,1,80
233,52,5423,1,0,0:0:0:0:
186,22,5623,1,0,0:0:0:0:
186,22,6623,6,0,B|272:47|272:0|345:23,1,160
287,182,7223,1,0,0:0:0:0:
306,88,7423,1,0,0:0:0:0:
369,186,7623,1,0,0:0:0:0:
202,172,7823,2,0,L|112:165,1,80
92,321,8223,5,0,0:0:0:0:
146,243,8423,1,0,0:0:0:0:
34,269,8623,1,0,0:0:0:0:
153,375,8823,1,0,0:0:0:0:
292,296,9023,2,0,P|325:268|352:228,1,80
271,96,9423,1,0,0:0:0:0:
264,216,9623,1,0,0:0:0:0:
328,30,9823,6,0,P|292:17|243:23,2,80
362,121,10423,1,0,0:0:0:0:
188,146,10623,6,0,P|160:119|113:103,2,80
215,270,11223,1,0,0:0:0:0:
70,268,11423,6,0,P|69:229|47:185,2,80
31,384,12023,1,0,0:0:0:0:
215,270,12223,1,0,0:0:0:0:
362,121,12623,5,0,0:0:0:0:
384,362,13023,1,0,2:2:0:0:
384,362,25823,6,0,P|372:319|373:277,1,80
264,175,26223,2,0,P|237:203|218:239,1,80
290,384,26623,1,0,0:0:0:0:
299,251,26823,1,0,0:0:0:0:
121,339,27023,2,0,L|208:341,1,80
109,171,27423,5,0,0:0:0:0:
26,257,27623,1,0,0:0:0:0:
110,255,27823,1,0,0:0:0:0:
24,172,28023,1,0,0:0:0:0:
193,213,28223,6,0,L|298:214,1,80
399,118,28623,2,0,L|319:117,1,80
418,260,29023,5,0,0:0:0:0:
418,260,29223,1,0,0:0:0:0:
490,129,29423,2,0,P|483:85|463:47,1,80
361,329,29823,5,0,0:0:0:0:
500,238,30023,1,0,0:0:0:0:
399,118,30223,2,0,L|408:214,1,80
279,384,30623,6,0,P|266:343|269:294,1,80
209,143,31023,2,0,P|189:181|152:213,1,80
33,345,31423,2,0,P|74:332|123:335,1,80
266,306,31823,1,0,0:0:0:0:
110,332,32023,1,0,0:0:0:0:
266,306,32223,5,0,0:0:0:0:
412,178,32423,1,0,0:0:0:0:
405,323,32623,1,0,0:0:0:0:
254,224,32823,1,0,0:0:0:0:
472,248,33023,5,0,0:0:0:0:
317,364,33223,1,0,0:0:0:0:
283,143,33423,1,0,0:0:0:0:
376,250,33623,1,0,0:0:0:0:
166,291,33823,5,0,0:0:0:0:
356,176,34023,1,0,0:0:0:0:
233,361,34223,1,0,0:0:0:0:
167,172,34423,1,0,0:0:0:0:
310,315,34623,5,0,0:0:0:0:
137,384,34823,1,0,0:0:0:0:
276,143,35023,1,0,0:0:0:0:
403,338,35223,1,0,0:0:0:0:
157,251,35423,5,0,0:0:0:0:
142,222,35523,1,0,0:0:0:0:
133,191,35623,1,0,0:0:0:0:
132,159,35723,1,0,0:0:0:0:
243,89,35823,5,0,0:0:0:0:
233,119,35923,1,0,0:0:0:0:
202,108,36023,1,0,0:0:0:0:
212,78,36123,1,0,0:0:0:0:
329,118,36223,5,0,0:0:0:0:
341,147,36323,1,0,0:0:0:0:
347,178,36423,1,0,0:0:0:0:
346,209,36523,1,0,0:0:0:0:
279,275,36623,6,0,L|289:335,3,40
396,346,37023,5,0,0:0:0:0:
432,328,37123,1,0,0:0:0:0:
462,302,37223,1,0,0:0:0:0:
481,267,37323,1,0,0:0:0:0:
486,219,37423,5,0,0:0:0:0:
427,230,37523,1,0,0:0:0:0:
368,217,37623,1,0,0:0:0:0:
334,167,37723,1,0,0:0:0:0:
333,107,37823,1,0,0:0:0:0:
333,107,38623,6,0,P|321:84|316:62,1,40
408,62,38823,1,0,0:0:0:0:
230,208,39023,1,0,0:0:0:0:
288,0,39223,1,0,0:0:0:0:
230,208,39423,1,0,0:0:0:0:
288,0,39823,5,0,0:0:0:0:
113,89,40023,1,0,0:0:0:0:
230,208,40223,2,0,B|271:202|271:202|323:208,1,80
225,365,40623,2,0,B|183:370|183:370|131:364,1,80
309,207,41023,5,0,0:0:0:0:
473,260,41223,1,0,0:0:0:0:
225,365,41423,1,0,0:0:0:0:
61,312,41623,1,0,0:0:0:0:
349,83,41823,5,0,0:0:0:0:
349,83,42023,1,0,0:0:0:0:
348,163,42223,1,0,0:0:0:0:
279,122,42423,1,0,0:0:0:0:
349,83,42623,5,0,0:0:0:0:
349,83,42823,1,0,0:0:0:0:
347,203,43023,1,0,0:0:0:0:
243,141,43223,1,0,0:0:0:0:
349,83,43423,5,0,0:0:0:0:
349,83,43623,1,0,0:0:0:0:
346,263,43823,1,0,0:0:0:0:
189,170,44023,1,0,0:0:0:0:
349,83,44223,5,0,0:0:0:0:
344,353,44423,1,0,0:0:0:0:
108,213,44623,1,0,0:0:0:0:
349,83,44823,1,0,0:0:0:0:
158,349,45023,6,0,B|130:355|130:355|103:354,1,40
273,209,45423,1,0,0:0:0:0:
158,349,45823,1,0,0:0:0:0:
273,209,46223,5,0,0:0:0:0:
168,119,46423,1,0,0:0:0:0:
242,296,46623,2,0,P|288:297|344:287,1,80
168,119,47023,2,0,P|122:118|66:128,1,80
273,209,47423,5,0,0:0:0:0:
294,22,47623,1,0,0:0:0:0:
340,168,47823,1,0,0:0:0:0:
189,209,48023,1,0,0:0:0:0:
396,83,48223,5,0,0:0:0:0:
396,83,48423,1,0,0:0:0:0:
417,160,48623,1,0,0:0:0:0:
438,236,48823,1,0,0:0:0:0:
411,64,49023,5,0,0:0:0:0:
411,64,49223,1,0,0:0:0:0:
437,160,49423,1,0,0:0:0:0:
463,255,49623,1,0,0:0:0:0:
426,35,49823,5,0,0:0:0:0:
426,35,50023,1,0,0:0:0:0:
458,155,50223,1,0,0:0:0:0:
491,273,50423,1,0,0:0:0:0:
249,204,50623,5,0,0:0:0:0:
426,35,50823,1,0,0:0:0:0:
491,273,51023,1,0,0:0:0:0:
249,204,51223,1,0,0:0:0:0:
390,141,51423,6,0,P|399:166|402:190,1,40
249,204,51623,1,0,0:0:0:0:
294,55,51823,1,0,0:0:0:0:
316,298,52023,1,0,0:0:0:0:
294,55,52223,1,0,0:0:0:0:
316,298,52623,5,0,0:0:0:0:
157,322,52823,1,0,0:0:0:0:
384,257,53023,2,0,L|483:256,1,80
157,322,53423,2,0,L|58:321,1,80
320,189,53823,5,0,0:0:0:0:
349,346,54023,1,0,0:0:0:0:
188,245,54223,1,0,0:0:0:0:
217,88,54423,1,0,0:0:0:0:
387,159,54623,5,0,0:0:0:0:
348,344,54823,1,0,0:0:0:0:
283,205,55023,1,0,0:0:0:0:
455,331,55223,1,0,0:0:0:0:
241,308,55423,5,0,0:0:0:0:
444,243,55623,1,0,0:0:0:0:
274,123,55823,1,0,0:0:0:0:
358,253,56023,1,0,0:0:0:0:
189,213,56223,5,0,0:0:0:0:
358,79,56423,1,0,0:0:0:0:
281,207,56623,1,0,0:0:0:0:
219,51,56823,1,0,0:0:0:0:
456,162,57023,5,0,0:0:0:0:
124,146,57223,1,0,0:0:0:0:
469,189,57423,1,0,0:0:0:0:
137,173,57623,1,0,0:0:0:0:
438,44,57823,6,0,B|448:71|448:71|453:104,1,40
325,244,58223,1,0,0:0:0:0:
438,44,58623,1,0,0:0:0:0:
325,244,59023,5,0,0:0:0:0:
438,44,59223,1,0,0:0:0:0:
469,189,59423,2,0,L|371:174,1,80
203,54,59823,2,0,L|301:39,1,80
221,221,60223,5,0,0:0:0:0:
203,54,60423,1,0,0:0:0:0:
326,281,60623,1,0,0:0:0:0:
143,304,60823,1,0,0:0:0:0:
338,195,61023,5,0,0:0:0:0:
396,336,61223,1,0,0:0:0:0:
251,201,61423,1,0,0:0:0:0:
283,127,61623,1,0,0:0:0:0:
324,160,61823,5,0,0:0:0:0:
396,336,62023,1,0,0:0:0:0:
215,167,62223,1,0,0:0:0:0:
255,75,62423,1,0,0:0:0:0:
306,116,62623,5,0,0:0:0:0:
396,336,62823,1,0,0:0:0:0:
169,124,63023,1,0,0:0:0:0:
219,9,63223,1,0,0:0:0:0:
241,300,63423,5,0,0:0:0:0:
0,269,63623,1,0,0:0:0:0:
247,315,63823,1,0,0:0:0:0:
6,284,64023,1,0,0:0:0:0:
319,208,64223,6,0,P|331:239|333:261,1,40
328,340,64423,1,0,0:0:0:0:
189,137,64623,1,0,0:0:0:0:
423,120,64823,1,0,0:0:0:0:
197,278,65023,6,0,B|155:284|158:266|118:280,1,80
71,360,65423,1,0,0:0:0:0:
283,304,65623,1,0,0:0:0:0:
25,180,65823,2,0,P|23:218|33:273,1,80
297,144,66223,2,0,P|299:106|289:51,1,80
142,117,66623,5,0,0:0:0:0:
320,261,66823,1,0,0:0:0:0:
117,201,67023,5,0,0:0:0:0:
344,176,67223,1,0,0:0:0:0:
119,99,67423,5,0,0:0:0:0:
342,279,67623,1,0,0:0:0:0:
88,204,67823,1,0,0:0:0:0:
373,173,68023,1,0,0:0:0:0:
119,333,68223,5,0,0:0:0:0:
335,87,68423,1,0,0:0:0:0:
238,373,68623,1,0,0:0:0:0:
216,47,68823,1,0,0:0:0:0:
408,170,69023,5,0,0:0:0:0:
53,207,69223,1,0,0:0:0:0:
370,301,69423,1,0,0:0:0:0:
91,76,69623,1,0,0:0:0:0:
235,332,69823,5,0,0:0:0:0:
219,88,70023,1,0,0:0:0:0:
146,302,70223,1,0,0:0:0:0:
308,118,70423,1,0,0:0:0:0:
345,255,70623,6,0,P|301:260|246:245,1,80
404,66,71023,2,0,P|448:61|503:76,1,80
307,183,71423,1,0,0:0:0:0:
433,139,71623,1,0,0:0:0:0:
428,265,71823,2,0,L|429:356,1,80
225,148,72223,6,0,B|242:113|242:113|228:69,1,80
42,172,72623,2,0,B|25:207|25:207|39:251,1,80
229,73,73023,1,0,0:0:0:0:
37,246,73223,1,0,0:0:0:0:
97,22,73423,1,0,0:0:0:0:
197,259,73623,1,0,0:0:0:0:
229,73,73823,5,0,0:0:0:0:
197,259,74023,1,0,0:0:0:0:
377,206,74223,1,0,0:0:0:0:
193,160,74423,1,0,0:0:0:0:
313,318,74623,5,0,0:0:0:0:
335,75,74823,1,0,0:0:0:0:
289,225,75023,1,0,0:0:0:0:
470,173,75223,1,0,0:0:0:0:
197,91,75423,5,0,0:0:0:0:
239,295,75623,1,0,0:0:0:0:
320,172,75823,1,0,0:0:0:0:
116,214,76023,1,0,0:0:0:0:
370,305,76223,5,0,0:0:0:0:
419,38,76423,1,0,0:0:0:0:
388,324,76623,1,0,0:0:0:0:
437,57,76823,1,0,0:0:0:0:
300,271,77023,6,0,B|260:278|260:278|217:275,1,80
341,168,77423,1,0,0:0:0:0:
280,355,77623,1,0,0:0:0:0:
202,184,77823,2,0,B|186:146|211:132|192:96,1,80
75,55,78223,1,0,0:0:0:0:
204,219,78423,1,0,0:0:0:0:
374,57,78623,6,0,P|314:40|278:43,1,80
126,235,79023,2,0,P|165:232|203:218,1,80
75,55,79423,1,0,0:0:0:0:
145,319,79623,1,0,0:0:0:0:
209,160,79823,1,0,0:0:0:0:
11,213,80023,1,0,0:0:0:0:
296,312,80223,5,0,0:0:0:0:
395,97,80423,1,0,0:0:0:0:
450,280,80623,1,0,0:0:0:0:
276,308,80823,1,0,0:0:0:0:
491,194,81023,5,0,0:0:0:0:
303,70,81223,1,0,0:0:0:0:
373,349,81423,1,0,0:0:0:0:
394,192,81623,1,0,0:0:0:0:
192,310,81823,5,0,0:0:0:0:
386,280,82023,1,0,0:0:0:0:
272,136,82223,1,0,0:0:0:0:
283,333,82423,1,0,0:0:0:0:
123,151,82623,5,0,0:0:0:0:
287,106,82823,1,0,0:0:0:0:
182,46,83023,1,0,0:0:0:0:
227,210,83223,1,0,0:0:0:0:
125,376,83423,6,0,P|92:311|94:274,1,80
281,245,83823,2,0,P|231:297|196:308,1,80
48,136,84223,2,0,P|120:134|153:151,1,80
270,358,84623,1,0,0:0:0:0:
282,98,84823,1,0,0:0:0:0:
203,223,85023,6,0,L|299:249,1,80
493,123,85423,2,0,L|396:149,1,80
378,335,85823,1,0,0:0:0:0:
399,123,86023,1,0,0:0:0:0:
308,297,86223,1,0,0:0:0:0:
503,237,86423,1,0,0:0:0:0:
186,208,86623,5,0,0:0:0:0:
376,258,86823,1,0,0:0:0:0:
237,110,87023,1,0,0:0:0:0:
250,326,87223,1,0,0:0:0:0:
113,166,87423,5,0,0:0:0:0:
312,197,87623,1,0,0:0:0:0:
123,330,87823,1,0,0:0:0:0:
146,86,88023,1,0,0:0:0:0:
308,346,88223,5,0,0:0:0:0:
45,251,88423,1,0,0:0:0:0:
301,165,88623,1,0,0:0:0:0:
152,384,88823,1,0,0:0:0:0:
140,118,89023,5,0,0:0:0:0:
439,73,89223,1,0,0:0:0:0:
148,276,89423,1,0,0:0:0:0:
279,0,89623,1,0,0:0:0:0:
299,144,89823,5,0,0:0:0:0:
