osu file format v14

[General]
AudioFilename: Marshmello - Alone.mp3
AudioLeadIn: 0
PreviewTime: 101730
Countdown: 0
SampleSet: Soft
StackLeniency: 0.7
Mode: 3
LetterboxInBreaks: 0
SpecialStyle: 0
WidescreenStoryboard: 0

[Editor]
DistanceSpacing: 3
BeatDivisor: 4
GridSize: 4
TimelineZoom: 1.5

[Metadata]
Title:Alone
TitleUnicode:Alone
Artist:Marshmello
ArtistUnicode:Marshmello
Creator:erlinadewi-
Version:HD
Source:
Tags:Original Mix Monstercat Trap leoudel -BANGKE- MEGAtive
BeatmapID:1001517
BeatmapSetID:468213

[Difficulty]
HPDrainRate:7.5
CircleSize:4
OverallDifficulty:7.5
ApproachRate:5
SliderMultiplier:1.4
SliderTickRate:1

[Events]
//Background and Video events
0,0,"Background.jpg",0,0
//Break Periods
//Storyboard Layer 0 (Background)
//Storyboard Layer 1 (Fail)
//Storyboard Layer 2 (Pass)
//Storyboard Layer 3 (Foreground)
//Storyboard Sound Samples

[TimingPoints]
5,422.535211267606,4,2,1,40,1,0
108174,-100,4,2,1,40,0,1
135216,-100,4,2,1,40,0,0

[HitObjects]
64,192,5,5,0,0:0:0:0:
448,192,216,5,0,0:0:0:0:
320,192,216,1,0,0:0:0:0:
192,192,427,1,0,0:0:0:0:
448,192,638,1,0,0:0:0:0:
320,192,638,1,0,0:0:0:0:
64,192,850,1,0,0:0:0:0:
448,192,1061,1,0,0:0:0:0:
320,192,1061,1,0,0:0:0:0:
192,192,1272,1,0,0:0:0:0:
320,192,1483,1,0,0:0:0:0:
64,192,1483,1,0,0:0:0:0:
448,192,1695,1,0,0:0:0:0:
192,192,1906,1,0,0:0:0:0:
64,192,1906,1,0,0:0:0:0:
320,192,2117,1,0,0:0:0:0:
192,192,2328,1,0,0:0:0:0:
64,192,2328,1,0,0:0:0:0:
448,192,2540,1,0,0:0:0:0:
192,192,2751,1,0,0:0:0:0:
64,192,2751,1,0,0:0:0:0:
320,192,2962,1,0,0:0:0:0:
448,192,3174,1,0,0:0:0:0:
64,192,3174,1,0,0:0:0:0:
192,192,3385,1,0,0:0:0:0:
64,192,3596,1,0,0:0:0:0:
320,192,3596,1,0,0:0:0:0:
448,192,3807,1,0,0:0:0:0:
64,192,4019,1,0,0:0:0:0:
320,192,4019,1,0,0:0:0:0:
192,192,4230,1,0,0:0:0:0:
64,192,4441,1,0,0:0:0:0:
320,192,4441,1,0,0:0:0:0:
448,192,4652,1,0,0:0:0:0:
64,192,4864,1,0,0:0:0:0:
192,192,4864,1,0,0:0:0:0:
320,192,5075,1,0,0:0:0:0:
448,192,5286,1,0,0:0:0:0:
192,192,5286,1,0,0:0:0:0:
64,192,5497,1,0,0:0:0:0:
448,192,5709,1,0,0:0:0:0:
192,192,5709,1,0,0:0:0:0:
320,192,5920,1,0,0:0:0:0:
448,192,6131,1,0,0:0:0:0:
192,192,6131,1,0,0:0:0:0:
64,192,6343,1,0,0:0:0:0:
320,192,6554,1,0,0:0:0:0:
448,192,6554,1,0,0:0:0:0:
192,192,6765,1,0,0:0:0:0:
64,192,6976,1,0,0:0:0:0:
448,192,6976,1,0,0:0:0:0:
320,192,7188,1,0,0:0:0:0:
64,192,7399,1,0,0:0:0:0:
448,192,7399,1,0,0:0:0:0:
192,192,7610,1,0,0:0:0:0:
64,192,7821,1,0,0:0:0:0:
448,192,7821,1,0,0:0:0:0:
320,192,8033,1,0,0:0:0:0:
64,192,8244,1,0,0:0:0:0:
192,192,8244,1,0,0:0:0:0:
448,192,8455,1,0,0:0:0:0:
320,192,8666,1,0,0:0:0:0:
192,192,8666,1,0,0:0:0:0:
64,192,8878,1,0,0:0:0:0:
320,192,9089,1,0,0:0:0:0:
192,192,9089,1,0,0:0:0:0:
448,192,9300,1,0,0:0:0:0:
192,192,9512,1,0,0:0:0:0:
320,192,9512,1,0,0:0:0:0:
64,192,9723,1,0,0:0:0:0:
192,192,9934,1,0,0:0:0:0:
448,192,9934,1,0,0:0:0:0:
320,192,10145,1,0,0:0:0:0:
64,192,10357,1,0,0:0:0:0:
192,192,10357,1,0,0:0:0:0:
448,192,10568,1,0,0:0:0:0:
64,192,10779,1,0,0:0:0:0:
192,192,10779,1,0,0:0:0:0:
320,192,10990,1,0,0:0:0:0:
64,192,11202,1,0,0:0:0:0:
192,192,11202,1,0,0:0:0:0:
448,192,11413,1,0,0:0:0:0:
320,192,11624,1,0,0:0:0:0:
192,192,11624,1,0,0:0:0:0:
64,192,11835,1,0,0:0:0:0:
320,192,12047,1,0,0:0:0:0:
448,192,12047,1,0,0:0:0:0:
192,192,12258,1,0,0:0:0:0:
448,192,12469,1,0,0:0:0:0:
320,192,12469,1,0,0:0:0:0:
64,192,12681,1,0,0:0:0:0:
448,192,12892,1,0,0:0:0:0:
320,192,12892,1,0,0:0:0:0:
192,192,13103,1,0,0:0:0:0:
64,192,13314,1,0,0:0:0:0:
320,192,13314,1,0,0:0:0:0:
192,192,13526,1,0,0:0:0:0:
448,192,13526,1,0,0:0:0:0:
64,192,13526,1,4,0:0:0:0:
320,192,13737,1,0,0:0:0:0:
64,192,13948,1,0,0:0:0:0:
448,192,13948,1,0,0:0:0:0:
192,192,14159,1,0,0:0:0:0:
64,192,14371,1,0,0:0:0:0:
320,192,14371,1,0,0:0:0:0:
192,192,14582,1,0,0:0:0:0:
448,192,14793,1,0,0:0:0:0:
320,192,14793,1,0,0:0:0:0:
192,192,15005,5,0,0:0:0:0:
64,192,15005,1,0,0:0:0:0:
320,192,15216,1,0,0:0:0:0:
448,192,15216,128,0,16483:0:0:0:0:
64,192,15427,1,0,0:0:0:0:
192,192,15638,1,0,0:0:0:0:
320,192,15850,1,0,0:0:0:0:
64,192,16061,1,0,0:0:0:0:
320,192,16272,1,0,0:0:0:0:
64,192,16483,1,0,0:0:0:0:
192,192,16483,1,0,0:0:0:0:
448,192,16695,1,0,0:0:0:0:
192,192,16906,1,0,0:0:0:0:
320,192,16906,1,0,0:0:0:0:
64,192,17117,1,0,0:0:0:0:
448,192,17328,1,0,0:0:0:0:
192,192,17328,1,0,0:0:0:0:
320,192,17540,1,0,0:0:0:0:
192,192,17751,1,0,0:0:0:0:
64,192,17751,1,0,0:0:0:0:
320,192,17962,1,0,0:0:0:0:
448,192,18174,1,0,0:0:0:0:
64,192,18174,1,0,0:0:0:0:
320,192,18385,1,0,0:0:0:0:
192,192,18385,1,0,0:0:0:0:
64,192,18596,128,0,19864:0:0:0:0:
448,192,18596,1,0,0:0:0:0:
192,192,18807,1,0,0:0:0:0:
320,192,19019,1,0,0:0:0:0:
448,192,19230,1,0,0:0:0:0:
192,192,19441,1,0,0:0:0:0:
320,192,19652,1,0,0:0:0:0:
192,192,19864,1,0,0:0:0:0:
448,192,19864,1,0,0:0:0:0:
320,192,20075,1,0,0:0:0:0:
192,192,20286,1,0,0:0:0:0:
64,192,20286,1,0,0:0:0:0:
448,192,20497,1,0,0:0:0:0:
64,192,20709,1,0,0:0:0:0:
320,192,20709,1,0,0:0:0:0:
192,192,20920,1,0,0:0:0:0:
64,192,21131,1,0,0:0:0:0:
448,192,21131,1,0,0:0:0:0:
192,192,21343,1,0,0:0:0:0:
320,192,21554,1,0,0:0:0:0:
448,192,21554,1,0,0:0:0:0:
192,192,21765,1,0,0:0:0:0:
64,192,21765,1,0,0:0:0:0:
320,192,21976,128,0,23244:0:0:0:0:
448,192,21976,1,0,0:0:0:0:
64,192,22188,1,0,0:0:0:0:
448,192,22399,1,0,0:0:0:0:
192,192,22610,1,0,0:0:0:0:
64,192,22821,1,0,0:0:0:0:
448,192,23033,1,0,0:0:0:0:
64,192,23244,1,0,0:0:0:0:
192,192,23244,1,0,0:0:0:0:
320,192,23455,1,0,0:0:0:0:
448,192,23666,1,0,0:0:0:0:
192,192,23666,1,0,0:0:0:0:
64,192,23878,1,0,0:0:0:0:
320,192,24089,1,0,0:0:0:0:
192,192,24089,1,0,0:0:0:0:
448,192,24300,1,0,0:0:0:0:
64,192,24512,1,0,0:0:0:0:
320,192,24512,1,0,0:0:0:0:
192,192,24723,1,0,0:0:0:0:
64,192,24934,1,0,0:0:0:0:
448,192,24934,1,0,0:0:0:0:
192,192,25145,1,0,0:0:0:0:
320,192,25145,1,0,0:0:0:0:
448,192,25357,128,0,26624:0:0:0:0:
64,192,25357,1,0,0:0:0:0:
320,192,25568,1,0,0:0:0:0:
192,192,25779,1,0,0:0:0:0:
64,192,25990,1,0,0:0:0:0:
320,192,26202,1,0,0:0:0:0:
192,192,26413,1,0,0:0:0:0:
320,192,26624,1,0,0:0:0:0:
64,192,26624,1,0,0:0:0:0:
192,192,26835,1,0,0:0:0:0:
64,192,27047,1,4,0:0:0:0:
448,192,27047,1,0,0:0:0:0:
320,192,27047,1,0,0:0:0:0:
192,192,27258,1,0,0:0:0:0:
320,192,27469,1,0,0:0:0:0:
64,192,27469,1,0,0:0:0:0:
448,192,27681,1,0,0:0:0:0:
192,192,27892,1,0,0:0:0:0:
64,192,27892,1,0,0:0:0:0:
320,192,28103,1,0,0:0:0:0:
448,192,28314,1,0,0:0:0:0:
64,192,28314,1,0,0:0:0:0:
192,192,28526,1,0,0:0:0:0:
320,192,28526,1,0,0:0:0:0:
64,192,28737,128,0,30005:0:0:0:0:
448,192,28737,1,0,0:0:0:0:
192,192,28948,1,0,0:0:0:0:
320,192,29159,1,0,0:0:0:0:
448,192,29371,1,0,0:0:0:0:
192,192,29582,1,0,0:0:0:0:
320,192,29793,1,0,0:0:0:0:
448,192,30005,1,0,0:0:0:0:
192,192,30005,1,0,0:0:0:0:
320,192,30216,1,0,0:0:0:0:
448,192,30427,1,0,0:0:0:0:
64,192,30427,1,0,0:0:0:0:
192,192,30638,1,0,0:0:0:0:
448,192,30850,1,0,0:0:0:0:
64,192,30850,1,0,0:0:0:0:
320,192,31061,1,0,0:0:0:0:
192,192,31272,1,0,0:0:0:0:
448,192,31272,1,0,0:0:0:0:
64,192,31483,1,0,0:0:0:0:
320,192,31695,1,0,0:0:0:0:
448,192,31695,1,0,0:0:0:0:
192,192,31906,1,0,0:0:0:0:
64,192,31906,1,0,0:0:0:0:
448,192,32117,128,0,33385:0:0:0:0:
320,192,32117,1,0,0:0:0:0:
64,192,32328,1,0,0:0:0:0:
192,192,32540,1,0,0:0:0:0:
320,192,32751,1,0,0:0:0:0:
64,192,32962,1,0,0:0:0:0:
320,192,33174,1,0,0:0:0:0:
192,192,33385,1,0,0:0:0:0:
64,192,33385,1,0,0:0:0:0:
320,192,33596,1,0,0:0:0:0:
64,192,33807,1,0,0:0:0:0:
448,192,33807,1,0,0:0:0:0:
192,192,34019,1,0,0:0:0:0:
320,192,34230,1,0,0:0:0:0:
448,192,34230,1,0,0:0:0:0:
64,192,34441,1,0,0:0:0:0:
192,192,34652,1,0,0:0:0:0:
448,192,34652,1,0,0:0:0:0:
320,192,34864,1,0,0:0:0:0:
192,192,35075,1,0,0:0:0:0:
64,192,35075,1,0,0:0:0:0:
448,192,35286,1,0,0:0:0:0:
320,192,35286,1,0,0:0:0:0:
192,192,35497,128,0,36765:0:0:0:0:
64,192,35497,1,0,0:0:0:0:
320,192,35709,1,0,0:0:0:0:
448,192,35920,1,0,0:0:0:0:
64,192,36131,1,0,0:0:0:0:
320,192,36343,1,0,0:0:0:0:
64,192,36554,1,0,0:0:0:0:
448,192,36765,1,0,0:0:0:0:
320,192,36765,1,0,0:0:0:0:
192,192,36976,1,0,0:0:0:0:
64,192,37188,1,0,0:0:0:0:
320,192,37188,1,0,0:0:0:0:
448,192,37399,1,0,0:0:0:0:
192,192,37610,1,0,0:0:0:0:
64,192,37610,1,0,0:0:0:0:
320,192,37821,1,0,0:0:0:0:
448,192,38033,1,0,0:0:0:0:
64,192,38033,1,0,0:0:0:0:
192,192,38244,1,0,0:0:0:0:
320,192,38455,1,0,0:0:0:0:
448,192,38455,1,0,0:0:0:0:
192,192,38666,1,0,0:0:0:0:
64,192,38666,1,0,0:0:0:0:
320,192,38878,128,0,40145:0:0:0:0:
448,192,38878,1,0,0:0:0:0:
64,192,40145,128,2,40568:0:0:0:0:
192,192,40145,1,8,0:0:0:0:
320,192,40568,1,2,0:0:0:0:
448,192,40568,1,0,0:0:0:0:
64,192,40779,1,0,0:0:0:0:
320,192,40885,1,2,0:0:0:0:
448,192,40885,1,0,0:0:0:0:
192,192,40990,1,0,0:0:0:0:
320,192,41202,1,2,0:0:0:0:
448,192,41202,1,0,0:0:0:0:
64,192,41413,1,0,0:0:0:0:
320,192,41624,1,0,0:0:0:0:
448,192,41835,1,0,0:0:0:0:
64,192,41835,1,2,0:0:0:0:
192,192,42047,1,0,0:0:0:0:
64,192,42258,1,2,0:0:0:0:
320,192,42258,1,0,0:0:0:0:
448,192,42469,1,0,0:0:0:0:
64,192,42575,1,2,0:0:0:0:
320,192,42575,1,0,0:0:0:0:
192,192,42681,1,0,0:0:0:0:
64,192,42892,1,2,0:0:0:0:
320,192,42892,1,0,0:0:0:0:
448,192,43103,1,0,0:0:0:0:
64,192,43314,1,0,0:0:0:0:
448,192,43526,1,0,0:0:0:0:
192,192,43526,1,2,0:0:0:0:
320,192,43737,1,0,0:0:0:0:
64,192,43948,1,2,0:0:0:0:
448,192,43948,1,0,0:0:0:0:
192,192,44159,1,0,0:0:0:0:
64,192,44265,1,2,0:0:0:0:
448,192,44265,1,0,0:0:0:0:
320,192,44371,1,0,0:0:0:0:
64,192,44582,1,2,0:0:0:0:
448,192,44582,1,0,0:0:0:0:
320,192,44793,1,0,0:0:0:0:
64,192,45005,1,0,0:0:0:0:
192,192,45216,1,2,0:0:0:0:
320,192,45216,1,0,0:0:0:0:
448,192,45427,1,0,0:0:0:0:
192,192,45638,1,0,0:0:0:0:
64,192,45638,1,2,0:0:0:0:
320,192,45850,1,0,0:0:0:0:
64,192,45955,1,2,0:0:0:0:
192,192,45955,1,0,0:0:0:0:
448,192,46061,1,0,0:0:0:0:
64,192,46272,1,2,0:0:0:0:
192,192,46272,1,0,0:0:0:0:
320,192,46483,1,0,0:0:0:0:
192,192,46695,1,0,0:0:0:0:
320,192,46906,1,2,0:0:0:0:
448,192,46906,1,0,0:0:0:0:
64,192,47117,1,0,0:0:0:0:
192,192,47328,1,2,0:0:0:0:
448,192,47328,1,0,0:0:0:0:
320,192,47540,1,0,0:0:0:0:
192,192,47645,1,2,0:0:0:0:
448,192,47645,1,0,0:0:0:0:
64,192,47751,1,0,0:0:0:0:
192,192,47962,1,2,0:0:0:0:
448,192,47962,1,0,0:0:0:0:
320,192,48174,1,0,0:0:0:0:
64,192,48385,1,0,0:0:0:0:
320,192,48596,1,0,0:0:0:0:
192,192,48596,1,2,0:0:0:0:
448,192,48807,1,0,0:0:0:0:
192,192,49019,1,0,0:0:0:0:
64,192,49019,1,2,0:0:0:0:
320,192,49230,1,0,0:0:0:0:
64,192,49335,1,2,0:0:0:0:
192,192,49335,1,0,0:0:0:0:
448,192,49441,1,0,0:0:0:0:
64,192,49652,1,2,0:0:0:0:
192,192,49652,1,0,0:0:0:0:
320,192,49864,1,0,0:0:0:0:
64,192,50075,1,0,0:0:0:0:
192,192,50286,1,2,0:0:0:0:
448,192,50286,1,0,0:0:0:0:
320,192,50497,1,0,0:0:0:0:
64,192,50709,1,2,0:0:0:0:
448,192,50709,1,0,0:0:0:0:
192,192,50920,1,0,0:0:0:0:
64,192,51026,1,2,0:0:0:0:
448,192,51026,1,0,0:0:0:0:
320,192,51131,1,0,0:0:0:0:
64,192,51343,1,2,0:0:0:0:
448,192,51343,1,0,0:0:0:0:
192,192,51554,1,0,0:0:0:0:
448,192,51765,1,0,0:0:0:0:
192,192,51976,1,0,0:0:0:0:
64,192,51976,1,2,0:0:0:0:
320,192,52188,1,0,0:0:0:0:
192,192,52399,1,2,0:0:0:0:
448,192,52399,1,0,0:0:0:0:
64,192,52610,1,0,0:0:0:0:
192,192,52716,1,2,0:0:0:0:
448,192,52716,1,0,0:0:0:0:
320,192,52821,1,0,0:0:0:0:
192,192,53033,1,2,0:0:0:0:
448,192,53033,1,0,0:0:0:0:
64,192,53244,1,0,0:0:0:0:
448,192,53455,1,0,0:0:0:0:
320,192,53666,1,0,0:0:0:0:
192,192,53666,1,2,0:0:0:0:
64,192,53878,1,0,0:0:0:0:
448,192,54089,1,0,0:0:0:0:
192,192,54089,1,2,0:0:0:0:
64,192,54300,1,0,0:0:0:0:
448,192,54406,1,2,0:0:0:0:
320,192,54406,1,0,0:0:0:0:
192,192,54512,1,0,0:0:0:0:
64,192,54512,1,8,0:0:0:0:
448,192,54723,1,2,0:0:0:0:
320,192,54723,1,0,0:0:0:0:
64,192,54934,1,0,0:0:0:0:
192,192,54934,1,8,0:0:0:0:
320,192,55145,1,0,0:0:0:0:
64,192,55357,1,2,0:0:0:0:
448,192,55357,1,0,0:0:0:0:
320,192,55568,1,0,0:0:0:0:
192,192,55779,1,2,0:0:0:0:
64,192,55779,1,0,0:0:0:0:
448,192,55990,1,0,0:0:0:0:
320,192,56096,1,0,0:0:0:0:
64,192,56096,1,2,0:0:0:0:
192,192,56202,1,8,0:0:0:0:
448,192,56202,1,0,0:0:0:0:
320,192,56413,1,2,0:0:0:0:
448,192,56413,1,0,0:0:0:0:
64,192,56624,1,8,0:0:0:0:
192,192,56624,1,0,0:0:0:0:
320,192,56835,1,0,0:0:0:0:
192,192,57047,1,2,0:0:0:0:
448,192,57047,1,0,0:0:0:0:
64,192,57258,1,0,0:0:0:0:
320,192,57469,1,2,0:0:0:0:
448,192,57469,1,0,0:0:0:0:
64,192,57681,1,0,0:0:0:0:
192,192,57786,1,2,0:0:0:0:
448,192,57786,1,0,0:0:0:0:
64,192,57892,1,8,0:0:0:0:
320,192,57892,1,0,0:0:0:0:
448,192,58103,1,2,0:0:0:0:
320,192,58103,1,0,0:0:0:0:
64,192,58314,1,8,0:0:0:0:
192,192,58314,1,0,0:0:0:0:
320,192,58526,1,0,0:0:0:0:
448,192,58737,1,0,0:0:0:0:
64,192,58737,1,2,0:0:0:0:
192,192,58948,1,0,0:0:0:0:
320,192,59159,1,2,0:0:0:0:
448,192,59159,1,0,0:0:0:0:
192,192,59371,1,0,0:0:0:0:
64,192,59476,1,2,0:0:0:0:
448,192,59476,1,0,0:0:0:0:
320,192,59582,1,8,0:0:0:0:
192,192,59582,1,0,0:0:0:0:
64,192,59793,1,0,0:0:0:0:
192,192,59793,1,2,0:0:0:0:
448,192,60005,1,8,0:0:0:0:
320,192,60005,1,0,0:0:0:0:
192,192,60216,1,0,0:0:0:0:
64,192,60427,1,2,0:0:0:0:
448,192,60427,1,0,0:0:0:0:
320,192,60638,1,0,0:0:0:0:
192,192,60850,1,2,0:0:0:0:
448,192,60850,1,0,0:0:0:0:
64,192,61061,1,0,0:0:0:0:
320,192,61166,1,2,0:0:0:0:
448,192,61166,1,0,0:0:0:0:
192,192,61272,1,0,0:0:0:0:
64,192,61272,1,8,0:0:0:0:
320,192,61483,1,2,0:0:0:0:
448,192,61483,1,0,0:0:0:0:
64,192,61695,1,8,0:0:0:0:
192,192,61695,1,0,0:0:0:0:
320,192,61906,1,0,0:0:0:0:
448,192,62117,1,0,0:0:0:0:
192,192,62117,1,2,0:0:0:0:
64,192,62328,1,0,0:0:0:0:
448,192,62540,1,0,0:0:0:0:
320,192,62540,1,2,0:0:0:0:
192,192,62751,1,0,0:0:0:0:
64,192,62857,1,2,0:0:0:0:
320,192,62857,1,0,0:0:0:0:
192,192,62962,1,8,0:0:0:0:
448,192,62962,1,0,0:0:0:0:
320,192,63174,1,0,0:0:0:0:
448,192,63174,1,2,0:0:0:0:
192,192,63385,1,0,0:0:0:0:
64,192,63385,1,8,0:0:0:0:
320,192,63596,1,0,0:0:0:0:
448,192,63807,1,0,0:0:0:0:
64,192,63807,1,2,0:0:0:0:
192,192,64019,1,0,0:0:0:0:
320,192,64230,1,0,0:0:0:0:
64,192,64230,1,2,0:0:0:0:
448,192,64441,1,0,0:0:0:0:
320,192,64547,1,0,0:0:0:0:
192,192,64547,1,2,0:0:0:0:
64,192,64652,1,8,0:0:0:0:
448,192,64652,1,0,0:0:0:0:
192,192,64864,1,2,0:0:0:0:
320,192,64864,1,0,0:0:0:0:
64,192,65075,1,8,0:0:0:0:
448,192,65075,1,0,0:0:0:0:
192,192,65286,1,0,0:0:0:0:
320,192,65497,1,2,0:0:0:0:
448,192,65497,1,0,0:0:0:0:
192,192,65709,1,0,0:0:0:0:
64,192,65920,1,2,0:0:0:0:
320,192,65920,1,0,0:0:0:0:
448,192,66131,1,0,0:0:0:0:
64,192,66237,1,2,0:0:0:0:
192,192,66237,1,0,0:0:0:0:
320,192,66343,1,8,0:0:0:0:
448,192,66343,1,0,0:0:0:0:
64,192,66554,1,2,0:0:0:0:
320,192,66554,1,0,0:0:0:0:
192,192,66765,1,8,0:0:0:0:
448,192,66765,1,0,0:0:0:0:
64,192,66976,1,0,0:0:0:0:
320,192,67188,1,2,0:0:0:0:
448,192,67188,1,0,0:0:0:0:
192,192,67399,1,0,0:0:0:0:
64,192,67610,1,0,0:0:0:0:
448,192,67610,1,0,0:0:0:0:
320,192,67821,1,0,0:0:0:0:
192,192,68033,1,0,0:0:0:0:
64,192,68033,1,0,0:0:0:0:
448,192,68244,1,0,0:0:0:0:
320,192,68455,1,0,0:0:0:0:
64,192,68455,1,0,0:0:0:0:
192,192,68666,1,0,0:0:0:0:
320,192,68878,1,0,0:0:0:0:
448,192,68878,1,0,0:0:0:0:
192,192,69089,1,0,0:0:0:0:
64,192,69089,1,0,0:0:0:0:
320,192,69300,128,0,70779:0:0:0:0:
448,192,69300,1,0,0:0:0:0:
64,192,69512,1,0,0:0:0:0:
448,192,69723,1,0,0:0:0:0:
192,192,69934,1,0,0:0:0:0:
448,192,70145,1,0,0:0:0:0:
64,192,70357,1,0,0:0:0:0:
192,192,70568,1,0,0:0:0:0:
448,192,70779,1,0,0:0:0:0:
192,192,70990,1,0,0:0:0:0:
64,192,70990,1,0,0:0:0:0:
320,192,71202,1,0,0:0:0:0:
192,192,71413,1,0,0:0:0:0:
448,192,71413,1,0,0:0:0:0:
320,192,71624,1,0,0:0:0:0:
64,192,71835,1,0,0:0:0:0:
448,192,71835,1,0,0:0:0:0:
192,192,72047,1,0,0:0:0:0:
448,192,72258,1,0,0:0:0:0:
320,192,72258,1,0,0:0:0:0:
192,192,72469,1,0,0:0:0:0:
64,192,72469,1,0,0:0:0:0:
320,192,72681,1,0,0:0:0:0:
448,192,72681,1,0,0:0:0:0:
192,192,72892,1,0,0:0:0:0:
64,192,73103,1,0,0:0:0:0:
448,192,73103,1,0,0:0:0:0:
192,192,73314,1,0,0:0:0:0:
320,192,73314,1,0,0:0:0:0:
64,192,73526,1,0,0:0:0:0:
448,192,73526,1,0,0:0:0:0:
320,192,73737,1,0,0:0:0:0:
192,192,73737,1,0,0:0:0:0:
64,192,73948,1,0,0:0:0:0:
448,192,73948,1,0,0:0:0:0:
320,192,74159,1,0,0:0:0:0:
192,192,74371,1,0,0:0:0:0:
448,192,74371,1,0,0:0:0:0:
64,192,74582,1,0,0:0:0:0:
320,192,74793,1,0,0:0:0:0:
192,192,74793,1,0,0:0:0:0:
448,192,75005,1,0,0:0:0:0:
64,192,75216,1,0,0:0:0:0:
320,192,75216,1,0,0:0:0:0:
192,192,75427,1,0,0:0:0:0:
64,192,75638,1,0,0:0:0:0:
448,192,75638,1,0,0:0:0:0:
192,192,75850,1,0,0:0:0:0:
320,192,75850,1,0,0:0:0:0:
64,192,76061,128,0,76695:0:0:0:0:
448,192,76061,1,0,0:0:0:0:
192,192,76272,1,0,0:0:0:0:
320,192,76483,1,0,0:0:0:0:
448,192,76695,1,0,0:0:0:0:
192,192,76695,1,0,0:0:0:0:
320,192,76906,1,0,0:0:0:0:
64,192,77117,1,0,0:0:0:0:
448,192,77117,1,0,0:0:0:0:
320,192,77328,1,0,0:0:0:0:
192,192,77328,1,0,0:0:0:0:
448,192,77540,1,0,0:0:0:0:
64,192,77540,1,0,0:0:0:0:
448,192,77751,1,0,0:0:0:0:
320,192,77751,1,0,0:0:0:0:
64,192,77962,1,0,0:0:0:0:
192,192,77962,1,0,0:0:0:0:
320,192,78174,1,0,0:0:0:0:
448,192,78174,1,0,0:0:0:0:
64,192,78385,1,0,0:0:0:0:
192,192,78385,1,0,0:0:0:0:
448,192,78596,1,0,0:0:0:0:
320,192,78596,1,0,0:0:0:0:
192,192,78807,1,0,0:0:0:0:
448,192,79019,1,0,0:0:0:0:
64,192,79019,1,0,0:0:0:0:
320,192,79230,1,0,0:0:0:0:
192,192,79441,1,0,0:0:0:0:
64,192,79441,1,0,0:0:0:0:
320,192,79652,1,0,0:0:0:0:
448,192,79652,1,0,0:0:0:0:
64,192,79864,1,0,0:0:0:0:
192,192,79864,1,0,0:0:0:0:
448,192,80075,1,0,0:0:0:0:
320,192,80075,1,0,0:0:0:0:
64,192,80286,1,0,0:0:0:0:
192,192,80286,1,0,0:0:0:0:
448,192,80497,1,0,0:0:0:0:
64,192,80709,1,0,0:0:0:0:
320,192,80709,1,0,0:0:0:0:
192,192,80920,1,0,0:0:0:0:
320,192,81131,1,8,0:0:0:0:
448,192,81131,1,0,0:0:0:0:
320,192,81554,1,8,0:0:0:0:
448,192,81554,1,0,0:0:0:0:
320,192,81976,1,8,0:0:0:0:
448,192,81976,1,0,0:0:0:0:
320,192,82399,1,8,0:0:0:0:
448,192,82399,1,0,0:0:0:0:
192,192,82610,1,0,0:0:0:0:
320,192,82821,1,8,0:0:0:0:
64,192,82821,1,0,0:0:0:0:
320,192,83244,1,8,0:0:0:0:
64,192,83244,1,0,0:0:0:0:
320,192,83666,1,8,0:0:0:0:
64,192,83666,1,0,0:0:0:0:
320,192,84089,1,8,0:0:0:0:
64,192,84089,1,0,0:0:0:0:
448,192,84300,1,0,0:0:0:0:
320,192,84512,1,8,0:0:0:0:
192,192,84512,1,0,0:0:0:0:
64,192,84934,1,8,0:0:0:0:
192,192,84934,1,0,0:0:0:0:
448,192,85357,1,0,0:0:0:0:
320,192,85357,1,8,0:0:0:0:
64,192,85779,1,0,0:0:0:0:
320,192,85779,1,8,0:0:0:0:
192,192,85990,1,0,0:0:0:0:
448,192,86202,1,8,0:0:0:0:
320,192,86202,1,0,0:0:0:0:
448,192,86624,1,8,0:0:0:0:
64,192,86624,1,0,0:0:0:0:
192,192,86835,1,0,0:0:0:0:
448,192,87047,1,8,0:0:0:0:
64,192,87047,1,0,0:0:0:0:
320,192,87258,1,0,0:0:0:0:
448,192,87469,1,8,0:0:0:0:
64,192,87469,1,0,0:0:0:0:
192,192,87892,1,0,0:0:0:0:
448,192,87892,1,8,0:0:0:0:
192,192,88314,1,0,0:0:0:0:
448,192,88314,1,8,0:0:0:0:
192,192,88737,1,0,0:0:0:0:
448,192,88737,1,8,0:0:0:0:
192,192,89159,1,0,0:0:0:0:
64,192,89159,1,8,0:0:0:0:
320,192,89371,1,0,0:0:0:0:
192,192,89582,1,8,0:0:0:0:
448,192,89582,1,0,0:0:0:0:
192,192,90005,1,8,0:0:0:0:
448,192,90005,1,0,0:0:0:0:
64,192,90216,1,0,0:0:0:0:
448,192,90427,1,8,0:0:0:0:
192,192,90427,1,0,0:0:0:0:
320,192,90638,1,0,0:0:0:0:
192,192,90850,1,8,0:0:0:0:
64,192,90850,1,0,0:0:0:0:
320,192,91061,1,0,0:0:0:0:
448,192,91272,1,0,0:0:0:0:
64,192,91272,1,8,0:0:0:0:
192,192,91483,1,0,0:0:0:0:
448,192,91695,1,0,0:0:0:0:
64,192,91695,1,8,0:0:0:0:
320,192,91906,1,0,0:0:0:0:
448,192,92117,1,0,0:0:0:0:
64,192,92117,1,8,0:0:0:0:
64,192,92540,1,0,0:0:0:0:
192,192,92540,1,8,0:0:0:0:
448,192,92962,1,0,0:0:0:0:
64,192,92962,1,8,0:0:0:0:
320,192,93174,1,0,0:0:0:0:
448,192,93385,1,0,0:0:0:0:
64,192,93385,1,8,0:0:0:0:
192,192,93596,1,0,0:0:0:0:
448,192,93807,1,0,0:0:0:0:
64,192,93807,1,8,0:0:0:0:
320,192,94230,1,8,0:0:0:0:
448,192,94230,128,0,95920:0:0:0:0:
320,192,94441,1,8,0:0:0:0:
64,192,94652,1,8,0:0:0:0:
192,192,94652,1,2,0:0:0:0:
192,192,94864,1,8,0:0:0:0:
64,192,95075,1,8,0:0:0:0:
320,192,95075,1,0,0:0:0:0:
320,192,95286,1,8,0:0:0:0:
64,192,95497,1,8,0:0:0:0:
192,192,95497,1,0,0:0:0:0:
320,192,95709,1,8,0:0:0:0:
192,192,95920,128,0,96343:0:0:0:0:
64,192,95920,1,8,0:0:0:0:
448,192,96131,1,8,0:0:0:0:
320,192,96343,128,0,97610:0:0:0:0:
64,192,96343,1,8,0:0:0:0:
448,192,96554,1,8,0:0:0:0:
64,192,96765,1,8,0:0:0:0:
192,192,96765,1,0,0:0:0:0:
448,192,96976,1,8,0:0:0:0:
448,192,97188,1,0,0:0:0:0:
64,192,97188,1,8,0:0:0:0:
192,192,97399,1,8,0:0:0:0:
64,192,97610,128,0,99300:0:0:0:0:
448,192,97610,1,8,0:0:0:0:
192,192,97821,1,8,0:0:0:0:
448,192,98033,1,0,0:0:0:0:
320,192,98033,1,8,0:0:0:0:
448,192,98244,1,8,0:0:0:0:
320,192,98455,1,0,0:0:0:0:
192,192,98455,1,8,0:0:0:0:
320,192,98666,1,8,0:0:0:0:
192,192,98878,1,8,0:0:0:0:
448,192,98878,1,0,0:0:0:0:
320,192,99089,1,8,0:0:0:0:
192,192,99300,128,0,99723:0:0:0:0:
448,192,99300,1,8,0:0:0:0:
320,192,99512,1,8,0:0:0:0:
64,192,99723,1,8,0:0:0:0:
448,192,99723,128,0,100145:0:0:0:0:
320,192,99934,1,8,0:0:0:0:
64,192,100145,1,8,0:0:0:0:
192,192,100145,1,0,0:0:0:0:
448,192,100357,1,8,0:0:0:0:
320,192,100357,1,0,0:0:0:0:
64,192,100568,1,8,0:0:0:0:
192,192,100568,1,0,0:0:0:0:
448,192,100779,1,8,0:0:0:0:
320,192,100779,1,0,0:0:0:0:
192,192,100990,1,2,0:0:0:0:
448,192,100990,1,0,0:0:0:0:
64,192,100990,128,0,101413:0:0:0:0:
448,192,101413,1,8,0:0:0:0:
320,192,101519,1,8,0:0:0:0:
64,192,101624,1,8,0:0:0:0:
192,192,101730,1,8,0:0:0:0:
448,192,101835,1,8,0:0:0:0:
320,192,101941,1,8,0:0:0:0:
192,192,102047,1,8,0:0:0:0:
64,192,102152,1,8,0:0:0:0:
320,192,102258,1,8,0:0:0:0:
448,192,102364,1,8,0:0:0:0:
192,192,102469,1,8,0:0:0:0:
64,192,102575,1,8,0:0:0:0:
448,192,102681,1,8,0:0:0:0:
320,192,102786,1,8,0:0:0:0:
192,192,102892,1,8,0:0:0:0:
64,192,102997,1,8,0:0:0:0:
448,192,103103,1,8,0:0:0:0:
320,192,103209,1,8,0:0:0:0:
64,192,103314,1,8,0:0:0:0:
192,192,103420,1,8,0:0:0:0:
320,192,103526,1,8,0:0:0:0:
448,192,103631,1,8,0:0:0:0:
192,192,103737,1,8,0:0:0:0:
64,192,103843,1,8,0:0:0:0:
320,192,103948,1,8,0:0:0:0:
448,192,104054,1,8,0:0:0:0:
192,192,104159,1,8,0:0:0:0:
64,192,104265,1,8,0:0:0:0:
448,192,104371,1,8,0:0:0:0:
320,192,104476,1,8,0:0:0:0:
192,192,104582,1,8,0:0:0:0:
64,192,104688,1,8,0:0:0:0:
320,192,104793,1,8,0:0:0:0:
448,192,104899,1,8,0:0:0:0:
192,192,105005,1,8,0:0:0:0:
64,192,105110,1,8,0:0:0:0:
448,192,105216,1,8,0:0:0:0:
320,192,105321,1,8,0:0:0:0:
64,192,105427,1,8,0:0:0:0:
192,192,105533,1,8,0:0:0:0:
320,192,105638,1,8,0:0:0:0:
448,192,105744,1,8,0:0:0:0:
192,192,105850,1,8,0:0:0:0:
64,192,105955,1,8,0:0:0:0:
320,192,106061,1,8,0:0:0:0:
448,192,106166,1,8,0:0:0:0:
64,192,106272,1,8,0:0:0:0:
192,192,106378,1,8,0:0:0:0:
64,192,108174,1,2,0:0:0:0:
320,192,108174,1,0,0:0:0:0:
192,192,108174,1,4,0:0:0:0:
448,192,108385,1,0,0:0:0:0:
64,192,108596,1,2,0:0:0:0:
320,192,108596,1,0,0:0:0:0:
192,192,108807,1,0,0:0:0:0:
64,192,109019,1,8,0:0:0:0:
448,192,109019,1,0,0:0:0:0:
320,192,109019,1,0,0:0:0:0:
192,192,109230,1,0,0:0:0:0:
320,192,109441,1,2,0:0:0:0:
448,192,109441,1,0,0:0:0:0:
64,192,109652,1,0,0:0:0:0:
320,192,109864,1,0,0:0:0:0:
64,192,110075,1,0,0:0:0:0:
320,192,110286,1,2,0:0:0:0:
448,192,110286,1,0,0:0:0:0:
64,192,110497,1,0,0:0:0:0:
192,192,110709,1,0,0:0:0:0:
448,192,110709,1,0,0:0:0:0:
64,192,110709,1,8,0:0:0:0:
320,192,110920,1,0,0:0:0:0:
448,192,111131,1,0,0:0:0:0:
64,192,111343,1,0,0:0:0:0:
320,192,111554,1,2,0:0:0:0:
448,192,111554,1,0,0:0:0:0:
192,192,111765,1,0,0:0:0:0:
320,192,111976,1,2,0:0:0:0:
448,192,111976,1,0,0:0:0:0:
64,192,112188,1,0,0:0:0:0:
192,192,112399,1,8,0:0:0:0:
448,192,112399,1,0,0:0:0:0:
320,192,112399,1,0,0:0:0:0:
320,192,112610,1,0,0:0:0:0:
64,192,112821,1,2,0:0:0:0:
448,192,112821,1,0,0:0:0:0:
192,192,113033,1,0,0:0:0:0:
448,192,113244,1,0,0:0:0:0:
192,192,113455,1,0,0:0:0:0:
448,192,113666,1,0,0:0:0:0:
320,192,113666,1,2,0:0:0:0:
192,192,113878,1,0,0:0:0:0:
64,192,114089,1,8,0:0:0:0:
320,192,114089,1,0,0:0:0:0:
192,192,114089,1,0,0:0:0:0:
448,192,114300,1,0,0:0:0:0:
64,192,114512,1,0,0:0:0:0:
192,192,114723,1,0,0:0:0:0:
320,192,114934,1,4,0:0:0:0:
448,192,114934,1,0,0:0:0:0:
64,192,114934,1,2,0:0:0:0:
192,192,115145,1,0,0:0:0:0:
448,192,115357,1,0,0:0:0:0:
64,192,115357,1,2,0:0:0:0:
320,192,115568,1,0,0:0:0:0:
192,192,115779,1,0,0:0:0:0:
64,192,115779,1,8,0:0:0:0:
448,192,115779,1,0,0:0:0:0:
320,192,115990,1,0,0:0:0:0:
448,192,116202,1,0,0:0:0:0:
64,192,116202,1,2,0:0:0:0:
192,192,116413,1,0,0:0:0:0:
448,192,116624,1,0,0:0:0:0:
192,192,116835,1,0,0:0:0:0:
320,192,117047,1,2,0:0:0:0:
448,192,117047,1,0,0:0:0:0:
64,192,117258,1,0,0:0:0:0:
320,192,117469,1,0,0:0:0:0:
192,192,117469,1,0,0:0:0:0:
64,192,117469,1,8,0:0:0:0:
448,192,117681,1,0,0:0:0:0:
64,192,117892,1,0,0:0:0:0:
192,192,118103,1,0,0:0:0:0:
64,192,118314,1,2,0:0:0:0:
448,192,118314,1,0,0:0:0:0:
320,192,118526,1,0,0:0:0:0:
192,192,118737,1,0,0:0:0:0:
64,192,118737,1,2,0:0:0:0:
448,192,118948,1,0,0:0:0:0:
64,192,119159,1,8,0:0:0:0:
320,192,119159,1,0,0:0:0:0:
448,192,119159,1,0,0:0:0:0:
192,192,119371,1,0,0:0:0:0:
448,192,119582,1,0,0:0:0:0:
320,192,119582,1,2,0:0:0:0:
64,192,119793,1,0,0:0:0:0:
320,192,120005,1,0,0:0:0:0:
64,192,120216,1,0,0:0:0:0:
320,192,120427,1,0,0:0:0:0:
448,192,120427,1,2,0:0:0:0:
192,192,120638,1,0,0:0:0:0:
320,192,120850,1,0,0:0:0:0:
64,192,120850,1,8,0:0:0:0:
448,192,120850,1,0,0:0:0:0:
192,192,121061,1,0,0:0:0:0:
448,192,121272,1,0,0:0:0:0:
320,192,121483,1,0,0:0:0:0:
64,192,121695,1,0,0:0:0:0:
192,192,121695,1,0,0:0:0:0:
448,192,121906,1,0,0:0:0:0:
320,192,121906,1,0,0:0:0:0:
64,192,122117,1,0,0:0:0:0:
192,192,122117,1,0,0:0:0:0:
448,192,122328,1,0,0:0:0:0:
320,192,122328,1,0,0:0:0:0:
192,192,122540,1,0,0:0:0:0:
64,192,122540,1,0,0:0:0:0:
448,192,122751,1,0,0:0:0:0:
320,192,122751,1,0,0:0:0:0:
64,192,122962,1,0,0:0:0:0:
192,192,123068,1,0,0:0:0:0:
320,192,123174,1,0,0:0:0:0:
448,192,123279,1,0,0:0:0:0:
64,192,123385,1,2,0:0:0:0:
192,192,123385,1,4,0:0:0:0:
320,192,123385,1,0,0:0:0:0:
448,192,123490,1,0,0:0:0:0:
320,192,123596,1,0,0:0:0:0:
192,192,123702,1,0,0:0:0:0:
448,192,123807,1,0,0:0:0:0:
64,192,123807,1,2,0:0:0:0:
320,192,123913,1,0,0:0:0:0:
192,192,124019,1,0,0:0:0:0:
64,192,124124,1,0,0:0:0:0:
320,192,124230,1,2,0:0:0:0:
448,192,124230,1,0,0:0:0:0:
192,192,124335,1,0,0:0:0:0:
64,192,124441,1,0,0:0:0:0:
448,192,124547,1,0,0:0:0:0:
320,192,124547,1,2,0:0:0:0:
192,192,124652,1,0,0:0:0:0:
64,192,124652,1,8,0:0:0:0:
320,192,124758,1,0,0:0:0:0:
448,192,124864,1,0,0:0:0:0:
64,192,124864,1,2,0:0:0:0:
192,192,124969,1,0,0:0:0:0:
448,192,125075,1,0,0:0:0:0:
64,192,125075,1,2,0:0:0:0:
320,192,125181,1,0,0:0:0:0:
192,192,125286,1,0,0:0:0:0:
320,192,125392,1,0,0:0:0:0:
448,192,125497,1,0,0:0:0:0:
64,192,125497,1,2,0:0:0:0:
192,192,125603,1,0,0:0:0:0:
320,192,125709,1,0,0:0:0:0:
448,192,125814,1,0,0:0:0:0:
64,192,125920,1,2,0:0:0:0:
192,192,125920,1,0,0:0:0:0:
320,192,126026,1,0,0:0:0:0:
448,192,126131,1,0,0:0:0:0:
320,192,126237,1,0,0:0:0:0:
64,192,126237,1,2,0:0:0:0:
192,192,126343,1,8,0:0:0:0:
448,192,126343,1,0,0:0:0:0:
64,192,126448,1,0,0:0:0:0:
448,192,126554,1,0,0:0:0:0:
320,192,126554,1,2,0:0:0:0:
192,192,126659,1,0,0:0:0:0:
448,192,126765,1,0,0:0:0:0:
320,192,126765,1,2,0:0:0:0:
192,192,126871,1,0,0:0:0:0:
64,192,126976,1,0,0:0:0:0:
448,192,127082,1,0,0:0:0:0:
192,192,127188,1,2,0:0:0:0:
320,192,127188,1,0,0:0:0:0:
64,192,127293,1,0,0:0:0:0:
448,192,127399,1,0,0:0:0:0:
192,192,127505,1,0,0:0:0:0:
320,192,127610,1,0,0:0:0:0:
64,192,127610,1,2,0:0:0:0:
448,192,127716,1,0,0:0:0:0:
192,192,127821,1,0,0:0:0:0:
448,192,127927,1,0,0:0:0:0:
320,192,127927,1,2,0:0:0:0:
192,192,128033,1,8,0:0:0:0:
64,192,128033,1,0,0:0:0:0:
320,192,128138,1,0,0:0:0:0:
448,192,128244,1,0,0:0:0:0:
64,192,128244,1,2,0:0:0:0:
192,192,128350,1,0,0:0:0:0:
64,192,128455,1,2,0:0:0:0:
320,192,128455,1,4,0:0:0:0:
448,192,128455,1,0,0:0:0:0:
192,192,128561,1,0,0:0:0:0:
320,192,128666,1,0,0:0:0:0:
448,192,128772,1,0,0:0:0:0:
64,192,128878,1,2,0:0:0:0:
192,192,128878,1,0,0:0:0:0:
320,192,128983,1,0,0:0:0:0:
448,192,129089,1,0,0:0:0:0:
192,192,129195,1,0,0:0:0:0:
320,192,129300,1,0,0:0:0:0:
64,192,129300,1,2,0:0:0:0:
448,192,129406,1,0,0:0:0:0:
192,192,129512,1,0,0:0:0:0:
448,192,129617,1,0,0:0:0:0:
320,192,129617,1,2,0:0:0:0:
64,192,129723,1,0,0:0:0:0:
192,192,129723,1,8,0:0:0:0:
448,192,129828,1,0,0:0:0:0:
320,192,129934,1,0,0:0:0:0:
192,192,129934,1,2,0:0:0:0:
64,192,130040,1,0,0:0:0:0:
192,192,130145,1,2,0:0:0:0:
320,192,130145,1,0,0:0:0:0:
448,192,130251,1,0,0:0:0:0:
64,192,130357,1,0,0:0:0:0:
192,192,130462,1,0,0:0:0:0:
320,192,130568,1,0,0:0:0:0:
448,192,130568,1,2,0:0:0:0:
64,192,130674,1,0,0:0:0:0:
192,192,130779,1,0,0:0:0:0:
320,192,130885,1,0,0:0:0:0:
192,192,130990,1,2,0:0:0:0:
448,192,130990,1,0,0:0:0:0:
64,192,131096,1,0,0:0:0:0:
448,192,131202,1,0,0:0:0:0:
320,192,131307,1,0,0:0:0:0:
192,192,131307,1,2,0:0:0:0:
64,192,131413,1,8,0:0:0:0:
448,192,131413,1,0,0:0:0:0:
320,192,131519,1,0,0:0:0:0:
192,192,131624,1,2,0:0:0:0:
448,192,131624,1,0,0:0:0:0:
64,192,131730,1,0,0:0:0:0:
192,192,131835,1,2,0:0:0:0:
448,192,131835,1,0,0:0:0:0:
320,192,131941,1,0,0:0:0:0:
64,192,132047,1,0,0:0:0:0:
192,192,132152,1,0,0:0:0:0:
320,192,132258,1,2,0:0:0:0:
448,192,132258,1,0,0:0:0:0:
64,192,132364,1,0,0:0:0:0:
192,192,132469,1,0,0:0:0:0:
448,192,132575,1,0,0:0:0:0:
64,192,132681,1,2,0:0:0:0:
320,192,132681,1,0,0:0:0:0:
192,192,132786,1,0,0:0:0:0:
64,192,132892,1,0,0:0:0:0:
448,192,132997,1,0,0:0:0:0:
320,192,132997,1,2,0:0:0:0:
64,192,133103,1,8,0:0:0:0:
192,192,133103,1,0,0:0:0:0:
320,192,133209,1,0,0:0:0:0:
64,192,133314,1,2,0:0:0:0:
448,192,133314,1,0,0:0:0:0:
192,192,133420,1,0,0:0:0:0:
64,192,133526,1,2,0:0:0:0:
448,192,133526,1,0,0:0:0:0:
320,192,133631,1,0,0:0:0:0:
192,192,133737,1,0,0:0:0:0:
64,192,133843,1,0,0:0:0:0:
448,192,133948,1,0,0:0:0:0:
320,192,133948,1,2,0:0:0:0:
192,192,134054,1,0,0:0:0:0:
64,192,134159,1,0,0:0:0:0:
448,192,134265,1,0,0:0:0:0:
320,192,134371,1,0,0:0:0:0:
64,192,134371,1,2,0:0:0:0:
192,192,134476,1,0,0:0:0:0:
320,192,134582,1,0,0:0:0:0:
448,192,134688,1,0,0:0:0:0:
64,192,134688,1,2,0:0:0:0:
192,192,134793,1,8,0:0:0:0:
320,192,134793,1,0,0:0:0:0:
448,192,134899,1,0,0:0:0:0:
64,192,135005,1,2,0:0:0:0:
320,192,135005,1,0,0:0:0:0:
192,192,135110,1,0,0:0:0:0:
448,192,135216,1,0,0:0:0:0:
320,192,135216,1,8,0:0:0:0:
64,192,135216,1,4,0:0:0:0:
