osu file format v5

[General]
AudioFilename: 16-(mars lasar)-eastern dawn.mp3
AudioLeadIn: 0
PreviewTime: -1
Countdown: 0
SampleSet: Soft
StackLeniency: 0.7
Mode: 0
LetterboxInBreaks: 1

[Metadata]
Title:Eastern Dawn
Artist:Mars Lasar
Creator:Nactra
Version:Western Dawn
Source:Tantra Lounge Volume 2
Tags:mars lasar eastern dawn tantra lounge volume 2 nactra

[Difficulty]
HPDrainRate:2
CircleSize:5
OverallDifficulty:3
SliderMultiplier:1.4
SliderTickRate:3

[Events]
//Background and Video events
0,0,"A_slice_of_life_by_giladbis.jpg"
//Break Periods
//Storyboard Layer 0 (Background)
//Storyboard Layer 1 (Failing)
//Storyboard Layer 2 (Passing)
//Storyboard Layer 3 (Foreground)
//Storyboard Sound Samples
//Background Colour Transformations
3,100,163,162,255

[TimingPoints]
13000,419.199329281073,4,2,0,81,1,0

[Colours]
Combo1 : 0,0,0
Combo2 : 128,0,64
Combo3 : 192,192,192
Combo4 : 255,0,0
Combo5 : 128,0,128

[HitObjects]
128,128,12999,5,0
226,129,13419,1,0
323,129,13838,1,0
416,128,14257,2,0,C|352:256|192:256,1,303.333333333333
118,196,15585,1,0
313,200,16423,5,0
245,271,16842,1,0
147,278,17261,1,0
241,250,17681,2,0,C|113:346|-15:314,1,280
79,236,19008,1,0
127,151,19427,5,0
224,153,19846,1,0
274,342,20685,5,0
406,197,21523,1,0
261,41,22431,1,0
118,175,23270,1,0
260,308,24108,1,0
399,147,25017,1,0
256,224,26763,5,0
346,187,27182,1,0
416,160,27602,2,0,C|416:64|64:96|128:256,1,653.333333333333
239,252,30047,1,0
288,224,30885,5,0
224,149,31305,1,0
136,75,31794,1,0
160,192,32981,5,0
64,192,33540,2,0,C|64:32|384:32,1,490
325,150,35566,5,0
288,192,35986,1,0
160,320,36754,1,0
256,192,38431,5,0
96,320,39339,5,0
160,256,39758,1,0
256,256,40178,2,0,C|256:32|192:192,1,396.666666666667
135,268,41785,1,0
231,252,42204,1,0
256,96,42972,5,0
260,193,43391,1,0
261,291,43811,1,0
352,256,44649,5,0
156,256,45487,1,0
320,256,46396,5,0
384,192,46815,2,0,C|352:32|64:128|128:224,1,606.666666666667
320,288,49190,5,0
349,194,49610,1,0
292,114,50029,1,0
220,181,50448,1,0
220,181,50658,1,0
220,181,50867,1,0
152,251,51286,5,0
80,184,51706,1,0
256,192,53452,12,0,58343
160,128,59111,5,0
229,197,59531,1,0
288,256,60020,2,0,C|416:256|384:64|320:96,1,396.666666666667
288,128,62465,5,0
190,126,62884,1,0
92,127,63303,1,0
146,227,63792,5,0
256,192,64840,5,0
256,192,65469,5,0
256,192,66936,12,0,73364
352,128,74063,5,0
256,192,74552,1,0
160,256,74971,1,0
160,96,75740,5,0
250,133,76159,1,0
342,166,76578,1,0
256,192,77416,5,0
256,192,78325,1,0
60,194,79163,5,0
157,197,79582,1,0
255,197,80002,1,0
