osu file format v5

[General]
AudioFilename: 16-(mars lasar)-eastern dawn.mp3
AudioLeadIn: 0
PreviewTime: -1
Countdown: 0
SampleSet: Soft
StackLeniency: 0.7
Mode: 0
LetterboxInBreaks: 1

[Metadata]
Title:Eastern Dawn
Artist:Mars Lasar
Creator:Nactra
Version:Northern Dawn
Source:Tantra Lounge Volume 2
Tags:mars lasar eastern dawn tantra lounge volume 2 nactra

[Difficulty]
HPDrainRate:4
CircleSize:5
OverallDifficulty:5
SliderMultiplier:1.4
SliderTickRate:2

[Events]
//Background and Video events
0,0,"A_slice_of_life_by_giladbis.jpg"
//Break Periods
2,66012,78967
//Storyboard Layer 0 (Background)
//Storyboard Layer 1 (Failing)
//Storyboard Layer 2 (Passing)
//Storyboard Layer 3 (Foreground)
//Storyboard Sound Samples
//Background Colour Transformations
3,100,163,162,255

[TimingPoints]
13000,413.422448838972,4,2,0,80,1,0

[Colours]
Combo1 : 159,0,159
Combo2 : 128,0,64
Combo3 : 140,140,140
Combo4 : 64,0,64
Combo5 : 255,0,0

[HitObjects]
256,192,13068,1,0
160,128,13413,1,0
96,192,13620,1,0
160,256,13827,1,0
288,256,14241,1,0
384,160,14655,1,0
256,64,15137,1,0
168,257,15620,5,0
66,140,16034,1,0
185,42,16448,1,0
416,256,17275,5,2
352,224,17689,1,2
218,266,18103,1,0
53,192,18586,5,0
256,192,18999,5,0
256,192,19206,1,0
256,192,19413,1,0
410,191,19827,5,0
289,94,20241,1,0
155,214,20724,1,0
49,101,21137,1,0
195,148,21551,5,2
195,148,21758,1,2
195,148,21957,1,2
64,288,22862,5,2
128,160,23275,1,2
160,288,24103,5,0
224,160,24517,1,8
256,32,24931,1,0
160,224,26103,5,0
192,192,26241,1,0
256,224,26379,1,0
288,192,26517,1,0
320,256,26655,1,0
352,224,26793,2,2,C|352:96,1,116.666666666667
384,64,27551,2,2,C|224:64,1,140
160,32,28379,2,2,C|160:192,1,140
160,320,29275,5,2
288,256,29689,1,2
416,192,30103,1,2
288,160,30501,5,2
288,160,30708,1,2
288,160,30915,1,2
160,224,31344,5,0
288,160,31758,1,8
416,96,32172,1,0
128,32,33000,2,0,C|128:224,1,186.666666666667
256,224,33896,2,0,C|256:160,1,46.6666666666667
448,128,34655,5,0
448,128,34862,1,0
448,128,35068,1,0
352,224,35482,1,2
192,256,35944,1,4
128,64,36793,5,2
256,128,37206,1,2
256,192,37413,1,2
256,256,37620,1,2
128,320,38034,1,2
64,192,38448,5,2
384,96,39344,5,0
352,128,39482,1,0
320,64,39620,1,0
288,96,39758,1,0
256,32,39896,1,0
224,64,40034,2,0,C|96:64,1,116.666666666667
200,211,40862,5,2
224,288,41275,1,2
288,224,41482,1,2
256,160,41689,1,2
192,128,41896,1,2
128,160,42103,1,2
128,224,42310,1,2
160,288,42517,1,2
320,320,42999,5,2
320,320,43206,1,2
320,320,43413,1,2
288,192,43827,6,0,C|448:192,1,140
288,192,44655,5,0
320,128,44862,1,0
256,96,45068,1,0
192,128,45275,1,0
160,192,45482,1,0
320,256,45965,6,0,C|160:256,1,140
64,160,46862,6,0,C|64:64|256:128,1,303.333333333333
288,224,48172,5,0
256,256,48379,1,0
448,96,49137,6,0,C|384:64|384:160|416:192,1,210
352,256,50034,1,0
480,320,50448,1,2
416,288,50690,1,10
352,256,50897,1,2
384,256,51344,5,2
352,224,51551,1,2
320,192,51758,1,2
224,96,52103,6,2,C|128:224,1,140
384,128,53275,6,2,C|416:128,1,23.3333333333333
352,192,53551,2,2,C|320:192,1,23.3333333333333
320,224,53758,2,2,C|320:256,1,23.3333333333333
128,128,54617,5,2
224,224,55031,1,2
352,256,55444,1,2
192,160,55896,6,0,C|192:96|288:96,1,163.333333333333
384,160,56724,2,0,C|384:32,1,116.666666666667
288,64,57344,2,0,C|288:192,1,116.666666666667
192,192,57965,2,0,C|192:32,1,140
288,96,58724,5,0
240,156,58931,1,0
189,214,59137,1,0
136,270,59344,1,0
87,329,59551,1,0
404,294,60034,5,2
448,224,60241,1,0
416,160,60448,1,0
266,121,60862,5,0
332,158,61068,1,0
317,233,61275,1,0
243,257,61482,1,0
184,207,61689,1,0
74,29,62541,6,2,C|72:204,1,163.333333333333
96,256,63299,6,2,C|416:256,1,303.333333333333
416,128,64517,5,2
352,96,64724,1,8
288,64,64931,1,4
224,64,65137,1,0
160,96,65344,1,0
128,160,65573,1,0
160,224,65780,1,0
128,64,79965,5,0
251,100,80387,1,0
402,140,80732,1,2
262,248,81145,1,0
202,297,81352,1,0
139,342,81559,1,0
256,192,82379,12,0,84034
224,320,84448,5,0
288,256,84655,1,0
352,192,84862,1,2
352,128,85068,1,2
288,128,85275,2,0,C|288:32|160:64,1,210
96,192,86379,5,2
128,160,86586,1,2
160,128,86793,1,2
224,64,87140,5,0
334,88,87553,5,0
277,140,87760,1,8
220,192,87967,1,4
90,116,89068,5,0
370,112,89896,5,0
369,297,90724,5,0
90,302,91620,5,0
288,64,93275,5,0
356,172,93620,1,0
293,216,93827,1,0
226,176,94034,1,0
352,320,94448,5,0
281,317,94655,1,0
215,290,94862,1,0
278,318,95068,1,0
348,320,95275,1,0
286,168,95684,5,0
160,128,96517,5,0
192,256,96931,1,0
249,303,97131,1,0
309,251,97344,1,0
320,192,97751,5,0
256,192,97965,1,0
320,192,98172,1,0
256,192,98379,1,0
320,192,98586,1,0
448,256,98999,5,0
64,160,99758,5,2
160,256,100172,1,2
255,127,100645,1,4
320,256,101058,1,2
416,160,101472,1,2
416,96,101679,1,8
352,96,101886,1,2
256,192,102724,12,0,104034
96,128,104379,5,0
128,192,104586,1,0
160,256,104779,1,0
160,256,105758,5,0
192,224,105896,1,0
256,256,106034,1,0
288,224,106172,1,0
320,288,106310,1,0
352,256,106448,2,0,C|352:64,1,186.666666666667
352,64,107275,2,0,C|128:64,1,210
128,128,108103,5,0
176,169,108293,1,0
345,166,108793,5,2
382,107,108999,1,4
160,192,110912,5,0
192,160,111119,1,0
224,128,111307,1,0
256,160,111514,1,0
288,192,111721,1,0
320,160,111928,1,0
352,128,112135,1,0
320,160,112342,1,0
288,192,112549,1,0
256,160,112755,1,0
224,128,112962,1,0
192,160,113169,1,0
160,192,114012,5,0
192,160,114219,1,0
224,128,114403,1,0
256,160,114610,1,0
288,192,114817,1,0
320,160,115023,1,0
352,128,115230,1,0
320,160,115437,1,0
288,192,115643,1,0
256,160,115850,1,0
224,128,116057,1,0
192,160,116264,1,0
416,224,116837,5,0
288,192,117251,1,0
160,256,117664,5,0
288,256,118078,1,0
352,224,118285,1,2
384,160,118492,1,0
352,64,119068,5,0
320,96,119206,1,0
256,96,119344,1,0
224,128,119482,1,0
160,128,119620,1,0
128,160,119758,2,0,C|128:256|320:256,1,280
448,224,120999,5,0
328,126,121413,1,0
268,175,121620,1,0
202,133,121827,1,0
232,74,122005,1,0
308,62,122212,1,0
96,256,122862,5,0
64,224,123068,1,0
96,192,123275,1,0
64,160,123482,1,0
96,128,123689,1,0
128,160,123896,1,0
160,128,124103,1,0
192,160,124310,1,0
224,128,124517,1,0
256,160,124724,1,0
288,128,124931,1,0
320,160,125106,1,0
352,128,125313,1,0
96,256,126241,5,0
64,224,126448,1,0
96,192,126655,1,0
64,160,126862,1,0
96,128,127068,1,0
128,160,127275,1,0
160,128,127482,1,0
192,160,127689,1,0
224,128,127896,1,0
256,160,128103,1,0
96,32,129482,6,0,C|96:224|416:256,1,513.333333333333
320,128,131413,1,0
192,128,131827,1,0
224,192,132034,1,2
288,224,132241,1,0
416,160,133137,6,0,C|416:64|320:64|320:192|192:192,1,443.333333333333
96,192,134752,1,0
160,64,135166,1,0
256,160,135579,1,0
310,214,135786,1,0
377,276,136034,1,0
224,288,136379,5,0
160,160,136793,1,0
224,96,136999,1,0
288,32,137206,1,0
352,160,137620,1,0
320,224,137827,1,0
256,288,138034,1,0
192,256,138241,1,0
128,192,138448,1,0
224,96,138862,1,0
128,32,139689,6,0,C|128:224|288:256,1,350
288,32,141413,1,0
288,160,141827,1,0
288,288,142241,1,0
448,288,142676,1,0
352,224,143068,5,0
372,149,143296,1,0
288,128,143641,1,0
224,160,143848,1,8
160,128,144075,1,0
320,224,144655,5,0
352,160,144862,1,2
302,101,145068,1,0
237,142,145275,1,0
235,219,145482,1,0
224,32,145965,5,0
64,64,146448,2,0,C|64:192|224:224,1,280
224,96,147620,1,0
288,160,147827,1,0
352,224,148034,1,0
224,32,148724,5,0
224,192,149206,1,0
320,288,149620,1,0
96,256,150241,5,0
128,224,150448,1,0
160,192,150669,1,0
224,224,150876,1,0
256,192,151082,1,0
288,160,151289,1,0
352,160,151496,1,0
384,128,151703,1,0
416,96,151910,1,0
460,42,152116,5,0
487,200,152530,1,0
256,192,153068,12,0,159689
