osu file format v11

[General]
AudioFilename: Maroon 5 - Payphone (CDQ) Feat. Wiz Khalifa [Single] [2012]- Sebastian[Ub3r].mp3
AudioLeadIn: 0
PreviewTime: 52220
Countdown: 0
SampleSet: Soft
StackLeniency: 0.7
Mode: 0
LetterboxInBreaks: 0

[Editor]
Bookmarks: 18675
DistanceSpacing: 1.1
BeatDivisor: 4
GridSize: 4

[Metadata]
Title:Payphone
TitleUnicode:
Artist:Maroon 5 ft. Wiz Khalifa
ArtistUnicode:
Creator:dkun
Version:Mickels
Source:
Tags:MMzz MittenMasterzz Sync SuperMICrophone SuperMIC SMIC Tasha
BeatmapID:155877
BeatmapSetID:50752

[Difficulty]
HPDrainRate:4
CircleSize:4
OverallDifficulty:3
ApproachRate:5
SliderMultiplier:1.5
SliderTickRate:2

[Events]
//Background and Video events
0,0,"wppp.png"
//Break Periods
2,88692,89474
2,158510,165838
2,188857,190929
//Storyboard Layer 0 (Background)
//Storyboard Layer 1 (Fail)
//Storyboard Layer 2 (Pass)
//Storyboard Layer 3 (Foreground)
Sprite,Foreground,Centre,"supermic.png",360,400 F,0,18130,18675,0,1 F,0,226493,227039,1,0
//Storyboard Sound Samples
//Background Colour Transformations
3,100,163,162,255

[TimingPoints]
1220,545.454545454546,4,2,2,55,1,0
18674,-100,4,2,0,55,0,0
18742,-100,4,2,1,55,0,0
23038,-100,4,2,0,55,0,0
23106,-100,4,2,1,55,0,0
27401,-100,4,2,0,55,0,0
27469,-100,4,2,1,55,0,0
31765,-100,4,2,0,55,0,0
31833,-100,4,2,1,55,0,0
36129,-100,4,2,0,55,0,0
36674,-100,4,2,0,45,0,0
37219,-100,4,2,0,55,0,0
38856,-100,4,2,0,45,0,0
39401,-100,4,2,0,55,0,0
41038,-100,4,2,0,45,0,0
41583,-100,4,2,0,55,0,0
43219,-100,4,2,0,45,0,0
43765,-100,4,2,0,55,0,0
45401,-100,4,2,0,45,0,0
45947,-100,4,2,0,55,0,0
47583,-100,4,2,0,45,0,0
48129,-100,4,2,0,55,0,0
49765,-100,4,2,0,45,0,0
50310,-100,4,2,0,55,0,0
52492,-100,4,2,0,30,0,0
52765,-100,4,2,0,50,0,0
53038,-100,4,2,0,65,0,0
53583,-100,4,2,2,75,0,1
71583,-100,4,1,2,65,0,1
71856,-100,4,2,2,65,0,1
75947,-100,4,1,2,65,0,1
76219,-100,4,2,2,65,0,1
80310,-100,4,1,2,65,0,1
80583,-100,4,2,2,65,0,1
84674,-100,4,1,2,65,0,1
84947,-100,4,2,2,65,0,1
88492,-100,4,2,0,55,0,0
90674,-100,4,2,1,65,0,0
92856,-100,4,2,0,55,0,0
92924,-100,4,2,1,55,0,0
97219,-100,4,2,0,55,0,0
97288,-100,4,2,1,55,0,0
101583,-100,4,2,0,55,0,0
101651,-100,4,2,1,55,0,0
105947,-100,4,2,0,55,0,0
106492,-100,4,2,0,45,0,0
107038,-100,4,2,0,55,0,0
108674,-100,4,2,0,45,0,0
109219,-100,4,2,0,55,0,0
110856,-100,4,2,0,45,0,0
111401,-100,4,2,0,55,0,0
113038,-100,4,2,0,45,0,0
113583,-100,4,2,0,55,0,0
115219,-100,4,2,0,45,0,0
115765,-100,4,2,0,55,0,0
117401,-100,4,2,0,45,0,0
117947,-100,4,2,0,55,0,0
119583,-100,4,2,0,45,0,0
120129,-100,4,2,0,55,0,0
122310,-100,4,2,0,30,0,0
122583,-100,4,2,0,50,0,0
122856,-100,4,2,0,65,0,0
123129,-100,4,2,0,80,0,0
123401,-100,4,2,2,65,0,1
128310,-100,4,1,2,65,0,1
128583,-100,4,2,2,65,0,1
137038,-100,4,1,2,65,0,1
137310,-100,4,2,2,65,0,1
139219,-100,4,1,2,65,0,1
139492,-100,4,2,2,65,0,1
141401,-100,4,1,2,65,0,1
141674,-100,4,2,2,65,0,1
145765,-100,4,1,2,65,0,1
146038,-100,4,2,2,65,0,1
150129,-100,4,1,2,65,0,1
150401,-100,4,2,2,65,0,1
154492,-100,4,1,2,65,0,1
154765,-100,4,2,2,65,0,1
158310,-100,4,2,2,55,0,0
158856,-100,4,2,0,55,0,0
192129,-100,4,2,2,30,0,0
192401,-100,4,2,2,50,0,0
192674,-100,4,2,2,60,0,0
193219,-100,4,2,2,75,0,1
211219,-100,4,1,2,75,0,1
211492,-100,4,2,2,75,0,1
215583,-100,4,1,2,75,0,1
215856,-100,4,2,2,75,0,1
217765,-100,4,1,2,75,0,1
218038,-100,4,2,2,75,0,1
219947,-100,4,1,2,75,0,1
220219,-100,4,2,2,75,0,1
224310,-100,4,1,2,75,0,1
224583,-100,4,2,2,75,0,1
227856,-200,4,2,2,55,0,0

[Colours]
Combo1 : 235,46,235
Combo2 : 126,242,11
Combo3 : 237,41,7
Combo4 : 48,51,169

[HitObjects]
104,192,18674,2,0,B|108:96|192:92,1,150,4|10,0:0|0:0,0:0:0
319,91,19765,2,0,B|404:96|408:192,1,150,8|10,0:0|0:0,0:0:0
344,328,20856,2,0,B|377:304|373:250|329:221|292:237,1,150,8|10,0:0|0:0,0:0:0
256,172,21674,1,8,0:0:0
219,237,21947,2,0,B|182:221|138:250|134:304|168:328,1,150,8|10,0:0|0:0,0:0:0
84,200,23038,6,0,B|59:118|150:76|170:120|190:163|281:121|256:40,1,300,4|10,0:0|0:0,0:0:0
256,192,24674,1,10,0:0:0
256,40,25219,2,0,B|231:121|322:163|342:120|362:76|453:118|429:200,1,300,8|10,0:0|0:0,0:0:0
400,276,26583,2,0,B|400:368|307:368,1,150,10|2,0:0|0:0,0:0:0
256,304,27401,6,0,B|256:156,2,150,4|10|8,0:0|0:0|0:0,0:0:0
204,368,28765,2,0,B|112:368|112:276,1,150,10|2,0:0|0:0,0:0:0
92,192,29583,6,0,B|160:136|228:192,1,150,8|10,0:0|0:0,0:0:0
320,308,30674,2,0,B|388:364|456:308,1,150,8|10,0:0|0:0,0:0:0
360,192,31765,6,0,B|396:120|344:48,1,150,4|8,0:0|0:0,0:0:0
292,104,32583,1,2,0:0:0
220,104,32856,1,8,0:0:0
166,50,33129,2,0,B|116:120|152:192,1,150,8|2,0:0|0:0,0:0:0
220,228,33947,6,0,B|228:296|172:324,2,112.5,8|2|2,0:0|0:0|0:0,0:0:0
292,228,35038,2,0,B|284:296|340:324,2,112.5,8|2|2,0:0|0:0|0:0,0:0:0
324,160,36129,5,4,0:0:0
220,52,36674,1,8,0:0:0
256,196,37220,2,0,B|256:308,2,112.5,2|2|2,0:0|0:0|0:0,0:0:0
188,160,38310,1,2,0:0:0
292,52,38856,1,8,0:0:0
412,140,39401,6,0,B|452:192|412:244,2,112.5,2|2|2,0:0|0:0|0:0,0:0:0
360,192,40492,2,0,B|332:220|332:268|352:300|392:312,1,150,2|8,0:0|0:0,0:0:0
244,284,41583,6,0,B|284:232|244:180,2,112.5,2|2|2,0:0|0:0|0:0,0:0:0
192,232,42674,2,0,B|164:204|164:156|184:124|224:112,1,150,2|8,0:0|0:0,0:0:0
374,111,43765,2,0,B|434:131|442:191,2,112.5,2|2|2,0:0|0:0|0:0,0:0:0
320,160,44856,6,0,B|320:220|320:220|351:231|366:257|368:288,1,150,4|8,0:0|0:0,0:0:0
248,196,45947,2,0,B|248:224|248:224|248:268|296:288,2,112.5,2|2|2,0:0|0:0|0:0,0:0:0
184,156,47038,2,0,B|249:90|314:156,1,150,2|8,0:0|0:0,0:0:0
452,192,48129,6,0,B|468:260|408:284,2,112.5,2|2|2,0:0|0:0|0:0,0:0:0
500,136,49220,2,0,B|468:112|432:108|392:132|380:176,1,150,2|8,0:0|0:0,0:0:0
312,40,50310,2,0,B|200:40,2,112.5,2|2|2,0:0|0:0|0:0,0:0:0
292,112,51401,2,0,B|296:137|296:156|296:156|296:182|277:201|255:201|255:201|233:201|214:182|214:156|214:156|214:137|219:112,1,225,4|0,0:0|0:0,0:0:0
140,124,52492,5,4,0:0:0
92,192,52765,1,4,0:0:0
140,260,53038,1,4,0:0:0
188,328,53310,6,0,B|256:384|324:328,1,150,4|0,0:0|0:0,0:0:0
372,260,54129,2,0,B|428:192|372:124,1,150,8|0,0:0|0:0,0:0:0
296,88,54947,1,0,0:0:0
216,88,55220,1,8,0:0:0
139,124,55492,2,0,B|84:192|140:260,1,150,0|0,0:0|0:0,0:0:0
220,284,56310,2,0,B|256:300|292:284,1,75,8|0,0:0|0:0,0:0:0
256,208,56856,6,0,B|256:132,2,75,0|0|8,0:0|0:0|0:0,0:0:0
292,284,57674,2,0,B|340:264|340:208|340:208|340:152,1,150
340,72,58492,1,8,0:0:0
256,72,58765,2,0,B|201:72|201:72|145:72|125:120,1,150
88,192,59583,1,8,0:0:0
124,264,59856,6,0,B|144:312|200:312|200:312|256:312,1,150
336,312,60674,2,8,B|412:312,1,75
376,236,61220,5,2,0:0:0
448,192,61492,1,2,0:0:0
376,152,61765,1,10,0:0:0
304,192,62038,6,0,B|261:149|215:149|173:192,1,150,4|0,0:0|0:0,0:0:0
236,244,62856,2,0,B|193:286|147:286|105:244,1,150,8|0,0:0|0:0,0:0:0
40,192,63674,1,0,0:0:0
104,140,63947,1,8,0:0:0
184,116,64220,6,0,B|224:92|256:108|256:108|288:92|328:116,1,150
328,200,65038,2,0,B|288:224|256:208|256:208|224:224|184:200,1,150,8|0,0:0|0:0,0:0:0
188,284,65856,1,0,0:0:0
256,332,66129,1,8,0:0:0
320,280,66401,6,0,B|364:280|396:256|412:224|404:176,1,150
380,104,67220,1,8,0:0:0
300,80,67492,2,0,B|256:80|224:104|208:136|216:184,1,150
240,260,68310,1,8,0:0:0
256,340,68583,2,0,B|201:347|176:316|156:292|160:248,1,150
104,192,69401,1,8,0:0:0
160,132,69674,6,0,B|216:80,1,75
297,80,70220,2,0,B|352:132,1,75,0|8,0:0|0:0,0:0:0
408,192,70765,1,8,0:0:0
380,272,71038,2,0,B|360:336|296:340,3,112.5,4|0|0|0,0:0|0:0|0:0|0:0,0:0:0
184,292,72674,2,0,B|168:240|76:192|76:192|168:144|184:92,1,300,8|8,0:0|0:0,0:0:0
352,104,74310,6,0,B|412:152,1,75
410,233,74856,2,8,B|352:280,1,75
292,224,75401,2,0,B|252:276|288:332,3,112.5,4|0|0|0,0:0|0:0|0:0|0:0,0:0:0
192,247,77038,2,8,B|141:243|109:255|109:255|141:192|109:128|109:128|141:140|192:136,1,300
356,152,78674,6,0,B|432:152,1,75
456,232,79220,2,8,B|381:232,1,75
308,268,79765,2,0,B|256:304|204:268,3,112.5,4|0|0|0,0:0|0:0|0:0|0:0,0:0:0
144,160,81401,2,0,B|173:115|222:115|246:96|256:66|256:66|266:96|291:115|340:115|369:160,1,300,8|8,0:0|0:0,0:0:0
288,304,83038,6,0,B|252:232,1,75
336,227,83583,2,0,B|372:155,1,75,8|8,0:0|0:0,0:0:0
288,160,84129,2,0,B|340:60,3,112.5,4|0|0|0,0:0|0:0|0:0|0:0,0:0:0
220,84,85765,2,0,B|136:100|104:192|136:284|220:300,1,300,4|8,0:0|0:0,0:0:0
256,192,87129,12,0,88492,0:0:0
168,56,90674,6,0,B|134:79|138:133|182:162|219:146,1,150,8|10,0:0|0:0,0:0:0
256,212,91492,1,8,0:0:0
292,146,91765,2,0,B|329:162|373:133|377:79|344:56,1,150,8|10,0:0|0:0,0:0:0
428,184,92856,6,0,B|453:266|362:308|342:264|322:221|231:263|256:344,1,300,4|10,0:0|0:0,0:0:0
256,192,94492,1,10,0:0:0
256,344,95038,2,0,B|281:263|190:221|170:264|150:308|59:266|83:184,1,300,8|10,0:0|0:0,0:0:0
112,108,96401,2,0,B|112:16|205:16,1,150,10|2,0:0|0:0,0:0:0
256,80,97219,6,0,B|256:228,2,150,4|10|8,0:0|0:0|0:0,0:0:0
307,15,98583,2,0,B|400:16|400:108,1,150,10|2,0:0|0:0,0:0:0
420,192,99401,6,0,B|352:248|284:192,1,150,8|10,0:0|0:0,0:0:0
192,76,100492,2,0,B|124:20|56:76,1,150,8|10,0:0|0:0,0:0:0
152,192,101583,6,0,B|116:264|168:336,1,150,4|8,0:0|0:0,0:0:0
220,280,102401,1,2,0:0:0
292,280,102674,1,8,0:0:0
346,334,102947,2,0,B|396:264|360:192,1,150,8|2,0:0|0:0,0:0:0
292,156,103765,6,0,B|284:88|340:60,2,112.5,8|2|2,0:0|0:0|0:0,0:0:0
220,156,104856,2,0,B|228:88|172:60,2,112.5,8|2|2,0:0|0:0|0:0,0:0:0
256,220,105947,6,0,B|280:304|368:300,1,150,4|8,0:0|0:0,0:0:0
380,152,107038,2,0,B|419:149|450:186|441:225,2,112.5,2|2|2,0:0|0:0|0:0,0:0:0
304,140,108129,2,0,B|272:124|256:84|256:84|240:124|208:140,1,150,2|8,0:0|0:0,0:0:0
308,260,109219,6,0,B|256:220|204:260,2,112.5,2|2|2,0:0|0:0|0:0,0:0:0
256,312,110310,2,0,B|256:164,1,150,2|8,0:0|0:0,0:0:0
108,188,111401,2,0,B|108:144|140:112|180:112,2,112.5,2|2|2,0:0|0:0|0:0,0:0:0
40,144,112492,6,0,B|52:96|92:52|140:44,1,150,2|8,0:0|0:0,0:0:0
291,112,113583,2,0,B|326:111|358:143|358:187,2,112.5,2|2|2,0:0|0:0|0:0,0:0:0
326,44,114674,6,0,B|374:52|414:96|426:144,1,150,4|8,0:0|0:0,0:0:0
364,288,115765,2,0,B|396:336|396:336|452:336,2,112.5,2|2|2,0:0|0:0|0:0,0:0:0
320,228,116856,2,0,B|256:156|192:228,1,150,2|8,0:0|0:0,0:0:0
168,80,117947,6,0,B|136:188,2,112.5,2|2|2,0:0|0:0|0:0,0:0:0
96,60,119038,2,0,B|76:132|76:132|40:112|0:140,1,150,2|8,0:0|0:0,0:0:0
144,192,120129,2,0,B|104:240|48:248,2,112.5,2|2|2,0:0|0:0|0:0,0:0:0
212,156,121219,2,0,B|237:152|256:152|256:152|282:152|301:171|301:193|301:193|301:215|282:233|256:233|256:233|237:233|210:228,1,225,4|0,0:0|0:0,0:0:0
192,300,122310,5,4,0:0:0
256,360,122583,1,4,0:0:0
320,300,122856,1,4,0:0:0
256,248,123129,6,0,B|256:96,1,150,4|0,0:0|0:0,0:0:0
316,44,123947,2,0,B|400:60|416:144,1,150,8|0,0:0|0:0,0:0:0
348,192,124765,1,0,0:0:0
348,192,125038,1,8,0:0:0
416,240,125310,2,0,B|400:324|316:340,1,150,0|0,0:0|0:0,0:0:0
292,260,126129,2,0,B|256:240|220:260,1,75,8|0,0:0|0:0,0:0:0
156,312,126674,6,0,B|68:328|48:232,1,150,0|8,0:0|0:0,0:0:0
48,148,127492,2,0,B|68:56|156:72,3,150
208,136,129401,1,8,0:0:0
244,212,129674,6,0,B|272:256|344:256|372:212,1,150,0|2,0:0|0:0,0:0:0
308,160,130492,1,8,0:0:0
340,324,131038,1,2,0:0:0
256,324,131310,1,2,0:0:0
172,324,131583,1,10,0:0:0
120,260,131856,6,0,B|66:199|82:120,1,150,4|0,0:0|0:0,0:0:0
164,108,132674,2,0,B|217:168|201:247,1,150,8|0,0:0|0:0,0:0:0
120,260,133492,2,0,B|80:276|52:244,1,75,0|8,0:0|0:0,0:0:0
48,160,134038,6,0,B|64:76|148:60,1,150
228,60,134856,2,0,B|312:76|328:160,1,150,8|0,0:0|0:0,0:0:0
296,236,135674,2,0,B|288:280|320:304,1,75,0|8,0:0|0:0,0:0:0
400,324,136219,6,0,B|492:320|496:232,3,150
420,204,138129,1,8,0:0:0
420,204,138401,2,0,B|416:112|328:108,2,150,0|2|2,0:0|0:0|0:0,0:0:0
340,188,139765,6,0,B|264:208,1,75,2|0,0:0|0:0,0:0:0
184,208,140310,2,8,B|112:188,1,75,8|8,0:0|0:0,0:0:0
132,112,140856,2,0,B|152:48|216:44,3,112.5,4|0|0|0,0:0|0:0|0:0|0:0,0:0:0
328,92,142492,2,0,B|344:144|436:192|436:192|344:240|328:292,1,300,8|8,0:0|0:0,0:0:0
160,280,144129,6,0,B|100:232,1,75,2|2,0:0|0:0,0:0:0
102,151,144674,2,8,B|160:104,1,75
220,160,145219,2,0,B|260:108|224:52,3,112.5,4|0|0|0,0:0|0:0|0:0|0:0,0:0:0
320,137,146856,2,8,B|371:141|403:129|403:129|371:192|403:256|403:256|371:244|320:248,1,300
156,232,148492,6,0,B|80:232,1,75,2|2,0:0|0:0,0:0:0
56,152,149038,2,8,B|131:152,1,75
204,116,149583,2,0,B|256:80|308:116,3,112.5,4|0|0|0,0:0|0:0|0:0|0:0,0:0:0
368,224,151220,2,0,B|339:269|290:269|266:288|256:318|256:318|246:288|221:269|172:269|143:224,1,300,8|8,0:0|0:0,0:0:0
224,80,152856,6,0,B|260:152,1,75,2|2,0:0|0:0,0:0:0
176,157,153401,2,0,B|140:229,1,75,8|8,0:0|0:0,0:0:0
224,224,153947,2,0,B|172:324,3,112.5,4|0|0|0,0:0|0:0|0:0|0:0,0:0:0
292,300,155583,2,0,B|376:284|408:192|376:100|292:84,1,300,4|8,0:0|0:0,0:0:0
256,192,156947,12,2,158310,0:0:0
256,192,167038,5,4,0:0:0
404,192,167583,2,0,B|404:272|332:320,1,150,8|0,0:0|0:0,0:0:0
184,320,168674,1,8,0:0:0
108,192,169220,6,0,B|108:112|180:64,1,150,0|8,0:0|0:0,0:0:0
328,64,170310,1,0,0:0:0
328,64,170856,2,0,B|404:192,1,150,8|0,0:0|0:0,0:0:0
352,332,171947,5,8,0:0:0
256,216,172492,1,0,0:0:0
160,332,173038,1,8,0:0:0
28,260,173583,2,0,B|96:228,1,75,0|8,0:0|0:0,0:0:0
96,156,174129,2,0,B|28:124,1,75,8|0,0:0|0:0,0:0:0
64,56,174674,2,0,B|200:120,1,150,8|8,0:0|0:0,0:0:0
332,192,175765,5,0,0:0:0
332,192,176038,1,0,0:0:0
332,192,176310,1,8,0:0:0
464,120,176856,2,0,B|500:192|464:264,1,150,0|8,0:0|0:0,0:0:0
332,192,177947,5,0,0:0:0
332,192,178220,1,8,0:0:0
332,192,178492,1,8,0:0:0
200,120,179038,2,0,B|164:192|200:264,1,150,0|8,0:0|0:0,0:0:0
248,320,179856,2,0,B|280:344|320:340,1,75
348,192,180674,5,8,0:0:0
256,72,181220,1,0,0:0:0
164,192,181765,1,8,0:0:0
256,312,182310,2,0,B|256:236,2,75,0|8|8,0:0|0:0|0:0,0:0:0
104,312,183401,2,0,B|48:256|48:176,1,150,8|8,0:0|0:0,0:0:0
191,131,184492,6,0,B|256:200|320:131,1,150,0|8,0:0|0:0,0:0:0
256,92,185310,2,0,B|256:240,1,150,0|8,0:0|0:0,0:0:0
256,316,186129,1,8,0:0:0
136,228,186674,2,0,B|112:192|136:156,3,75,0|0|8|0,0:0|0:0|0:0|0:0,0:0:0
188,104,187765,2,0,B|256:48|324:104,1,150,0|8,0:0|0:0,0:0:0
192,192,192129,5,4,0:0:0
268,164,192401,1,4,0:0:0
344,136,192674,1,4,0:0:0
324,56,192947,6,0,B|256:0|188:56,1,150,4|0,0:0|0:0,0:0:0
140,124,193765,2,0,B|84:192|140:260,1,150,8|0,0:0|0:0,0:0:0
216,296,194583,1,0,0:0:0
296,296,194856,1,8,0:0:0
373,260,195129,2,0,B|428:192|372:124,1,150,0|0,0:0|0:0,0:0:0
292,100,195947,2,0,B|256:84|220:100,1,75,8|0,0:0|0:0,0:0:0
256,176,196492,6,0,B|256:252,2,75,0|0|8,0:0|0:0|0:0,0:0:0
220,100,197310,2,0,B|172:120|172:176|172:176|172:232,1,150
172,312,198129,1,8,0:0:0
256,312,198401,2,0,B|311:312|311:312|367:312|387:264,1,150
424,192,199220,1,8,0:0:0
388,120,199492,6,0,B|368:72|312:72|312:72|256:72,1,150
176,72,200310,2,8,B|100:72,1,75
136,148,200856,5,2,0:0:0
64,192,201129,1,2,0:0:0
136,232,201401,1,10,0:0:0
208,192,201674,6,0,B|251:235|297:235|339:192,1,150,4|0,0:0|0:0,0:0:0
276,140,202492,2,0,B|319:98|365:98|407:140,1,150,8|0,0:0|0:0,0:0:0
472,192,203310,1,0,0:0:0
408,244,203583,1,8,0:0:0
328,268,203856,6,0,B|288:292|256:276|256:276|224:292|184:268,1,150
184,184,204674,2,0,B|224:160|256:176|256:176|288:160|328:184,1,150,8|0,0:0|0:0,0:0:0
324,100,205492,1,0,0:0:0
256,52,205765,1,8,0:0:0
192,104,206038,6,0,B|148:104|116:128|100:160|108:208,1,150
132,280,206856,1,8,0:0:0
212,304,207129,2,0,B|256:304|288:280|304:248|296:200,1,150
272,124,207947,1,8,0:0:0
256,44,208220,2,0,B|311:37|336:68|356:92|352:136,1,150,2|0,0:0|0:0,0:0:0
408,192,209038,1,8,0:0:0
352,252,209310,6,0,B|292:308,1,75,2|0,0:0|0:0,0:0:0
214,303,209856,2,0,B|160:252,1,75,0|10,0:0|0:0,0:0:0
100,192,210401,1,8,0:0:0
124,112,210674,2,0,B|56:100|24:160,3,112.5,4|0|0|0,0:0|0:0|0:0|0:0,0:0:0
130,222,212310,2,0,B|168:267|202:260|202:222|217:134|233:222|236:317|275:317|278:222|294:134|309:222|309:260|343:267|382:222,1,300,8|8,0:0|0:0,0:0:0
256,116,213947,6,0,B|176:116,1,75,2|2,0:0|0:0,0:0:0
106,116,214492,2,0,B|182:116,1,75,8|8,0:0|0:0,0:0:0
180,200,215038,2,0,B|180:312,3,112.5,4|0|0|0,0:0|0:0|0:0|0:0,0:0:0
276,232,216674,2,0,B|300:264|340:264|340:264|380:264|412:232|412:192|412:192|412:152|380:120|340:120|340:120|300:120|276:152,1,375,8|2,0:0|0:0,0:0:0
204,192,218310,6,0,B|152:136,1,75,2|2,0:0|0:0,0:0:0
124,216,218856,2,8,B|72:272,1,75
116,340,219401,2,0,B|168:284|168:284|204:276,3,112.5,4|0|0|0,0:0|0:0|0:0|0:0,0:0:0
320,308,221038,2,0,B|320:196|320:196|312:192|312:192|328:192|328:192|320:188|320:188|320:104|232:76,1,300,8|8,0:0|0:0,0:0:0
72,120,222674,6,0,B|140:152,1,75,2|2,0:0|0:0,0:0:0
140,232,223220,2,0,B|72:264,1,75,8|8,0:0|0:0,0:0:0
24,332,223765,2,0,B|56:356|100:356|128:328|128:328,3,112.5,4|0|0|0,0:0|0:0|0:0|0:0,0:0:0
156,208,225401,2,0,B|208:224|256:316|256:316|304:224|356:208,1,300,8|8,0:0|0:0,0:0:0
256,44,227038,5,4,0:0:0
256,120,227310,1,4,0:0:0
256,196,227583,1,4,0:0:0
256,276,227856,2,0,B|256:352,1,75
