osu file format v13

[General]
AudioFilename: Maroon 5 ft. Christina Aguilera - Moves Like Jagger.mp3
AudioLeadIn: 0
PreviewTime: 45200
Countdown: 0
SampleSet: Normal
StackLeniency: 0.7
Mode: 0
LetterboxInBreaks: 0
WidescreenStoryboard: 0

[Editor]
Bookmarks: 15200,30200,45200,60082,75200,90200,97700,105200,120200,135200,150200,167075
DistanceSpacing: 1
BeatDivisor: 2
GridSize: 4
TimelineZoom: 1

[Metadata]
Title:Moves Like Jagger ft. Christina Aguilera
TitleUnicode:Moves Like Jagger ft. Christina Aguilera
Artist:Maroon 5
ArtistUnicode:Maroon 5
Creator:narakucrimson
Version:Normal
Source:
Tags:Mick D33d Reiji-RJ Lizzy
BeatmapID:487110
BeatmapSetID:135413

[Difficulty]
HPDrainRate:3
CircleSize:3
OverallDifficulty:3
ApproachRate:4
SliderMultiplier:1.38
SliderTickRate:2

[Events]
//Background and Video events
0,0,"bg.png",0,0
Video,-590,"Videah.avi"
//Break Periods
2,75200,88555
//Storyboard Layer 0 (Background)
//Storyboard Layer 1 (Fail)
//Storyboard Layer 2 (Pass)
//Storyboard Layer 3 (Foreground)
//Storyboard Sound Samples
//Background Colour Transformations
3,100,0,0,0

[TimingPoints]
7686,468.808601075134,4,1,0,35,1,0
15186,-133.333333333333,4,1,0,35,0,0
30188,-117.647058823529,4,1,0,35,0,0
30423,-117.647058823529,4,1,0,50,0,0
45190,-100,4,1,0,75,0,1
58786,-100,4,1,0,75,0,0
60192,-100,4,1,0,85,0,1
75194,-117.647058823529,4,1,0,60,0,0
97814,-117.647058823529,4,1,0,20,0,0
98048,-117.647058823529,4,1,0,25,0,0
98283,-117.647058823529,4,1,0,30,0,0
98517,-117.647058823529,4,1,0,35,0,0
98752,-117.647058823529,4,1,0,40,0,0
98986,-117.647058823529,4,1,0,45,0,0
99220,-117.647058823529,4,1,0,50,0,0
99455,-117.647058823529,4,1,0,55,0,0
99689,-117.647058823529,4,1,0,60,0,0
105198,-100,4,1,0,75,0,1
118793,-100,4,1,0,75,0,0
120200,-100,4,1,0,85,0,1
135201,-133.333333333333,4,2,0,50,0,0
149031,-133.333333333333,4,2,0,75,0,0
150203,-117.647058823529,4,2,0,65,0,0
167080,-100,4,1,0,85,0,1
180559,-100,4,1,0,25,0,1
181027,-100,4,1,0,35,0,1
181262,-100,4,1,0,50,0,1
181496,-100,4,1,0,65,0,1
181731,-100,4,1,0,80,0,1
181965,-100,4,1,0,85,0,0
182082,-100,4,1,0,85,0,1
197084,-100,4,1,0,20,0,0

[Colours]
Combo1 : 232,13,18
Combo2 : 237,0,140
Combo3 : 0,192,245
Combo4 : 255,102,0
Combo5 : 248,220,0
Combo6 : 250,162,0
Combo7 : 0,191,15
Combo8 : 0,110,244

[HitObjects]
188,248,15186,70,0,P|276:356|324:248,1,310.500011844635,0|0,3:0|3:0,0:0:0:0:
256,172,17062,1,4,3:0:0:0:
332,104,17530,2,0,L|436:104,2,103.500003948212,0|4|8,3:0|3:0|3:0,0:0:0:0:
256,36,18937,5,4,3:0:0:0:
180,104,19406,2,0,L|76:104,1,103.500003948212,0|8,3:0|3:0,0:0:0:0:
20,192,20343,1,0,3:0:0:0:
76,280,20812,2,0,L|180:280,1,103.500003948212,2|0,3:2|3:0,0:0:0:0:
256,208,21750,1,4,3:0:0:0:
332,280,22219,1,8,3:0:0:0:
256,348,22687,5,4,3:2:0:0:
156,168,23625,1,2,3:2:0:0:
256,136,24094,1,2,3:3:0:0:
356,168,24563,1,4,3:2:0:0:
204,28,25500,1,2,3:2:0:0:
308,28,25969,1,2,3:3:0:0:
340,128,26438,5,0,0:0:0:0:
256,188,26907,1,0,0:0:0:0:
172,128,27375,1,2,3:2:0:0:
88,188,27844,1,0,1:0:0:0:
172,248,28313,2,0,P|256:300|340:248,1,207.000007896424,0|2,1:0|3:2,0:0:0:0:
256,188,29720,1,0,0:0:0:0:
256,72,30188,69,4,0:0:0:0:
348,288,31126,2,0,B|388:288|388:288|428:288|460:264,1,117.30000223732
364,196,32064,2,0,P|284:220|256:304,2,175.95000335598,4|2|0,3:2|2:0|0:0,0:0:0:0:
348,288,33939,5,4,0:0:0:0:
164,288,34876,2,0,B|124:288|124:288|84:288|52:264,1,117.30000223732
148,196,35814,2,0,P|228:220|256:304,2,175.95000335598,4|2|0,3:2|2:0|0:0,0:0:0:0:
164,288,37689,5,4,0:0:0:0:
256,92,38627,1,4,3:0:0:0:
348,288,39564,1,4,0:0:0:0:
152,200,40502,1,4,3:0:0:0:
256,12,41440,5,4,0:0:0:0:
360,200,42377,1,4,3:0:0:0:
360,84,42846,1,0,0:0:0:0:
256,140,43315,1,4,0:0:0:0:
152,84,43784,1,0,3:0:0:0:
256,28,44253,1,0,1:0:0:0:
124,208,45190,70,0,P|88:112|124:16,2,207,4|4|8,1:0|3:0|0:2,0:0:0:0:
256,168,47065,1,4,3:0:0:0:
388,208,47534,2,0,P|424:112|388:16,2,207,8|4|4,1:2|3:0|0:0,0:0:0:0:
324,328,49409,5,8,1:2:0:0:
188,328,49878,1,4,3:0:0:0:
148,196,50347,2,0,P|256:124|364:196,1,276,8|8,0:2|0:2,0:0:0:0:
324,328,51754,1,4,3:0:0:0:
188,328,52222,1,8,0:0:0:0:
188,188,52691,6,0,P|85:202|29:280,2,207,4|8|8,1:2|3:0|0:0,0:0:0:0:
324,236,54566,2,0,P|424:225|484:144,2,207,4|8|8,1:2|3:0|0:0,0:0:0:0:
196,180,56442,6,0,B|168:116|168:116|196:52,1,138,4|8,3:0|0:0,0:0:0:0:
316,54,57379,2,0,B|344:116|344:116|316:180,1,138,4|8,3:0|0:0,0:0:0:0:
336,316,58317,2,0,P|280:368|176:316,1,207,0|4,0:0|3:2,0:0:0:0:
192,112,60192,70,0,P|240:92|320:112,1,138,4|8,1:0|1:2,3:0:0:0:
444,172,61130,1,4,3:0:0:0:
380,296,61598,1,8,0:2:0:0:
256,356,62067,1,0,0:0:0:0:
132,296,62536,1,8,0:2:0:0:
68,172,63005,1,4,3:0:0:0:
132,48,63474,2,0,P|184:96|204:160,1,138,8|4,0:2|1:0,0:0:0:0:
216,296,64411,5,8,0:2:0:0:
80,260,64880,2,0,P|60:180|80:132,1,138,4|8,3:0|1:2,0:0:0:0:
168,44,65818,1,8,3:0:0:0:
256,132,66287,1,8,0:2:0:0:
344,44,66755,1,4,3:0:0:0:
438,144,67224,2,0,P|452:211|432:276,1,138,8|4,0:2|1:2,0:0:0:0:
304,320,68162,5,8,2:0:0:0:
304,320,68396,2,0,B|296:248|256:232|216:216|208:144,1,207,4|8,3:0|0:2,0:0:0:0:
333,168,69568,2,0,B|300:232|257:233|214:233|180:298,2,207,4|8|8,1:2|3:0|0:2,0:0:0:0:
356,32,71443,6,0,P|284:48|240:92,1,138,4|8,3:0|1:0,0:0:0:0:
96,92,72381,2,0,P|112:164|156:208,1,138,4|8,3:0|0:0,0:0:0:0:
156,352,73319,2,0,P|228:336|272:292,1,138,8|8,3:0|1:0,0:0:0:0:
356,176,74256,1,4,1:0:0:0:
68,152,90196,70,0,P|56:184|68:264,1,117.30000223732,4|0,0:0|0:0,0:0:0:0:
172,208,91133,1,2,3:2:0:0:
256,128,91602,1,0,0:0:0:0:
340,208,92071,2,0,B|360:244|360:244|380:280|364:320,1,117.30000223732,4|2,0:0|1:2,0:0:0:0:
256,360,93009,1,4,3:0:0:0:
147,317,93477,2,0,B|131:279|151:243|151:243|171:207,1,117.30000223732,8|4,3:0|0:0,0:0:0:0:
256,128,94415,5,0,0:0:0:0:
340,208,94884,1,2,3:2:0:0:
444,264,95353,2,0,P|456:232|444:152,1,117.30000223732,0|4,0:0|0:0,0:0:0:0:
368,64,96290,1,2,3:2:0:0:
256,24,96759,1,4,0:2:0:0:
144,64,97228,1,8,3:0:0:0:
144,180,97697,22,0,B|176:208|232:216|256:192|280:168|336:176|368:204,2,234.60000447464,4|0|8,3:0|0:0|1:3,0:0:0:0:
144,64,100041,1,0,1:3:0:0:
256,24,100510,1,8,3:3:0:0:
368,64,100978,1,0,1:0:0:0:
256,192,101447,12,4,103322,1:2:0:0:
376,260,105198,70,0,P|468:228|492:128,2,207,4|4|8,1:0|3:0|0:2,0:0:0:0:
256,192,107073,1,4,3:0:0:0:
136,124,107542,2,0,P|44:156|20:256,2,207,8|4|4,1:2|3:0|0:0,0:0:0:0:
188,252,109417,5,8,1:2:0:0:
324,252,109886,1,0,0:0:0:0:
364,120,110355,2,0,P|256:48|148:120,1,276,8|8,0:2|0:2,0:0:0:0:
188,252,111761,1,4,3:0:0:0:
324,252,112230,1,8,0:0:0:0:
464,252,112699,6,0,L|464:44,1,207,4|8,1:2|3:0,0:0:0:0:
256,88,114105,1,8,1:0:0:0:
256,88,114574,2,0,L|256:296,1,207,4|8,1:2|3:0,0:0:0:0:
48,340,115980,1,8,1:0:0:0:
48,340,116449,6,0,L|48:200,1,138,4|8,1:2|1:0,0:0:0:0:
52,64,117387,2,0,P|124:56|164:100,1,138,4|8,3:0|0:0,0:0:0:0:
172,240,118324,2,0,P|280:288|340:240,1,207,0|4,0:0|3:2,0:0:0:0:
256,12,120200,69,4,0:0:0:0:
360,104,120668,2,0,L|500:104,2,138,8|4|8,0:2|3:0|2:0,0:0:0:0:
256,196,122075,1,8,3:0:0:0:
152,104,122544,2,0,L|12:104,2,138,8|4|8,0:2|3:0|2:0,0:0:0:0:
256,196,123950,6,0,B|272:264|240:264|256:332,1,138,4|8,0:0|0:2,0:0:0:0:
381,272,124888,1,4,3:0:0:0:
412,137,125356,1,8,0:2:0:0:
325,29,125825,1,8,3:0:0:0:
187,29,126294,1,8,0:2:0:0:
101,137,126763,1,4,3:0:0:0:
132,272,127232,1,8,0:2:0:0:
256,332,127701,5,4,0:0:0:0:
304,208,128169,1,8,2:0:0:0:
304,208,128404,2,0,B|296:136|256:120|216:104|208:32,1,207,4|8,3:0|0:2,0:0:0:0:
333,56,129576,2,0,B|300:120|257:121|214:121|180:186,2,207,4|8|8,1:2|3:0|0:2,0:0:0:0:
384,184,131451,6,0,L|384:324,1,138,4|8,3:0|1:0,0:0:0:0:
256,372,132389,2,0,L|256:232,1,138,4|8,3:0|0:0,0:0:0:0:
128,184,133326,2,0,L|128:324,2,138,8|8|4,3:0|0:0|0:0,0:0:0:0:
192,280,136139,69,2,3:0:0:0:
192,280,136608,2,0,P|148:172|192:104,1,207.000007896424,4|0,0:2|0:0,0:0:0:0:
320,104,138014,1,2,3:0:0:0:
320,104,138483,2,0,P|364:212|320:280,1,207.000007896424,4|2,3:2|3:0,0:0:0:0:
256,192,139890,5,2,3:0:0:0:
164,236,140358,2,0,B|116:256|116:256|68:236,2,103.500003948212,2|4|2,3:2|0:2|3:0,0:0:0:0:
256,192,141765,1,2,3:0:0:0:
348,148,142234,2,0,B|396:128|396:128|444:148,1,103.500003948212,2|4,3:0|3:2,0:0:0:0:
360,340,143640,21,2,3:2:0:0:
256,340,144109,1,4,3:0:0:0:
152,340,144578,1,4,0:2:0:0:
172,132,145515,101,2,3:2:0:0:
256,192,145984,1,8,3:0:0:0:
340,252,146453,1,4,3:0:0:0:
360,44,147390,5,2,3:2:0:0:
256,44,147859,1,4,3:0:0:0:
152,44,148328,1,4,0:2:0:0:
204,136,148797,1,4,3:0:0:0:
308,136,149266,1,8,2:0:0:0:
256,228,149735,1,8,3:2:0:0:
200,332,150203,70,0,P|248:348|312:332,2,117.30000223732,4|8|4,0:0|1:0|3:0,0:0:0:0:
100,268,151610,1,8,1:0:0:0:
144,160,152079,1,4,3:2:0:0:
32,132,152547,2,0,P|132:44|256:176,1,351.90000671196,8|4,1:0|3:2,0:0:0:0:
168,252,154423,5,8,0:0:0:0:
256,332,154891,1,4,3:0:0:0:
344,252,155360,1,8,1:0:0:0:
256,176,155829,2,0,P|346:45|480:132,1,351.90000671196,4|8,0:2|1:0,0:0:0:0:
460,248,157704,6,0,B|428:296|428:296|376:324,1,117.30000223732,4|8,3:2|1:0,0:0:0:0:
260,308,158642,2,0,P|200:296|160:256,1,117.30000223732,4|8,3:0|1:0,0:0:0:0:
256,192,159579,1,4,3:2:0:0:
350,126,160048,2,0,P|308:86|252:76,1,117.30000223732,8|2,1:0|3:2,0:0:0:0:
134,93,160986,1,8,1:0:0:0:
100,208,161455,5,4,0:0:0:0:
157,313,161924,1,8,1:0:0:0:
271,347,162392,1,4,3:0:0:0:
377,290,162861,1,8,1:0:0:0:
410,175,163330,1,4,3:2:0:0:
354,70,163799,1,8,1:0:0:0:
238,36,164268,1,2,3:2:0:0:
134,93,164736,1,8,1:0:0:0:
256,192,167080,69,6,0:0:0:0:
320,316,167549,2,0,B|368:316|368:316|416:316|452:284,1,138,8|4,0:2|1:3,0:0:0:0:
384,160,168487,1,8,1:2:0:0:
256,108,168956,1,0,0:0:0:0:
128,160,169424,2,0,B|60:160,2,69,8|2|8,1:2|1:2|3:0,0:0:0:0:
256,108,170362,1,8,0:2:0:0:
320,232,170831,6,0,P|256:256|192:232,1,138,4|8,0:0|1:2,0:0:0:0:
152,100,171769,1,4,1:3:0:0:
256,8,172237,1,8,1:2:0:0:
360,100,172706,1,0,0:0:0:0:
256,192,173175,1,8,1:2:0:0:
151,283,173644,2,0,P|255:359|360:284,1,276,8|4,3:0|0:0,0:0:0:0:
400,152,175050,6,0,L|460:112,1,69,8|0,1:0|0:0,0:0:0:0:
360,20,175753,2,0,B|152:20,1,207,2|4,1:3|0:0,0:0:0:0:
112,152,176925,2,0,L|52:192,1,69,8|0,1:0|0:0,0:0:0:0:
152,284,177629,2,0,B|360:284,1,207,2|4,1:3|0:0,0:0:0:0:
320,152,178801,6,0,P|256:176|192:152,2,138,8|2|8,0:0|2:0|0:0,0:0:0:0:
428,236,180207,1,4,0:0:0:0:
428,236,180441,2,0,P|312:368|84:236,1,483,4|4,3:2|0:0,0:0:0:0:
108,100,182551,69,8,0:0:0:0:
216,22,183020,1,4,3:0:0:0:
348,44,183489,1,8,0:0:0:0:
425,152,183958,1,0,0:0:0:0:
404,284,184426,1,8,0:0:0:0:
295,361,184895,1,4,3:0:0:0:
164,340,185364,5,8,0:0:0:0:
164,340,185598,2,0,P|48:304|12:232,1,207,4|8,0:2|1:0,0:0:0:0:
60,100,186770,1,0,0:0:0:0:
184,32,187239,1,8,0:0:0:0:
328,32,187708,1,0,0:0:0:0:
452,100,188177,1,8,1:0:0:0:
499,233,188646,2,0,P|446:318|284:328,1,276,4|4,3:0|1:0,0:0:0:0:
168,252,190052,6,0,L|108:292,1,69,8|0,1:0|0:0,0:0:0:0:
72,152,190755,2,0,P|108:80|224:60,1,207,2|4,0:3|0:0,0:0:0:0:
344,132,191927,2,0,L|404:92,1,69,8|0,1:0|0:0,0:0:0:0:
440,232,192630,2,0,P|404:304|288:324,1,207,2|4,0:3|0:0,0:0:0:0:
160,268,193803,6,0,P|148:200|120:136,1,138,8|2,0:0|3:2,0:0:0:0:
256,172,194740,2,0,L|256:32,2,138,8|4|8,0:0|2:0|0:0,0:0:0:0:
352,267,196147,2,0,P|363:199|391:137,2,138,2|8|4,3:2|0:0|2:0,0:0:0:0:
