osu file format v13

[General]
AudioFilename: Maroon 5 ft. Christina Aguilera - Moves Like Jagger.mp3
AudioLeadIn: 0
PreviewTime: 45200
Countdown: 0
SampleSet: Normal
StackLeniency: 0.7
Mode: 0
LetterboxInBreaks: 0
WidescreenStoryboard: 0

[Editor]
Bookmarks: 15200,30200,45200,60082,75200,90200,93950,97700,105200,120200,135200,150200,167075
DistanceSpacing: 1
BeatDivisor: 4
GridSize: 4
TimelineZoom: 2

[Metadata]
Title:Moves Like Jagger ft. Christina Aguilera
TitleUnicode:Moves Like Jagger ft. Christina Aguilera
Artist:Maroon 5
ArtistUnicode:Maroon 5
Creator:narakucrimson
Version:Insane
Source:
Tags:Mick D33d Reiji-RJ Lizzy
BeatmapID:339289
BeatmapSetID:135413

[Difficulty]
HPDrainRate:8
CircleSize:4
OverallDifficulty:8
ApproachRate:8
SliderMultiplier:2.08
SliderTickRate:2

[Events]
//Background and Video events
0,0,"bg.png",0,0
Video,-590,"Videah.avi"
//Break Periods
2,75200,88555
//Storyboard Layer 0 (Background)
//Storyboard Layer 1 (Fail)
//Storyboard Layer 2 (Pass)
//Storyboard Layer 3 (Foreground)
Sprite,Foreground,Centre,"Deed.png",570,420 F,0,14731,15200,0,1 F,0,15200,29262,1 F,0,29262,29731,1,0 F,0,29731,44731,0 F,0,44731,45200,0,1 F,0,45200,74731,1 F,0,74731,75200,1,0 F,0,75200,93481,0 F,0,93481,93950,0,1 F,0,93950,96762,1 F,0,96762,97231,1,0 F,0,97231,100981,0 F,0,100981,101450,0,1 F,0,101450,104262,1 F,0,104262,104731,1,0 F,0,104731,134731,0 F,0,134731,135200,0,1 F,0,135200,149262,1 F,0,149262,149731,1,0 F,0,149731,166137,0 F,0,166137,167075,0,1 F,0,167075,181137,1 F,0,181137,181606,1,0
Sprite,Foreground,Centre,"Naraku.png",100,420 F,0,29731,30200,0,1 F,0,30200,44262,1 F,0,44262,44731,1,0 F,0,44731,88559,0 F,0,88559,89028,0,1 F,0,89028,93012,1 F,0,93012,93481,1,0 F,0,93481,97231,0 F,0,97231,97700,0,1 F,0,97700,100512,1 F,0,100512,100981,1,0 F,0,100981,104731,0 F,0,104731,105200,0,1 F,0,105200,134262,1 F,0,134262,134731,1,0 F,0,134731,149731,0 F,0,149731,150200,0,1 F,0,150200,164965,1 F,0,164965,165434,1,0 F,0,165434,181606,0 F,0,181606,182075,0,1 F,0,182075,196606,1 F,0,196606,197075,1,0
//Storyboard Sound Samples
//Background Colour Transformations
3,100,0,0,0

[TimingPoints]
7686,468.808601075134,4,1,0,35,1,0
15186,-133.333333333333,4,1,0,35,0,0
26438,-125,4,1,0,35,0,0
26907,-133.333333333333,4,1,0,35,0,0
30188,-117.647058823529,4,1,0,50,0,0
30306,-117.647058823529,4,1,0,35,0,0
45190,-100,4,1,0,75,0,1
58786,-100,4,1,0,75,0,0
60192,-80,4,1,0,85,0,1
66052,-81.9672131147541,4,1,0,85,0,1
66990,-80,4,1,0,85,0,1
75194,-100,4,1,0,60,0,0
89434,-100,4,1,0,30,0,0
89610,-100,4,1,0,40,0,0
89668,-100,4,1,0,50,0,0
89727,-100,4,1,0,60,0,0
105198,-90.9090909090909,4,1,0,75,0,1
118793,-100,4,1,0,75,0,0
120200,-80,4,1,0,85,0,1
135201,-133.333333333333,4,2,0,50,0,0
143054,-117.647058823529,4,2,0,50,0,0
149031,-100,4,2,0,75,0,0
150203,-90.9090909090909,4,2,0,65,0,0
155712,-86.9565217391304,4,2,0,65,0,0
156415,-90.9090909090909,4,2,0,65,0,0
167080,-80.6451612903226,4,1,0,85,0,1
176457,-80,4,1,0,85,0,1
176691,-80.6451612903226,4,1,0,85,0,1
181965,-80,4,1,0,85,0,0
182082,-80,4,1,0,85,0,1
197084,-100,4,1,0,20,0,0

[Colours]
Combo1 : 232,13,18
Combo2 : 237,0,140
Combo3 : 0,192,245
Combo4 : 255,102,0
Combo5 : 248,220,0
Combo6 : 250,162,0
Combo7 : 0,191,15
Combo8 : 0,110,244

[HitObjects]
172,284,15186,70,0,P|136:352|64:360,2,156.000005950928,4|0|0,3:0|3:0|3:0,0:0:0:0:
92,284,16358,1,0,3:0:0:0:
92,284,16593,1,0,3:0:0:0:
120,208,16827,2,0,P|45:217|11:283,1,156.000005950928,2|2,3:2|3:0,0:0:0:0:
408,244,17765,5,0,3:0:0:0:
476,284,17999,1,4,3:0:0:0:
476,204,18234,1,0,3:0:0:0:
408,164,18468,1,8,3:0:0:0:
340,204,18703,1,0,3:0:0:0:
340,284,18937,2,0,P|376:352|448:360,2,156.000005950928,4|0|0,3:0|3:0|3:2,0:0:0:0:
420,284,20109,1,0,3:0:0:0:
420,284,20343,1,0,3:0:0:0:
392,208,20578,2,0,P|466:217|500:283,2,156.000005950928,2|2|0,3:2|3:0|3:0,0:0:0:0:
324,244,21750,5,2,3:2:0:0:
256,280,21984,1,0,3:0:0:0:
188,316,22219,1,0,3:0:0:0:
120,352,22453,2,0,P|20:255|120:156,1,312.000011901856,4|0,3:2|3:0,0:0:0:0:
188,192,23625,1,2,3:2:0:0:
256,228,23859,1,0,3:0:0:0:
324,264,24094,1,2,3:3:0:0:
392,300,24328,2,0,P|492:203|392:104,1,312.000011901856,4|0,3:2|3:0,0:0:0:0:
324,140,25500,1,2,3:2:0:0:
256,176,25735,1,0,3:0:0:0:
188,140,25969,1,2,3:3:0:0:
256,104,26203,1,2,3:2:0:0:
324,68,26438,6,0,P|256:27|188:68,1,166.4,0|0,0:0|1:0,1:0:0:0:
120,104,27141,1,2,3:2:0:0:
120,180,27375,1,0,1:0:0:0:
188,220,27610,1,2,3:2:0:0:
256,260,27844,1,0,1:0:0:0:
324,220,28079,1,2,2:0:0:0:
392,260,28313,2,0,P|364:328|296:368,1,156.000005950928,0|2,1:0|3:2,0:0:0:0:
216,368,29016,2,0,P|148:328|120:260,1,156.000005950928,8|0,0:3|3:0,0:0:0:0:
188,220,29720,1,0,0:0:0:0:
256,184,29954,1,2,2:0:0:0:
324,148,30188,5,4,0:0:0:0:
400,192,30423,1,0,3:0:0:0:
400,192,30540,2,0,B|440:192|440:192|488:192|524:160,1,132.600002529144
488,80,31126,1,0,3:0:0:0:
408,40,31360,1,0,2:0:0:0:
328,80,31595,1,0,0:0:0:0:
328,80,31829,2,0,P|280:120|184:80,1,176.800003372192,4|0,3:2|2:0,0:0:0:0:
256,28,32532,1,0,0:0:0:0:
104,40,32767,37,0,2:0:0:0:
24,80,33001,1,0,1:0:0:0:
24,168,33236,1,0,2:0:0:0:
104,208,33470,1,0,0:0:0:0:
184,168,33704,1,0,2:0:0:0:
328,168,33939,2,0,P|372:180|416:168,1,88.4000016860962,4|0,0:0|2:0,0:0:0:0:
480,140,34290,2,0,B|496:172|496:192|496:192|496:216|496:216|496:240|480:268,1,132.600002529144,2|0,3:2|2:0,0:0:0:0:
432,340,34876,1,0,0:0:0:0:
344,324,35111,1,0,2:0:0:0:
256,340,35345,1,0,1:0:0:0:
168,324,35580,2,0,P|104:280|112:188,1,176.800003372192,4|0,3:2|2:0,0:0:0:0:
176,128,36283,1,0,0:0:0:0:
339,128,36517,101,2,2:0:0:0:
373,209,36752,1,0,1:0:0:0:
339,291,36986,1,2,3:2:0:0:
257,325,37220,1,0,0:0:0:0:
176,291,37455,1,2,3:2:0:0:
144,208,37689,2,0,P|122:167|86:147,1,88.4000016860962,4|0,0:0|3:0,0:0:0:0:
12,144,38041,2,0,P|36:92|108:80,1,132.600002529144,0|0,0:0|3:0,0:0:0:0:
188,104,38627,1,0,0:0:0:0:
248,168,38861,1,2,2:0:0:0:
256,256,39096,1,0,0:0:0:0:
316,320,39330,1,2,2:0:0:0:
370,209,39564,102,0,P|392:168|428:148,1,88.4000016860962,4|0,0:0|3:0,0:0:0:0:
500,144,39916,2,0,P|476:92|404:80,1,132.600002529144,0|0,0:0|3:0,0:0:0:0:
324,104,40502,1,0,0:0:0:0:
264,168,40737,1,2,2:0:0:0:
256,256,40971,1,0,0:0:0:0:
196,320,41205,1,2,2:0:0:0:
44,236,41440,102,0,P|92:236|128:216,1,88.4000016860962,4|0,0:0|3:0,0:0:0:0:
192,176,41791,2,0,B|216:180|236:192|236:192|276:192|276:192|296:204|320:208,1,132.600002529144
468,148,42377,2,0,P|420:148|384:168,1,88.4000016860962,4|0,3:0|3:0,0:0:0:0:
444,232,42846,1,0,0:0:0:0:
501,297,43081,2,0,P|463:316|419:315,1,88.4000016860962,0|8,3:0|3:0,0:0:0:0:
256,304,43549,37,0,3:0:0:0:
340,276,43784,1,0,0:0:0:0:
172,276,44018,2,0,L|144:284,3,29.4666672286987,0|0|0|0,0:0|0:0|0:0|0:0,0:0:0:0:
119,291,44370,1,0,1:0:0:0:
95,298,44487,1,0,1:0:0:0:
0,192,44721,1,0,1:0:0:0:
40,64,44956,1,0,1:0:0:0:
176,48,45190,6,0,P|224:48|280:72,1,104,4|0,0:0|3:2,0:0:0:0:
320,128,45542,1,2,3:2:0:0:
324,132,45659,1,8,1:0:0:0:
408,72,45893,1,2,3:0:0:0:
464,160,46128,1,4,3:0:0:0:
376,216,46362,1,2,3:0:0:0:
352,320,46597,1,8,0:2:0:0:
256,360,46831,1,8,3:0:0:0:
160,320,47065,1,0,1:0:0:0:
136,216,47300,2,0,P|24:240|0:320,2,208,4|4|2,0:2|3:3|3:2,0:0:0:0:
224,272,48472,1,8,0:0:0:0:
336,48,48941,6,0,P|288:48|232:72,1,104,4|0,0:0|3:2,0:0:0:0:
192,128,49292,1,2,3:2:0:0:
192,128,49409,1,8,1:0:0:0:
104,72,49644,1,2,3:0:0:0:
48,160,49878,1,4,3:0:0:0:
136,216,50113,1,2,3:0:0:0:
160,320,50347,1,8,0:2:0:0:
256,360,50581,1,8,3:0:0:0:
352,320,50816,1,0,1:0:0:0:
376,216,51050,2,0,P|488:240|512:320,2,208,4|4|2,0:2|3:3|3:2,0:0:0:0:
256,192,52222,5,8,0:0:0:0:
136,168,52457,1,2,3:0:0:0:
16,144,52691,2,0,B|16:216|16:216|16:260|56:288,1,156,4|0,1:2|3:0,0:0:0:0:
120,320,53160,1,8,3:2:0:0:
168,224,53394,2,0,L|256:280,1,104,2|0,0:2|3:0,0:0:0:0:
352,248,53863,1,2,3:0:0:0:
352,144,54098,1,8,0:0:0:0:
424,72,54332,1,2,3:0:0:0:
496,144,54566,2,0,B|496:216|496:216|496:260|456:288,1,156,4|0,1:2|3:0,0:0:0:0:
392,320,55035,1,8,3:2:0:0:
344,224,55270,2,0,L|256:280,1,104,2|0,0:2|3:0,0:0:0:0:
160,256,55738,1,2,3:0:0:0:
64,224,55973,1,8,0:0:0:0:
80,328,56207,1,2,3:0:0:0:
176,360,56442,6,0,P|224:344|256:304,1,104,4|2,3:0|3:0,0:0:0:0:
336,144,56910,2,0,P|288:160|256:200,1,104,8|2,0:0|3:0,0:0:0:0:
392,312,57379,2,0,P|376:264|336:232,1,104,4|2,3:0|3:0,0:0:0:0:
120,192,57848,2,0,P|136:240|176:272,1,104,8|2,0:0|3:0,0:0:0:0:
336,120,58317,2,0,P|256:64|176:120,1,208,0|2,0:0|3:2,0:0:0:0:
256,152,59020,1,4,3:2:0:0:
408,352,60192,70,0,P|472:296|488:192,1,195,4|2,1:0|3:2,3:0:0:0:
456,120,60661,1,8,0:0:0:0:
336,48,60895,1,2,3:0:0:0:
336,192,61130,1,4,3:0:0:0:
416,48,61364,1,2,3:0:0:0:
256,48,61598,1,8,0:2:0:0:
376,120,61833,1,8,3:0:0:0:
256,192,62067,1,0,0:0:0:0:
136,120,62302,2,0,P|128:256|224:328,2,260,4|4|2,0:2|3:0|3:0,0:0:0:0:
256,192,63474,2,0,P|283:126|256:80,1,130,8|0,0:2|3:0,0:0:0:0:
104,32,63943,6,0,P|40:88|24:192,1,195,4|2,1:0|3:2,3:0:0:0:
56,264,64411,1,8,0:0:0:0:
176,192,64646,1,2,3:0:0:0:
176,336,64880,1,4,3:0:0:0:
256,192,65115,1,2,3:0:0:0:
96,192,65349,1,8,0:2:0:0:
96,336,65583,1,8,3:0:0:0:
216,264,65818,1,0,0:0:0:0:
336,192,66052,2,0,P|255:111|176:192,2,253.759989545411,4|4|2,0:2|3:0|3:0,0:0:0:0:
336,336,67224,5,8,0:2:0:0:
336,336,67459,1,2,3:0:0:0:
336,336,67693,2,0,B|360:368|400:368|400:368|448:368|448:368|488:368|512:336,1,195,4|0,0:2|3:0,0:0:0:0:
512,264,68162,1,8,0:2:0:0:
424,168,68396,2,0,L|336:264,1,130,2|0,1:2|3:0,0:0:0:0:
256,176,68865,1,2,3:0:0:0:
136,216,69099,1,8,0:2:0:0:
136,216,69334,1,2,3:0:0:0:
176,336,69568,2,0,B|152:368|112:368|112:368|64:368|64:368|24:368|0:336,1,195,4|0,1:2|3:0,0:0:0:0:
0,264,70037,1,8,0:2:0:0:
88,168,70271,2,0,L|176:264,1,130,2|0,1:2|3:0,0:0:0:0:
336,192,70740,1,2,3:0:0:0:
176,120,70975,1,8,0:2:0:0:
336,48,71209,1,2,3:0:0:0:
512,120,71443,6,0,P|504:192|472:240,1,130,4|2,3:0|3:0,0:0:0:0:
316,264,71912,2,0,P|324:192|356:144,1,130,8|2,1:0|3:2,0:0:0:0:
196,168,72381,2,0,P|188:240|156:288,1,130,4|2,3:0|3:0,0:0:0:0:
0,312,72850,2,0,P|8:240|40:192,1,130,8|8,1:0|3:0,0:0:0:0:
80,40,73319,2,0,B|124:100|200:72|200:72|256:52|312:32|312:32|388:4|432:64,1,390,4|12,1:2|0:3,0:0:0:0:
256,160,89493,38,0,L|256:124,4,26,0|0|0|0|0,3:0|3:0|3:0|3:0|1:0,0:0:0:0:
208,296,90196,86,0,P|264:312|304:296,1,104,4|0,0:0|2:0,0:0:0:0:
380,296,90547,2,0,P|440:288|504:224,1,156,2|2,0:2|3:0,0:0:0:0:
452,124,91133,2,0,P|428:136|404:144,1,52,2|0,3:2|2:0,0:0:0:0:
336,124,91368,1,2,3:0:0:0:
256,56,91602,1,0,0:0:0:0:
159,95,91837,1,0,3:0:0:0:
120,192,92071,6,0,B|124:252|152:260|180:268|184:328,1,156,4|0,0:0|1:0,0:0:0:0:
108,320,92540,1,2,3:2:0:0:
196,200,92774,1,0,3:2:0:0:
339,153,93009,1,0,0:0:0:0:
196,106,93243,1,0,3:0:0:0:
284,229,93477,1,0,0:0:0:0:
284,78,93712,1,0,3:0:0:0:
140,24,93946,70,0,P|92:40|60:80,1,104,4|0,0:0|3:0,0:0:0:0:
44,152,94298,2,0,P|76:208|160:236,1,156,2|2,1:2|3:0,0:0:0:0:
212,336,94884,2,0,P|188:348|164:356,1,52,2|0,3:2|2:0,0:0:0:0:
96,336,95119,1,2,3:0:0:0:
4,292,95353,1,0,1:0:0:0:
96,248,95587,1,0,3:0:0:0:
188,204,95822,6,0,B|248:208|256:236|264:264|324:268,1,156,4|0,0:0|1:0,0:0:0:0:
320,192,96290,1,2,3:2:0:0:
192,280,96525,1,0,1:2:0:0:
184,128,96759,1,4,0:2:0:0:
312,40,96994,1,0,3:0:0:0:
448,104,97228,1,0,1:0:0:0:
456,256,97462,1,0,3:0:0:0:
320,332,97697,5,0,1:2:0:0:
192,304,97931,1,0,3:2:0:0:
332,260,98166,1,0,1:2:0:0:
180,232,98400,1,0,3:2:0:0:
344,188,98634,1,0,1:2:0:0:
168,160,98869,1,0,3:2:0:0:
356,116,99103,1,0,1:2:0:0:
156,88,99338,1,0,3:2:0:0:
360,44,99572,5,0,1:2:0:0:
504,104,99806,1,2,3:3:0:0:
496,260,100041,1,0,1:3:0:0:
344,296,100275,1,2,3:3:0:0:
256,161,100510,1,0,1:2:0:0:
152,44,100744,1,2,3:3:0:0:
8,104,100978,1,0,1:2:0:0:
16,260,101213,1,2,3:3:0:0:
168,296,101447,85,0,1:0:0:0:
203,317,101564,1,2,3:3:0:0:
243,328,101682,1,2,3:3:0:0:
284,326,101799,1,2,3:3:0:0:
323,311,101916,1,0,1:0:0:0:
356,286,102033,1,2,3:3:0:0:
379,252,102150,1,2,3:3:0:0:
392,212,102268,1,2,3:3:0:0:
392,171,102385,1,0,1:0:0:0:
379,131,102502,1,2,3:3:0:0:
356,97,102619,1,2,3:3:0:0:
323,72,102736,1,2,3:3:0:0:
284,57,102854,1,0,1:3:0:0:
243,55,102971,1,2,3:3:0:0:
203,66,103088,1,2,3:3:0:0:
168,87,103205,1,0,3:2:0:0:
256,192,103322,12,8,104729,0:2:0:0:
308,48,105198,6,0,P|260:28|204:48,1,114.400003491211,4|0,0:0|3:2,0:0:0:0:
144,92,105549,1,2,3:2:0:0:
144,92,105666,1,8,1:0:0:0:
256,108,105901,1,2,3:0:0:0:
368,92,106135,1,4,3:0:0:0:
417,193,106370,1,2,3:0:0:0:
336,271,106604,1,8,0:2:0:0:
237,218,106839,1,8,3:0:0:0:
124,200,107073,1,0,1:0:0:0:
12,216,107307,2,0,P|-25:142|12:8,2,228.800006982422,4|4|2,0:2|3:3|3:2,0:0:0:0:
124,120,108479,1,8,0:0:0:0:
256,192,108714,1,2,3:0:0:0:
204,336,108948,6,0,P|252:356|308:336,1,114.400003491211,4|0,0:0|3:2,0:0:0:0:
368,292,109300,1,2,3:2:0:0:
368,292,109417,1,8,1:0:0:0:
256,276,109651,1,2,3:0:0:0:
144,292,109886,1,4,3:0:0:0:
95,191,110120,1,2,3:0:0:0:
176,113,110355,1,8,0:2:0:0:
275,166,110589,1,8,3:0:0:0:
388,184,110823,1,0,1:0:0:0:
500,168,111058,2,0,P|537:242|500:376,2,228.800006982422,4|4|2,0:2|3:3|3:2,0:0:0:0:
432,68,112230,1,8,0:0:0:0:
332,140,112464,1,2,3:0:0:0:
264,40,112699,6,0,B|224:48|224:48|184:68|184:68|144:48|144:48|104:40,1,171.600005236817,4|0,1:2|3:0,0:0:0:0:
28,24,113167,1,8,3:2:0:0:
0,136,113402,2,0,P|8:192|48:240,1,114.400003491211,2|0,0:2|3:0,0:0:0:0:
120,144,113871,1,2,3:0:0:0:
160,252,114105,1,8,0:0:0:0:
256,192,114339,1,2,3:0:0:0:
248,344,114574,2,0,B|288:336|288:336|328:316|328:316|368:336|368:336|408:344,1,171.600005236817,4|0,1:2|3:0,0:0:0:0:
484,360,115043,1,8,3:2:0:0:
512,248,115277,2,0,P|504:192|464:144,1,114.400003491211,2|0,0:2|3:0,0:0:0:0:
392,240,115746,1,2,3:0:0:0:
352,132,115980,1,8,0:0:0:0:
256,192,116215,1,2,3:0:0:0:
219,83,116449,6,0,P|170:56|113:55,1,114.400003491211,4|2,1:1|3:0,0:0:0:0:
148,228,116918,2,0,P|120:280|120:336,1,114.400003491211,8|2,0:0|3:0,0:0:0:0:
292,300,117387,2,0,P|344:328|400:328,1,114.400003491211,4|2,3:0|3:0,0:0:0:0:
364,156,117856,2,0,P|392:104|392:48,1,114.400003491211,8|2,0:0|3:0,0:0:0:0:
256,20,118324,2,0,B|212:64|232:144|280:104|300:184|256:228,1,228.800006982422,0|2,0:0|3:2,0:0:0:0:
176,308,119028,1,4,3:2:0:0:
336,308,119731,1,2,3:2:0:0:
336,308,119965,1,2,3:3:0:0:
128,364,120200,70,0,P|100:308|128:252,1,130,4|2,1:0|3:2,3:0:0:0:
192,204,120551,1,0,0:0:0:0:
256,156,120668,1,8,0:0:0:0:
384,136,120903,1,2,3:0:0:0:
312,28,121137,1,4,3:0:0:0:
184,48,121372,1,2,3:0:0:0:
300,224,121606,1,8,0:2:0:0:
444,72,121840,1,2,3:0:0:0:
512,192,122075,1,0,0:0:0:0:
444,312,122309,1,2,3:0:0:0:
312,356,122544,1,8,3:2:0:0:
184,304,122778,2,0,P|76:268|56:136,1,260,2|2,0:3|3:2,0:0:0:0:
128,20,123481,1,8,0:2:0:0:
256,72,123716,1,2,3:2:0:0:
384,20,123950,6,0,P|412:76|384:132,1,130,4|2,1:0|1:2,3:0:0:0:
320,180,124302,1,0,0:0:0:0:
256,228,124419,1,8,0:0:0:0:
128,248,124653,1,2,3:0:0:0:
200,356,124888,1,4,3:0:0:0:
328,336,125122,1,2,3:0:0:0:
212,160,125356,1,8,0:2:0:0:
68,312,125591,1,2,3:0:0:0:
0,192,125825,1,0,0:0:0:0:
68,72,126060,1,2,3:0:0:0:
200,28,126294,1,8,1:2:0:0:
328,80,126528,2,0,P|436:116|456:248,1,260,2|2,0:3|3:2,0:0:0:0:
376,348,127232,1,8,1:2:0:0:
376,348,127466,1,2,3:0:0:0:
212,264,127701,6,0,B|168:292|120:264|120:264|72:292|28:264,1,195,4|0,0:2|3:0,0:0:0:0:
4,192,128169,1,8,0:2:0:0:
20,64,128404,2,0,P|68:80|120:140,1,130,2|0,1:2|3:0,0:0:0:0:
144,264,128873,1,2,3:0:0:0:
256,332,129107,1,8,0:2:0:0:
368,264,129341,1,2,3:0:0:0:
300,120,129576,2,0,B|344:92|392:120|392:120|440:92|484:120,1,195,4|0,0:2|3:0,0:0:0:0:
508,192,130045,1,8,0:2:0:0:
492,320,130279,2,0,P|444:304|392:244,1,130,2|0,1:2|3:0,0:0:0:0:
256,184,130748,2,0,B|272:248|240:248|256:312,1,130,2|8,3:2|2:2,0:0:0:0:
20,320,131217,2,0,P|68:304|120:244,1,130,2|4,3:2|0:0,0:0:0:0:
160,116,131685,5,0,3:0:0:0:
374,171,131920,1,8,1:0:0:0:
184,284,132154,1,2,3:2:0:0:
239,69,132389,1,4,3:0:0:0:
352,259,132623,1,2,2:2:0:0:
137,204,132857,1,8,1:0:0:0:
328,92,133092,1,8,3:0:0:0:
272,306,133326,1,4,1:2:0:0:
0,272,133795,1,8,0:0:0:0:
0,272,134029,2,0,P|40:192|136:164,1,195,0|8,3:0|3:0,0:0:0:0:
256,188,134733,1,8,0:0:0:0:
448,152,135905,5,0,3:0:0:0:
448,76,136139,1,2,3:0:0:0:
512,116,136373,1,0,0:0:0:0:
512,192,136608,2,0,P|496:264|376:360,1,234.000008926392,4|0,0:2|0:0,0:0:0:0:
64,232,137780,5,0,3:0:0:0:
64,232,137897,1,0,3:0:0:0:
64,232,138014,1,2,3:0:0:0:
0,268,138249,1,0,3:0:0:0:
0,192,138483,2,0,P|16:120|136:24,1,234.000008926392,4|2,3:2|3:0,0:0:0:0:
256,192,139890,21,2,3:0:0:0:
256,268,140124,1,0,3:0:0:0:
320,228,140358,2,0,P|323:160|256:116,2,156.000005950928,2|4|2,3:2|0:2|3:0,0:0:0:0:
320,304,141530,1,0,3:0:0:0:
256,344,141765,1,2,3:0:0:0:
192,304,141999,1,0,3:0:0:0:
192,228,142234,2,0,P|205:136|320:156,1,234.000008926392,2|2,3:0|3:2,0:0:0:0:
512,156,143406,69,0,3:0:0:0:
512,156,143523,1,2,0:0:0:0:
512,156,143640,1,2,3:2:0:0:
464,228,143874,1,2,3:0:0:0:
416,300,144109,2,0,P|352:281|320:228,1,132.600002529144,4|4,3:0|0:2,0:0:0:0:
0,228,145281,1,2,3:2:0:0:
0,228,145398,1,0,0:0:0:0:
0,228,145515,1,2,3:2:0:0:
48,156,145750,1,2,3:0:0:0:
96,84,145984,2,0,P|160:103|192:156,1,132.600002529144,8|0,3:0|0:2,0:0:0:0:
200,228,146453,6,0,P|257:258|312:228,2,132.600002529144,4|2|0,3:0|0:2|3:0,0:0:0:0:
256,184,147273,1,0,3:0:0:0:
256,184,147390,1,2,3:2:0:0:
340,124,147625,1,0,3:0:0:0:
308,24,147859,1,8,3:0:0:0:
204,24,148094,1,0,0:0:0:0:
172,124,148328,21,4,3:0:0:0:
256,384,148797,1,4,3:0:0:0:
304,252,149031,2,0,P|256:235|208:252,1,104,0|8,1:0|3:2,0:0:0:0:
256,308,149383,1,8,1:2:0:0:
260,312,149500,1,8,3:2:0:0:
336,172,149735,1,8,3:2:0:0:
176,172,149969,1,8,3:2:0:0:
256,24,150203,5,4,1:0:0:0:
352,92,150438,2,0,P|404:120|460:120,1,114.400003491211,2|8,0:0|1:0,0:0:0:0:
432,4,150907,1,0,0:0:0:0:
248,136,151141,2,0,P|191:134|141:107,1,114.400003491211,4|2,3:0|2:0,0:0:0:0:
56,32,151610,1,8,1:0:0:0:
40,148,151844,1,2,0:0:0:0:
100,248,152079,5,4,3:2:0:0:
204,300,152313,1,0,3:0:0:0:
204,300,152430,2,0,P|256:320|308:300,1,114.400003491211,2|2,0:0|3:0,0:0:0:0:
364,252,152782,1,0,0:0:0:0:
472,260,153016,1,4,3:0:0:0:
372,144,153251,1,2,0:0:0:0:
256,244,153485,2,0,B|224:224|212:168|244:168|232:112|200:92,1,171.600005236817,8|0,1:0|0:0,0:0:0:0:
152,152,153954,22,0,P|100:172|48:152,1,114.400003491211,4|0,3:2|3:0,0:0:0:0:
100,96,154305,1,2,0:0:0:0:
100,96,154423,1,8,1:0:0:0:
192,28,154657,1,0,0:0:0:0:
320,104,154891,1,4,3:0:0:0:
192,180,155126,1,2,0:0:0:0:
320,256,155360,1,8,1:0:0:0:
448,180,155595,1,2,0:0:0:0:
372,352,155829,2,0,B|344:368|316:372|288:368|276:352|256:340|236:352|224:368|196:372|168:368|140:352,1,239.200004562378,4|8,0:0|1:0,0:0:0:0:
104,244,156532,2,0,P|47:234|0:197,1,114.400003491211,0|4,0:0|3:0,0:0:0:0:
41,85,157001,1,2,0:0:0:0:
132,7,157235,2,0,P|180:35|208:84,1,114.400003491211,8|0,1:0|0:0,0:0:0:0:
295,224,157704,70,0,P|400:193|428:88,1,228.800006982422,4|8,3:2|1:0,0:0:0:0:
324,40,158407,1,0,0:0:0:0:
324,40,158525,1,0,0:0:0:0:
324,40,158642,1,4,3:0:0:0:
220,88,158876,1,2,3:2:0:0:
116,40,159111,2,0,P|32:72|16:144,1,171.600005236817,8|0,1:0|3:0,0:0:0:0:
56,212,159579,2,0,P|83:228|108:302,1,114.400003491211,4|2,3:2|0:0,0:0:0:0:
217,331,160048,2,0,P|233:303|307:279,1,114.400003491211,8|2,1:0|3:2,0:0:0:0:
292,356,160400,1,0,0:0:0:0:
292,356,160517,1,4,3:0:0:0:
400,284,160752,1,2,0:0:0:0:
336,170,160986,2,0,P|308:153|284:79,1,114.400003491211,8|2,1:0|3:2,0:0:0:0:
175,50,161455,22,0,P|158:77|84:102,1,114.400003491211,4|0,3:2|0:0,0:0:0:0:
20,204,161924,2,0,P|68:236|124:236,1,114.400003491211,8|2,1:0|0:0,0:0:0:0:
200,212,162275,1,0,0:0:0:0:
200,212,162392,1,4,3:0:0:0:
296,84,162627,1,2,0:0:0:0:
447,135,162861,1,8,1:0:0:0:
445,295,163096,1,2,0:0:0:0:
292,342,163330,5,4,3:2:0:0:
200,212,163564,1,2,0:0:0:0:
296,84,163799,1,8,1:0:0:0:
492,32,164033,1,2,0:0:0:0:
256,380,164502,1,2,0:0:0:0:
20,32,164971,1,4,0:0:0:0:
16,16,167080,6,0,B|-16:72|-16:72|-16:136|-16:136|16:192,1,193.439992325684,6|2,0:0|1:2,1:0:0:0:
56,256,167549,1,8,0:0:0:0:
168,192,167784,1,2,3:0:0:0:
216,308,168018,1,4,1:3:0:0:
336,360,168252,1,2,3:0:0:0:
456,308,168487,1,8,1:2:0:0:
504,192,168721,1,2,3:0:0:0:
456,76,168956,1,0,0:0:0:0:
336,24,169190,2,0,L|216:72,1,128.959994883789,4|8,0:2|3:2,0:0:0:0:
72,206,169659,2,0,L|173:287,1,128.959994883789,2|0,1:2|3:2,0:0:0:0:
361,343,170128,2,0,L|378:216,1,128.959994883789,2|8,1:3|3:2,0:0:0:0:
396,92,170596,1,2,0:3:0:0:
496,16,170831,6,0,B|528:72|528:72|528:136|528:136|496:192,1,193.439992325684,4|2,0:0|1:2,0:0:0:0:
456,256,171300,1,8,0:0:0:0:
344,192,171534,1,2,3:0:0:0:
296,308,171769,1,4,1:3:0:0:
176,360,172003,1,2,3:0:0:0:
56,308,172237,1,8,1:2:0:0:
8,192,172472,1,2,3:0:0:0:
56,76,172706,1,0,0:0:0:0:
176,24,172941,2,0,B|295:73,1,128.959994883789,4|8,1:2|3:2,0:0:0:0:
336,360,173409,2,0,L|216:312,1,128.959994883789,2|0,1:3|3:0,0:0:0:0:
104,192,173878,5,2,3:0:0:0:
256,192,174113,1,8,1:2:0:0:
408,192,174347,1,2,3:0:0:0:
512,72,174581,2,0,B|500:112|500:112|524:152|524:152|512:192,1,130,4|2,1:0|3:0,0:0:0:0:
488,264,174933,1,0,3:0:0:0:
464,336,175050,1,8,1:0:0:0:
352,264,175285,2,0,B|292:281|292:281|256:336,1,128.959994883789,8|4,1:3|3:0,0:0:0:0:
160,264,175753,2,0,B|221:247|221:247|256:191,1,130,2|8,1:3|3:2,0:0:0:0:
156,72,176222,1,2,3:0:0:0:
0,72,176457,2,0,B|12:112|12:112|-12:152|-12:152|0:192,1,130,4|2,1:0|3:0,0:0:0:0:
24,264,176808,1,0,3:0:0:0:
48,336,176925,1,8,0:0:0:0:
160,264,177160,2,0,B|220:281|220:281|256:336,1,128.959994883789,8|4,1:3|3:0,0:0:0:0:
376,264,177629,5,2,3:0:0:0:
496,192,177863,1,8,1:2:0:0:
376,120,178097,1,2,3:0:0:0:
256,192,178332,2,0,P|188:180|136:152,1,128.959994883789,4|2,1:1|3:0,0:0:0:0:
256,8,178801,2,0,P|324:20|376:52,1,128.959994883789,8|2,1:1|3:2,0:0:0:0:
440,192,179269,2,0,P|428:260|396:312,1,128.959994883789,4|2,1:1|3:0,0:0:0:0:
72,192,179738,2,0,P|84:124|116:72,1,128.959994883789,8|2,1:0|3:3,0:0:0:0:
256,192,180207,1,4,0:0:0:0:
376,52,180441,2,2,P|324:20|256:8,1,128.959994883789,2|8,1:0|3:2,0:0:0:0:
136,332,180910,2,2,P|192:365|256:376,1,128.959994883789,2|0,1:0|3:0,0:0:0:0:
376,264,181379,1,2,0:0:0:0:
136,192,181613,1,8,1:0:0:0:
376,120,181848,1,4,1:2:0:0:
136,48,182082,5,4,1:0:0:0:
24,156,182317,1,0,0:0:0:0:
0,224,182434,1,2,2:0:0:0:
24,292,182551,1,8,0:0:0:0:
151,268,182786,1,2,3:0:0:0:
256,344,183020,1,4,3:3:0:0:
360,268,183254,1,2,2:2:0:0:
191,144,183489,1,8,0:0:0:0:
388,76,183723,1,8,3:0:0:0:
256,240,183958,1,0,0:0:0:0:
124,76,184192,1,2,3:0:0:0:
321,144,184426,1,8,0:0:0:0:
151,268,184661,2,0,B|96:296|96:296|28:296,1,130,2|0,2:0|0:0,0:0:0:0:
4,68,185130,6,0,B|32:68|68:76|60:100|92:108|124:108,1,130,0|8,3:0|0:0,0:0:0:0:
336,88,185598,2,0,P|400:192|332:296,1,260,4|0,0:2|0:0,0:0:0:0:
256,308,186184,1,2,3:2:0:0:
256,308,186302,1,8,0:0:0:0:
292,192,186536,1,2,3:0:0:0:
456,108,186770,1,0,0:0:0:0:
456,236,187005,1,2,2:0:0:0:
380,340,187239,1,8,0:0:0:0:
256,380,187474,1,2,3:0:0:0:
132,340,187708,1,0,0:0:0:0:
56,236,187942,1,0,3:0:0:0:
56,108,188177,1,8,1:0:0:0:
176,52,188411,2,0,P|212:124|336:52,1,260,8|2,3:0|3:2,0:0:0:0:
256,56,188997,1,0,3:2:0:0:
256,56,189114,1,8,0:0:0:0:
152,184,189349,1,2,3:0:0:0:
168,348,189583,6,0,B|204:360|236:352|236:352|284:320|284:320|316:312|352:324,1,195,4|0,0:0|0:0,0:0:0:0:
424,352,190052,1,8,0:0:0:0:
484,232,190286,2,0,P|436:212|364:232,1,130,2|4,3:0|3:0,0:0:0:0:
148,232,190755,1,2,0:3:0:0:
364,152,190990,1,8,0:0:0:0:
148,152,191224,1,2,0:3:0:0:
344,36,191458,2,0,B|308:24|276:32|276:32|228:64|228:64|196:72|160:60,1,195,4|0,0:0|0:0,0:0:0:0:
88,32,191927,1,8,0:0:0:0:
28,152,192162,2,0,P|76:172|148:152,1,130,2|4,3:0|3:0,0:0:0:0:
256,40,192630,1,2,0:3:0:0:
364,152,192865,1,8,0:0:0:0:
256,264,193099,1,2,0:3:0:0:
68,196,193334,6,0,P|112:168|188:168,1,130,4|2,0:0|3:0,0:0:0:0:
410,299,193803,2,0,P|358:296|296:251,1,130,8|2,0:0|3:2,0:0:0:0:
194,14,194271,2,0,P|234:47|257:119,1,130,0|2,0:0|3:0,0:0:0:0:
201,372,194740,2,0,P|188:321|212:249,1,130,8|2,0:0|3:2,0:0:0:0:
405,78,195209,2,0,P|386:126|325:171,1,130,4|2,0:0|3:0,0:0:0:0:
186,171,195678,1,8,0:0:0:0:
168,304,195912,2,0,P|264:340|344:304,2,195,2|8|8,0:2|3:0|0:0,0:0:0:0:
256,116,197084,1,4,2:0:0:0:
