osu file format v13

[General]
AudioFilename: Maroon 5 ft. Christina Aguilera - Moves Like Jagger.mp3
AudioLeadIn: 0
PreviewTime: 45200
Countdown: 0
SampleSet: Normal
StackLeniency: 0.7
Mode: 0
LetterboxInBreaks: 0
WidescreenStoryboard: 0

[Editor]
Bookmarks: 15200,30200,45200,60082,75200,90200,105200,120200,135200,150200,167075,182075
DistanceSpacing: 1.2
BeatDivisor: 8
GridSize: 4
TimelineZoom: 2

[Metadata]
Title:Moves Like Jagger ft. Christina Aguilera
TitleUnicode:Moves Like Jagger ft. Christina Aguilera
Artist:Maroon 5
ArtistUnicode:Maroon 5
Creator:narakucrimson
Version:Hard
Source:
Tags:Mick D33d Reiji-RJ Lizzy
BeatmapID:487109
BeatmapSetID:135413

[Difficulty]
HPDrainRate:6.5
CircleSize:4
OverallDifficulty:6.5
ApproachRate:7.2
SliderMultiplier:1.8
SliderTickRate:2

[Events]
//Background and Video events
0,0,"bg.png",0,0
Video,-590,"Videah.avi"
//Break Periods
2,75200,88559
//Storyboard Layer 0 (Background)
//Storyboard Layer 1 (Fail)
//Storyboard Layer 2 (Pass)
//Storyboard Layer 3 (Foreground)
Sprite,Foreground,Centre,"Lizzy.png",570,420 F,0,14731,15200,0,1 F,0,15200,29262,1 F,0,29262,29731,1,0 F,0,29731,44731,0 F,0,44731,45200,0,1 F,0,45200,59262,1 F,0,59262,59731,1,0 F,0,59731,86859,0 F,0,88559,89028,0,1 F,0,89028,104262,1 F,0,104262,104731,1,0 F,0,104731,119731,0 F,0,119731,120200,0,1 F,0,120200,134731,1 F,0,134731,135200,1,0 F,0,135200,149731,0 F,0,149731,150200,0,1 F,0,150200,166137,1 F,0,166137,166606,1,0 F,0,166606,181606,0 F,0,181606,182075,0,1 F,0,182075,197075,1 F,0,197075,197543,1,0
Sprite,Foreground,Centre,"Reiji.png",100,420 F,0,29731,30200,0,1 F,0,30200,44262,1 F,0,44262,44731,1,0 F,0,44731,59731,0 F,0,59731,60200,0,1 F,0,60200,74731,1 F,0,74731,75200,1,0 F,0,75200,104731,0 F,0,104731,105200,0,1 F,0,105200,119262,1 F,0,119262,119731,1,0 F,0,119731,135200,0 F,0,135200,135668,0,1 F,0,135668,149262,1 F,0,149262,149731,1,0 F,0,149731,166606,0 F,0,166606,167075,0,1 F,0,167075,181137,1 F,0,181137,181606,1,0
//Storyboard Sound Samples
//Background Colour Transformations
3,100,0,0,0

[TimingPoints]
7686,468.808601075134,4,1,0,35,1,0
15185,-133.333333333333,4,2,0,35,0,0
30187,-117.647058823529,4,1,0,40,0,0
45190,-100,4,1,0,75,0,1
58786,-100,4,1,0,75,0,0
60192,-100,4,1,0,75,0,1
74022,-133.333333333333,4,1,0,60,0,1
75194,-100,4,1,0,60,0,0
89434,-100,4,1,0,30,0,0
89610,-100,4,1,0,40,0,0
89668,-100,4,1,0,50,0,0
89727,-100,4,1,0,60,0,0
90196,-117.647058823529,4,2,0,45,0,0
101916,-117.647058823529,4,2,0,50,0,0
102385,-117.647058823529,4,2,0,55,0,0
102854,-117.647058823529,4,2,0,60,0,0
105198,-100,4,1,0,75,0,1
118793,-117.647058823529,4,1,0,50,0,0
120200,-100,4,1,0,85,0,1
135201,-133.333333333333,4,2,0,40,0,0
142702,-133.333333333333,4,2,0,45,0,0
145515,-133.333333333333,4,2,0,50,0,0
149031,-133.333333333333,4,2,0,40,0,0
150203,-100,4,2,0,65,0,0
155360,-100,4,1,0,65,0,0
156298,-100,4,2,0,65,0,0
163330,-100,4,2,0,45,0,0
167080,-83.3333333333333,4,1,0,85,0,1
181965,-83.3333333333333,4,1,0,85,0,0
182082,-83.3333333333333,4,1,0,85,0,1
197084,-83.3333333333333,4,1,0,40,0,0

[Colours]
Combo1 : 232,13,18
Combo2 : 237,0,140
Combo3 : 0,192,245
Combo4 : 255,102,0
Combo5 : 248,220,0
Combo6 : 250,162,0
Combo7 : 0,191,15
Combo8 : 0,110,244

[HitObjects]
104,72,15186,6,0,B|240:56,2,135.000005149842,0|0|0,1:0|1:0|1:3,0:0:0:0:
68,228,16593,1,0,1:0:0:0:
68,228,16827,2,0,B|88:256|124:260|124:260|208:248,1,135.000005149841,2|0,0:2|0:3,0:0:0:0:
256,300,17530,1,0,1:0:0:0:
420,304,17999,6,0,L|436:220,1,67.5000025749207,0|0,1:0|0:0,0:0:0:0:
364,196,18468,2,0,L|348:280,2,67.5000025749207,0|0|0,1:0|0:0|1:0,0:0:0:0:
464,68,19406,2,0,B|432:52|396:56|396:56|328:64,2,135.000005149841,0|0|0,1:0|1:0|1:0,0:0:0:0:
416,136,20578,2,0,B|369:142|369:142|368:196|328:224,1,135.000005149841,2|0,0:2|0:0,0:0:0:0:
288,152,21281,1,0,1:0:0:0:
176,296,21750,5,2,1:2:0:0:
256,312,21984,1,0,0:0:0:0:
336,300,22219,1,0,1:0:0:0:
416,316,22453,1,2,0:2:0:0:
436,156,22922,1,0,0:0:0:0:
436,156,23156,1,0,1:0:0:0:
300,68,23625,5,2,1:2:0:0:
220,52,23859,1,0,0:0:0:0:
140,64,24094,1,0,1:0:0:0:
60,48,24328,1,2,0:2:0:0:
40,208,24797,1,0,0:0:0:0:
40,208,25031,1,0,1:0:0:0:
176,296,25500,6,0,L|184:216,2,67.5000025749207,2|0|0,1:2|0:0|1:0,0:0:0:0:
268,340,26203,1,2,0:2:0:0:
360,300,26438,6,0,L|432:292,1,67.5000025749208,0|0,1:0|3:0,0:0:0:0:
492,232,26907,1,0,1:0:0:0:
472,144,27141,1,2,0:0:0:0:
388,116,27375,2,0,L|380:48,2,67.5000025749208,0|2|0,1:0|0:0|1:0,0:0:0:0:
348,192,28079,1,0,0:0:0:0:
352,196,28313,1,2,1:2:0:0:
136,152,28782,1,0,1:0:0:0:
140,156,29016,5,2,3:2:0:0:
184,236,29251,2,0,P|150:245|116:248,1,67.5000025749208,0|0,1:0|3:0,0:0:0:0:
192,320,29720,1,0,1:0:0:0:
280,308,29954,1,2,3:2:0:0:
368,296,30188,6,0,L|448:300,1,76.5000014591217,4|2,0:0|2:0,0:0:0:0:
449,304,30540,2,0,P|461:245|449:189,1,114.750002188683
316,56,31360,1,2,2:0:0:0:
264,132,31595,2,0,L|188:128,1,76.5000014591217,0|0,0:0|3:0,0:0:0:0:
96,144,32064,2,0,B|76:100|76:100|88:24,2,114.750002188683
156,216,33001,2,0,L|232:220,1,76.5000014591217,0|2,0:0|2:0,0:0:0:0:
324,184,33470,2,0,P|316:144|324:108,1,76.5000014591217,0|0,0:0|3:0,0:0:0:0:
416,200,33939,6,0,P|424:240|416:276,1,76.5000014591217,0|2,0:0|2:0,0:0:0:0:
428,288,34290,2,0,L|312:284,1,114.750002188683
132,318,35111,1,2,2:0:0:0:
38,334,35345,1,0,0:0:0:0:
24,240,35580,1,0,3:0:0:0:
118,222,35814,6,0,P|130:170|118:106,2,114.750002188683
132,312,36752,1,0,0:0:0:0:
204,256,36986,1,2,2:0:0:0:
220,348,37220,1,0,0:0:0:0:
292,292,37455,1,2,2:0:0:0:
296,296,37689,5,4,0:0:0:0:
492,188,38158,1,0,0:0:0:0:
400,176,38392,1,0,3:0:0:0:
332,116,38627,2,0,L|256:120,1,76.5000014591217,0|2,0:0|2:0,0:0:0:0:
168,144,39096,2,0,P|156:108|156:68,1,76.5000014591217,0|2,0:0|2:0,0:0:0:0:
72,36,39564,5,4,0:0:0:0:
40,248,40033,1,0,0:0:0:0:
132,244,40268,1,0,3:0:0:0:
224,240,40502,2,0,L|312:248,1,76.5000014591217,0|2,0:0|2:0,0:0:0:0:
308,340,40971,2,0,L|231:333,1,76.5000014591217,0|2,0:0|2:0,0:0:0:0:
308,252,41440,6,0,P|332:188|316:104,2,153.000002918243,4|0|0,0:0|0:0|0:0,0:0:0:0:
80,272,42846,1,0,0:0:0:0:
308,252,43315,1,0,0:0:0:0:
308,252,44018,6,0,L|333:253,3,25.5000004863739,4|4|4|0,3:0|3:0|3:0|0:0,0:0:0:0:
355,255,44370,1,0,0:0:0:0:
377,256,44487,1,0,0:0:0:0:
496,252,44721,1,0,0:0:0:0:
428,152,44956,1,0,0:0:0:0:
320,140,45190,6,0,B|264:152|264:152|176:144,1,135,4|0,0:0|3:0,0:0:0:0:
176,148,45659,2,0,L|158:251,1,90,8|2,0:2|0:0,0:0:0:0:
56,260,46128,1,2,3:1:0:0:
8,164,46362,2,0,L|23:75,1,90,0|10,3:3|0:2,0:0:0:0:
128,96,46831,2,0,B|172:84|224:96,1,90,2|4,0:0|3:0,0:0:0:0:
324,76,47300,2,2,P|268:84|200:180,2,180,2|2|0,0:0|0:0|0:0,0:2:0:0:
452,96,48472,1,4,0:2:0:0:
320,52,48706,1,2,2:0:0:0:
456,128,48941,5,4,0:0:0:0:
432,248,49175,1,0,3:0:0:0:
432,248,49292,1,0,2:0:0:0:
432,248,49409,1,8,0:2:0:0:
312,248,49644,2,0,B|334:207|334:207|348:160,2,90,2|2|2,0:0|0:0|3:0,0:0:0:0:
204,260,50347,1,8,0:2:0:0:
100,236,50581,1,2,0:0:0:0:
100,236,50816,1,4,3:0:0:0:
20,164,51050,2,2,B|8:252|8:252|24:344,2,180,2|2|2,0:0|0:0|0:0,0:0:0:0:
132,144,52222,2,0,P|180:124|208:64,1,90,10|0,0:0|0:0,0:0:0:0:
224,200,52691,6,2,B|244:232|240:268|236:304|252:336,1,135,6|0,0:0|3:0,0:0:0:0:
260,340,53160,1,8,0:0:0:0:
348,284,53394,2,0,L|440:268,2,90,2|0|2,0:0|3:3|0:0,0:0:0:0:
184,300,54098,1,10,0:0:0:0:
352,288,54332,1,2,0:3:0:0:
177,302,54566,2,2,P|112:308|32:300,1,135,6|0,0:0|3:0,0:0:0:0:
36,312,55035,2,0,B|25:265|25:265|29:213,1,90,8|2,0:0|0:1,0:0:0:0:
132,184,55504,1,0,3:0:0:0:
228,132,55738,6,0,B|231:82|231:82|224:40,2,90,2|8|2,0:3|0:0|0:0,0:0:0:0:
264,236,56442,6,2,P|216:240|176:228,2,90,4|2|8,0:0|0:0|0:0,0:0:0:0:
336,316,57145,1,2,0:0:0:0:
376,216,57379,2,2,P|421:202|476:208,1,90,2|2,0:0|0:3,0:0:0:0:
404,120,57848,2,0,P|456:112|500:76,1,90,10|0,0:0|3:0,0:0:0:0:
412,12,58317,1,0,1:0:0:0:
256,192,58434,12,4,59723,2:2:0:0:
440,92,60192,6,0,L|432:184,1,90,4|4,0:0|2:0,0:0:0:0:
240,196,60661,2,0,L|248:104,1,90,8|2,0:2|0:0,0:0:0:0:
348,68,61130,2,0,L|340:160,1,90,0|2,0:0|0:0,0:0:0:0:
148,176,61598,2,0,L|156:84,1,90,8|2,0:2|0:0,0:0:0:0:
60,56,62067,5,0,0:0:0:0:
36,152,62302,2,2,P|20:240|52:324,1,180,2|2,0:0|0:0,0:0:0:0:
144,284,63005,2,0,L|236:280,1,90,0|2,0:0|0:0,0:0:0:0:
324,324,63474,1,8,0:2:0:0:
416,292,63708,1,0,0:0:0:0:
436,292,63825,1,0,0:0:0:0:
456,292,63943,6,0,B|472:256|472:256|460:200,1,90,4|4,0:0|2:0,0:0:0:0:
476,192,64294,2,0,L|341:197,1,135,0|2,0:0|0:0,0:0:0:0:
240,156,64880,2,0,P|248:108|236:68,1,90,0|2,0:0|0:0,0:0:0:0:
140,116,65349,2,2,P|132:164|144:204,1,90,8|2,0:2|0:0,0:0:0:0:
172,308,65818,5,0,0:0:0:0:
172,308,66052,2,0,B|232:280|232:280|344:304,1,180,2|2,0:0|0:0,0:0:0:0:
452,316,66755,1,0,0:0:0:0:
464,208,66990,1,2,0:0:0:0:
356,196,67224,1,8,0:2:0:0:
344,304,67459,1,2,0:0:0:0:
464,208,67693,6,2,P|480:144|472:76,1,135,6|0,0:0|0:0,0:0:0:0:
484,64,68162,1,8,0:2:0:0:
380,36,68396,1,2,0:0:0:0:
304,112,68631,2,0,L|212:108,1,90,0|2,0:0|0:0,0:0:0:0:
64,104,69099,1,8,0:2:0:0:
208,112,69334,1,2,0:0:0:0:
60,108,69568,6,2,B|48:164|48:164|68:240,1,135,4|0,0:0|0:0,0:0:0:0:
56,256,70037,1,8,0:2:0:0:
144,316,70271,1,2,0:0:0:0:
144,316,70506,2,0,L|236:308,1,90,0|2,0:0|0:0,0:0:0:0:
376,320,70975,1,8,0:2:0:0:
240,312,71209,1,2,0:0:0:0:
380,324,71443,6,2,L|388:232,1,90,0|2,0:0|0:0,0:0:0:0:
492,180,71912,2,2,L|484:269,1,90,8|2,0:2|0:0,0:0:0:0:
288,216,72381,2,2,P|244:220|196:212,1,90,2|2,0:0|0:0,0:0:0:0:
256,120,72850,2,2,P|300:116|348:124,1,90,8|2,0:2|0:0,0:0:0:0:
148,120,73319,5,0,0:0:0:0:
52,176,73553,1,0,0:0:0:0:
60,200,73670,1,0,0:0:0:0:
68,224,73788,1,8,0:2:0:0:
160,304,74022,2,0,B|292:288|224:324|364:304,1,202.500007724762,4|8,0:2|0:2,0:0:0:0:
440,88,89493,6,0,L|456:64,4,22.5,0|0|0|0|0,3:0|3:0|3:0|3:0|1:0,0:0:0:0:
348,248,90196,6,0,P|420:232|464:180,2,114.750002188683,4|8|0,1:0|1:3|1:0,2:0:0:0:
256,288,91133,2,0,P|252:328|240:372,1,76.5000014591217,2|0,0:0|3:0,0:0:0:0:
174,210,91602,1,4,0:0:0:0:
174,210,91837,2,2,B|170:154|178:108|201:59,1,153.000002918243,0|2,1:3|3:0,0:0:0:0:
300,20,92540,1,0,1:0:0:0:
348,116,92774,5,0,3:0:0:0:
348,116,93009,2,0,P|362:151|364:192,1,76.5000014591217,0|0,1:0|0:0,0:0:0:0:
272,308,93477,2,0,P|257:272|256:232,1,76.5000014591217,0|0,1:0|0:0,0:0:0:0:
172,152,93946,2,0,P|117:137|62:150,2,114.750002188683,0|0|0,1:0|3:0|1:0,2:0:0:0:
268,112,94884,2,0,P|276:149|271:187,1,76.5000014591217,2|2,0:0|3:0,0:0:0:0:
188,320,95353,2,0,P|179:282|184:244,1,76.5000014591217,0|0,1:0|0:0,0:0:0:0:
296,280,95822,2,0,B|372:280|372:280|432:248,2,114.750002188683,0|2|2,1:2|1:2|3:0,0:0:0:0:
200,228,96759,6,0,B|164:240|164:240|124:240,2,76.5000014591217,0|0|0,1:0|0:0|1:0,0:0:0:0:
275,284,97462,2,2,P|291:206|242:146,1,153.000002918243,2|0,0:2|0:0,0:0:0:0:
204,64,98166,2,0,L|108:80,1,76.5000014591217,0|2,1:0|3:0,0:0:0:0:
304,68,98634,2,0,L|400:52,1,76.5000014591217,0|2,1:0|3:0,0:0:0:0:
448,116,99103,1,0,1:0:0:0:
392,192,99338,2,2,P|384:256|452:340,1,153.000002918243,2|0,0:0|0:0,0:0:0:0:
344,356,100041,1,0,1:0:0:0:
256,336,100275,5,2,0:3:0:0:
140,352,100510,1,2,1:2:0:0:
120,232,100744,1,0,0:0:0:0:
240,212,100978,1,0,1:3:0:0:
152,188,101213,1,2,0:0:0:0:
120,104,101447,6,0,P|156:96|180:96,3,38.2500007295609,0|0|0|0,3:0|3:0|3:0|3:0,0:0:0:0:
204,100,101916,2,0,P|222:102|241:108,3,38.2500007295609,0|0|0|0,3:0|3:0|3:0|3:0,0:0:0:0:
288,112,102385,2,0,P|306:109|325:103,3,38.2500007295609,0|0|0|0,1:0|1:0|1:0|1:0,0:0:0:0:
364,80,102854,2,0,P|382:74|401:71,3,38.2500007295609,0|0|0|0,1:0|1:0|1:0|1:0,0:0:0:0:
256,192,103322,12,4,104729,1:2:0:0:
112,80,105198,5,4,0:0:0:0:
68,176,105432,1,4,2:0:0:0:
76,196,105549,1,0,0:0:0:0:
84,216,105666,2,0,L|176:208,1,90,8|2,0:2|0:0,0:0:0:0:
164,316,106135,2,0,L|74:323,1,90,0|2,0:0|0:0,0:0:0:0:
260,280,106604,1,8,0:2:0:0:
368,264,106839,1,2,0:0:0:0:
472,296,107073,6,2,P|484:248|480:204,1,90,0|2,0:0|0:0,0:0:0:0:
440,108,107542,1,8,0:2:0:0:
336,132,107776,2,0,P|248:128|156:124,1,180,2|2,0:0|0:0,0:0:0:0:
52,152,108479,1,8,0:2:0:0:
104,244,108714,1,0,0:0:0:0:
104,244,108831,1,0,0:0:0:0:
104,244,108948,6,0,L|199:251,1,90,4|4,0:0|2:0,0:0:0:0:
204,264,109300,2,0,P|192:200|208:132,1,135,0|2,0:0|0:0,0:0:0:0:
156,36,109886,2,2,L|66:32,1,90,0|2,0:0|0:0,0:0:0:0:
208,132,110355,2,0,L|297:135,1,90,8|2,0:2|0:0,0:0:0:0:
392,84,110823,5,0,0:0:0:0:
464,164,111058,2,0,B|480:220|480:220|448:344,1,180,2|2,0:0|0:0,0:0:0:0:
344,312,111761,1,0,0:0:0:0:
240,332,111995,1,2,0:0:0:0:
168,252,112230,1,8,0:2:0:0:
272,228,112464,1,2,0:0:0:0:
88,316,112699,6,2,P|68:252|72:184,1,135,4|0,0:0|0:0,0:0:0:0:
60,172,113167,2,0,L|152:164,1,90,8|2,0:2|0:0,0:0:0:0:
248,120,113636,1,0,0:0:0:0:
248,120,113871,2,0,P|256:76|248:32,2,90,2|8|2,0:0|0:2|0:0,0:0:0:0:
256,228,114574,6,2,L|392:236,1,135,4|0,0:0|0:0,0:0:0:0:
400,248,115043,2,0,P|392:292|400:336,1,90,8|2,0:2|0:0,0:0:0:0:
496,248,115511,1,0,0:0:0:0:
496,248,115746,2,0,P|504:204|496:160,1,90,2|8,0:0|0:2,0:0:0:0:
436,68,116215,1,2,0:0:0:0:
328,52,116449,6,2,L|236:48,1,90,0|2,0:0|0:0,0:0:0:0:
136,140,116918,2,2,L|228:144,1,90,8|2,0:2|0:0,0:0:0:0:
352,236,117387,2,2,L|260:232,1,90,2|2,0:0|0:0,0:0:0:0:
160,324,117856,2,2,L|252:328,1,90,8|2,0:2|0:0,0:0:0:0:
348,368,118324,2,2,P|364:300|352:236,1,135,0|0,0:0|2:0,0:0:0:0:
364,224,118793,1,0,2:0:0:0:
256,148,119028,6,0,P|244:92|256:36,2,114.750002188683,0|0|0,3:0|3:0|3:0,0:0:0:0:
152,232,119965,1,4,2:0:0:0:
260,276,120200,5,4,0:0:0:0:
360,316,120434,1,0,3:0:0:0:
448,256,120668,1,8,0:0:0:0:
428,148,120903,2,0,P|392:184|336:196,2,90,2|2|0,0:0|0:0|3:0,0:0:0:0:
336,88,121606,1,8,0:0:0:0:
236,132,121840,2,0,P|220:88|228:28,1,90,2|0,0:0|0:0,0:0:0:0:
124,88,122309,2,2,B|120:188|120:188|152:272,2,180,2|2|4,0:0|0:0|3:0,1:0:0:0:
224,136,123481,2,0,L|336:140,1,90,8|2,0:0|2:2,0:0:0:0:
408,192,123950,1,4,0:0:0:0:
340,312,124184,5,0,3:0:0:0:
334,322,124302,1,0,2:0:0:0:
328,332,124419,1,8,0:0:0:0:
172,320,124653,1,2,0:0:0:0:
64,308,124888,1,2,0:0:0:0:
128,220,125122,1,2,3:0:0:0:
236,232,125356,2,2,P|248:188|240:128,1,90,8|2,0:0|0:0,0:0:0:0:
320,288,125825,1,4,3:0:0:0:
320,288,126060,2,2,P|344:184|328:72,2,180
232,352,127232,5,8,0:0:0:0:
352,364,127466,1,2,0:0:0:0:
432,280,127701,2,2,P|448:220|440:144,1,135,6|0,0:0|2:0,0:0:0:0:
432,136,128169,2,0,L|528:128,2,90,8|2|0,0:0|0:0|3:3,0:0:0:0:
324,120,128873,1,2,0:0:0:0:
224,164,129107,1,8,0:0:0:0:
124,124,129341,1,2,0:0:0:0:
36,188,129576,6,2,P|60:232|52:328,1,135,6|0,0:0|3:0,0:0:0:0:
44,328,130045,1,8,0:0:0:0:
180,280,130279,2,0,L|196:184,1,90,2|0,0:0|3:3,0:0:0:0:
328,136,130748,2,0,L|312:232,1,90,2|8,0:0|0:0,0:0:0:0:
400,288,131217,1,2,0:0:0:0:
492,232,131451,6,2,B|504:188|504:188|508:132,1,90,4|2,0:0|0:0,0:0:0:0:
416,84,131920,2,2,B|402:125|402:125|400:184,1,90,10|2,0:0|0:0,0:0:0:0:
300,208,132389,2,2,P|312:163|314:119,1,90,2|2,0:0|0:3,0:0:0:0:
216,168,132857,2,2,P|203:212|201:256,1,90,8|0,0:0|0:0,0:0:0:0:
104,308,133326,1,0,1:0:0:0:
256,192,133443,12,2,135201,2:0:0:0:
184,108,135905,5,0,0:0:0:0:
184,108,136139,2,0,P|119:101|48:100,2,135.000005149842,2|0|2,0:0|0:0|0:0,0:0:0:0:
324,56,137545,1,0,0:0:0:0:
464,108,138014,2,0,B|472:136|472:136|460:180,1,67.5000025749208,2|0,0:0|0:0,0:0:0:0:
472,192,138483,2,0,L|336:188,1,135.000005149842,2|4,0:0|0:0,0:0:0:0:
192,220,139421,1,0,0:0:0:0:
192,220,139890,6,0,L|120:216,1,67.5000025749208,2|0,0:0|0:0,0:0:0:0:
104,224,140358,2,0,P|88:156|100:92,2,135.000005149842,2|4|2,0:0|0:0|0:0,0:0:0:0:
76,300,141530,1,0,0:0:0:0:
156,288,141765,2,0,L|224:292,1,67.5000025749208,2|0,0:0|0:0,0:0:0:0:
288,344,142234,2,0,B|308:300|308:300|292:212,1,135.000005149842,2|4,0:0|0:0,0:0:0:0:
424,236,143171,5,0,3:0:0:0:
452,104,143640,1,2,0:0:0:0:
320,76,144109,2,0,P|276:68|220:76,2,101.250003862381,0|2|0,3:0|0:0|0:0,0:0:0:0:
324,80,145046,1,0,3:0:0:0:
336,200,145515,2,0,L|328:272,1,67.5000025749208,2|0,0:0|0:0,0:0:0:0:
384,324,145984,2,0,P|428:332|484:324,2,101.250003862381,0|2|0,3:0|0:0|0:0,0:0:0:0:
304,344,146922,1,0,3:0:0:0:
152,292,147390,6,0,L|76:288,1,67.5000025749208,2|0,0:0|0:0,0:0:0:0:
76,208,147859,2,0,L|152:212,1,67.5000025749208,2|0,0:0|0:0,0:0:0:0:
128,128,148328,2,0,L|52:124,2,67.5000025749208,2|0|0,0:0|0:0|3:0,0:0:0:0:
247,180,149031,2,0,L|270:179,3,22.5000008583069,4|4|4|0,3:0|3:0|3:0|1:0,0:0:0:0:
293,177,149383,1,0,1:0:0:0:
316,176,149500,1,0,1:0:0:0:
412,128,149735,1,0,1:0:0:0:
496,184,149969,1,4,0:0:0:0:
448,280,150203,6,0,P|404:264|312:272,1,135,4|0,0:1|0:0,0:0:0:0:
304,278,150672,1,8,1:0:0:0:
204,248,150907,2,2,L|104:260,2,90,0|2|0,1:0|0:1|3:0,1:0:0:0:
256,152,151610,1,10,1:0:0:0:
356,192,151844,1,0,3:0:0:0:
408,96,152079,2,2,P|360:76|272:80,1,135,0|0,3:0|0:0,0:0:0:0:
263,76,152547,2,0,L|206:66,2,45,8|0|2,1:0|0:0|0:1,0:0:0:0:
312,172,153016,1,0,3:0:0:0:
256,264,153251,1,2,3:1:0:0:
344,328,153485,2,0,B|420:288|420:288|472:200,1,180,8|2,1:0|0:2,0:0:0:0:
164,144,154423,5,8,1:0:0:0:
468,207,154891,1,2,3:1:0:0:
448,102,155126,1,0,0:0:0:0:
336,116,155360,2,2,B|248:112|268:48|176:44,2,180,10|2|10,1:0|3:1|1:0,2:0:0:0:
412,192,156532,1,0,3:0:0:0:
318,271,156767,2,0,P|322:319|294:375,1,90,2|0,3:1|0:0,0:0:0:0:
192,344,157235,2,2,P|188:296|216:240,1,90,10|2,1:0|0:3,0:0:0:0:
140,168,157704,6,0,B|256:152|256:152|336:172,1,180,2|8,0:0|1:0,0:0:0:0:
420,204,158407,2,0,P|428:248|412:304,2,90,0|2|0,0:0|3:1|0:0,0:0:0:0:
500,132,159111,2,2,P|516:76|500:-4,2,135,10|2|2,1:0|0:1|0:0,3:0:0:0:
396,108,160048,1,8,1:0:0:0:
296,152,160283,1,0,0:0:0:0:
188,136,160517,2,2,B|192:88|168:40,1,90,2|0,3:1|3:0,0:0:0:0:
92,144,160986,2,2,P|88:204|104:284,1,135,10|2,1:0|0:1,0:0:0:0:
120,282,161455,6,0,B|163:293|163:293|216:286,1,90,0|2,1:0|0:0,0:0:0:0:
284,212,161924,1,8,1:0:0:0:
392,204,162158,1,2,0:0:0:0:
348,104,162392,1,2,0:0:0:0:
396,208,162627,2,0,L|492:200,2,90,2|8|2,0:3|1:0|0:0,0:0:0:0:
328,292,163330,53,0,1:0:0:0:
224,272,163564,2,0,P|176:264|132:268,1,90,2|8,1:1|1:0,0:0:0:0:
8,276,164033,2,0,P|38:238|57:198,1,90,2|0,1:0|3:0,0:0:0:0:
112,88,164502,2,2,P|129:133|154:169,1,90,2|8,1:0|1:0,1:0:0:0:
256,64,164971,1,4,2:0:0:0:
288,68,166846,1,2,2:0:0:0:
416,80,167080,101,4,0:0:0:0:
464,180,167315,1,4,2:0:0:0:
448,188,167432,1,0,0:0:0:0:
432,196,167549,2,2,L|324:184,1,107.999996704102,8|2,0:2|0:0,0:0:0:0:
224,220,168018,2,0,P|236:272|224:328,1,107.999996704102,0|2,0:0|0:0,0:0:0:0:
128,276,168487,2,0,P|116:224|128:168,1,107.999996704102,8|2,0:2|0:0,0:0:0:0:
44,104,168956,85,0,0:0:0:0:
144,64,169190,1,2,0:0:0:0:
232,124,169424,1,8,0:2:0:0:
328,72,169659,2,0,L|385:69,2,53.9999983520508,2|0|0,0:3|0:0|0:0,0:0:0:0:
232,124,170128,1,2,0:0:0:0:
328,176,170362,2,2,L|436:172,1,107.999996704102,8|2,0:2|0:0,0:0:0:0:
384,280,170831,6,0,L|276:284,1,107.999996704102,0|4,0:0|2:0,0:0:0:0:
260,300,171182,2,0,B|236:248|236:248|248:144,1,161.999995056153,0|2,0:0|0:0,0:0:0:0:
164,76,171769,2,0,P|108:64|56:72,1,107.999996704102,0|2,0:0|0:0,0:0:0:0:
108,168,172237,2,2,P|164:180|216:172,1,107.999996704102,8|2,0:2|0:0,0:0:0:0:
232,180,172589,1,0,0:0:0:0:
252,188,172706,6,0,L|264:80,1,107.999996704102,0|2,0:0|0:0,0:0:0:0:
368,48,173175,1,8,0:2:0:0:
448,120,173409,2,2,P|456:192|436:280,1,161.999995056153,2|0,0:3|0:0,0:0:0:0:
448,292,173878,1,2,0:0:0:0:
344,328,174113,2,2,L|236:320,1,107.999996704102,8|2,0:2|0:0,0:0:0:0:
100,336,174581,6,2,B|72:284|72:284|84:172,1,161.999995056153,4|0,0:0|0:0,0:0:0:0:
72,168,175050,2,0,L|180:176,1,107.999996704102,8|2,0:2|0:0,0:0:0:0:
288,156,175519,1,0,0:0:0:0:
380,216,175753,2,0,P|396:160|384:108,1,107.999996704102,2|8,0:0|0:2,0:0:0:0:
292,60,176222,1,2,0:0:0:0:
292,60,176457,6,2,L|128:64,1,161.999995056153,4|0,0:0|0:0,0:0:0:0:
112,56,176925,2,0,B|96:108|96:108|116:160,1,107.999996704102,8|2,0:2|0:0,0:0:0:0:
120,268,177394,1,0,0:0:0:0:
220,256,177629,2,0,B|236:204|236:204|216:152,1,107.999996704102,2|8,0:0|0:2,0:0:0:0:
324,132,178097,1,2,0:0:0:0:
324,132,178332,38,2,L|432:128,1,107.999996704102,0|2,0:0|0:0,0:0:0:0:
472,228,178801,2,2,P|488:280|472:332,1,107.999996704102,8|2,0:2|0:0,0:0:0:0:
376,284,179269,2,2,L|268:288,1,107.999996704102,0|2,0:0|0:0,0:0:0:0:
232,188,179738,2,2,P|216:136|232:84,1,107.999996704102,8|2,0:2|0:0,0:0:0:0:
230,86,180207,70,2,L|64:80,1,161.999995056153,2|0,0:0|0:0,0:0:0:0:
56,92,180676,1,8,0:2:0:0:
24,196,180910,1,2,0:3:0:0:
44,304,181145,1,0,0:0:0:0:
152,284,181379,1,2,0:3:0:0:
132,176,181613,1,8,0:2:0:0:
24,196,181848,1,2,0:0:0:0:
152,284,182082,53,4,0:0:0:0:
260,264,182317,1,0,0:0:0:0:
332,344,182551,1,8,0:0:0:0:
437,318,182786,2,2,P|469:266|473:210,1,107.999996704102,2|0,0:0|3:0,0:0:0:0:
394,130,183254,1,2,0:0:0:0:
274,147,183489,2,0,P|242:199|238:255,2,107.999996704102,8|2|0,0:0|0:0|0:0,0:0:0:0:
192,64,184192,2,2,B|156:56|76:52|120:152|24:152|-12:132,2,215.999993408203,2|2|4,0:0|0:0|3:0,0:0:0:0:
296,104,185364,1,8,0:0:0:0:
404,76,185598,1,2,2:0:0:0:
357,173,185833,6,0,B|365:273|365:273|401:333,1,161.999995056153,4|0,0:0|3:0,0:0:0:0:
387,337,186302,1,8,0:0:0:0:
256,316,186536,2,2,L|132:324,1,107.999996704102,2|0,0:0|3:0,0:0:0:0:
76,240,187005,1,2,0:0:0:0:
128,144,187239,2,0,P|164:156|240:148,1,107.999996704102,8|2,0:0|0:0,0:0:0:0:
188,52,187708,1,0,0:0:0:0:
237,155,187942,2,2,B|208:181|196:280|268:233|260:337|220:361,2,215.999993408203
332,116,189114,2,2,P|340:172|304:232,1,107.999996704102,8|2,0:0|0:0,0:0:0:0:
440,264,189583,6,2,P|468:184|460:96,1,161.999995056153,6|0,0:0|2:0,0:0:0:0:
448,76,190052,1,8,0:0:0:0:
342,134,190286,2,2,L|225:139,1,107.999996704102,2|0,0:0|3:0,0:0:0:0:
178,230,190755,1,2,0:0:0:0:
219,129,190990,2,0,P|228:78|211:20,1,107.999996704102,8|2,0:0|0:0,0:0:0:0:
69,103,191458,2,2,P|57:162|84:263,1,161.999995056153,6|0,0:0|3:0,0:0:0:0:
72,268,191927,2,0,L|185:261,1,107.999996704102,8|2,0:0|0:0,0:0:0:0:
284,296,192396,1,0,3:0:0:0:
384,252,192630,2,0,P|392:196|378:144,2,107.999996704102,2|8|2,1:1|1:1|1:1,0:0:0:0:
224,328,193334,6,2,P|211:275|219:222,1,107.999996704102,4|2,0:0|0:0,0:0:0:0:
300,68,193803,2,2,P|312:120|304:173,1,107.999996704102,8|2,0:0|0:0,0:0:0:0:
116,136,194271,2,2,P|168:123|221:131,1,107.999996704102,2|2,0:0|0:3,0:0:0:0:
396,248,194740,2,0,P|343:260|290:252,1,107.999996704102,10|0,0:0|3:0,0:0:0:0:
256,192,195209,12,2,196615,2:0:0:0:
