osu file format v13

[General]
AudioFilename: Maroon 5 - Moves Like Jagger ft. Christina Aguilera.mp3
AudioLeadIn: 1826
PreviewTime: 45186
Countdown: 0
SampleSet: Soft
StackLeniency: 0.3
Mode: 0
LetterboxInBreaks: 0
WidescreenStoryboard: 1

[Editor]
Bookmarks: 15192,30194,45186,60188,75190,90193,105195,120197,135200,150202,167080,182082,197084
DistanceSpacing: 1
BeatDivisor: 8
GridSize: 4
TimelineZoom: 1.6

[Metadata]
Title:Moves Like Jagger ft. Christina Aguilera
TitleUnicode:Moves Like Jagger ft. Christina Aguilera
Artist:Maroon 5
ArtistUnicode:Maroon 5
Creator:Gero
Version:Jagger
Source:
Tags:Adam Levine Hands All Over Peter Hollens Mac Miller Savannah Outen Tony Asphyxia ezek Gabe DakeDekaane Sekai-nyan -Sekai- Kodora Mystyk MystykAMV mancuso_JM_ mancusojuanmattos XinCrin Irreversible osuplayer111 Andrea
BeatmapID:383192
BeatmapSetID:156371

[Difficulty]
HPDrainRate:7
CircleSize:4
OverallDifficulty:7
ApproachRate:8
SliderMultiplier:1.8
SliderTickRate:2

[Events]
//Background and Video events
0,0,"BG.jpg",0,0
Video,-35,"Video.avi"
//Break Periods
2,135400,149452
//Storyboard Layer 0 (Background)
//Storyboard Layer 1 (Fail)
//Storyboard Layer 2 (Pass)
//Storyboard Layer 3 (Foreground)
Sprite,Foreground,Centre,"SB\1Asphyxia.png",320,240 M,0,-1697,,542,428 S,0,-1697,,0.6159998 F,0,-1697,178,0,1 F,0,178,14240,1,0.9952 F,0,14240,15178,0.9952,0
Sprite,Foreground,Centre,"SB\2ezek.png",320,240 M,0,15180,,542,419 S,0,15180,,0.6586667 F,0,15180,16117,0,1 F,0,16117,29008,1,0.9925293 F,0,29008,30180,0.9925293,0
Sprite,Foreground,Centre,"SB\3Gabe.png",320,240 M,0,30182,,539,414 S,0,30182,,0.68 F,0,30182,30885,0.02933304,1 F,0,30885,44010,1,0.9930962 F,0,44010,45182,0.9930962,0
Sprite,Foreground,Centre,"SB\4DakeDekaane.png",320,240 M,0,45185,,541,423 S,0,45185,,0.5199999 F,0,45185,45770,0,1 F,0,45770,59013,1,0.9965812 F,0,59013,60067,0.9965812,0
Sprite,Foreground,Centre,"SB\5Sekai-nyan.png",320,240 M,0,60187,,544,437 S,0,60187,,0.5093335 F,0,60187,60772,0,1 F,0,60772,74483,1,0.9897436 F,0,74483,75187,0.9897436,0
Sprite,Foreground,Centre,"SB\6Kodora.png",320,240 M,0,75189,,547,421 S,0,75189,,0.6586664 F,0,75189,75657,0,1 F,0,75657,88314,1 F,0,88314,88782,1,0.4239999 F,0,88782,89368,0.4239999 F,0,89368,89485,0.4239999,1 F,0,89485,89720,1,0
Sprite,Foreground,Centre,"SB\7Mystyk.png",320,240 M,0,90192,,538,419 S,0,90192,,0.5946667 F,0,90192,90660,0.06133301,1 F,0,90660,104254,1,0.9879658 F,0,104254,105074,0.9879658,0
Sprite,Foreground,Centre,"SB\8mancuso_JM_.png",320,240 M,0,105077,,550,406 S,0,105077,,0.5200002 F,0,105077,105663,0,1 F,0,105663,119023,1,0.9880546 F,0,119023,119726,0.9880546,0
Sprite,Foreground,Centre,"SB\9XinCrin.png",320,240 M,0,120079,,548,403 S,0,120079,,0.6479999 F,0,120079,120548,0,1 F,0,120548,134493,1,0.9850746 F,0,134493,135197,0.9850746,0
Sprite,Foreground,Centre,"SB\10Irreversible.png",320,240 M,0,150201,,546,419 S,0,150201,,0.5519998 F,0,150201,150669,0,1 F,0,150669,164732,1,0.991453 F,0,164732,165435,0.991453,0
Sprite,Foreground,Centre,"SB\11Gero.png",320,240 M,0,165672,,544,417 S,0,165672,,0.6906666 F,0,165672,167079,0,1 F,0,167079,181141,1,0.9943141 F,0,181141,181961,0.9943141,0
Sprite,Foreground,Centre,"SB\12Andrea.png",320,240 M,0,182081,,548,417 S,0,182081,,0.6479998 F,0,182081,182549,0,1 F,0,182549,195674,1,0.9850428 F,0,195674,197081,0.9850428,0
//Storyboard Sound Samples
//Background Colour Transformations

[TimingPoints]
190,468.82325363338,4,2,1,60,1,0
37685,468.82325363338,4,2,1,60,1,0
44014,-100,4,1,1,30,0,0
45186,-83.3333333333333,4,1,1,60,0,1
59368,-83.3333333333333,4,2,1,20,0,1
60071,-83.3333333333333,4,1,1,60,0,0
60188,-83.3333333333333,4,1,1,60,0,1
75190,-100,4,2,1,60,0,0
89021,-125,4,2,1,60,0,0
89489,-100,4,2,1,60,0,0
101444,-100,4,2,1,40,0,0
104257,-100,4,2,1,60,0,0
105195,-83.3333333333333,4,1,1,60,0,1
120080,-83.3333333333333,4,1,1,60,0,0
120197,-83.3333333333333,4,1,1,60,0,1
135200,-100,4,2,1,30,0,0
150202,-100,4,2,1,60,0,0
155828,-83.3333333333333,4,2,1,60,0,0
165204,-83.3333333333333,4,2,1,40,0,0
165322,-83.3333333333333,4,2,1,60,0,0
167080,-83.3333333333333,4,1,1,60,0,1
181965,-83.3333333333333,4,1,1,60,0,0
182082,-83.3333333333333,4,1,1,60,0,1
197084,-100,4,2,1,60,0,0
197553,-100,4,2,1,50,0,0
198022,-100,4,2,1,40,0,0
198491,-100,4,2,1,30,0,0
198960,-100,4,2,1,20,0,0
199429,-100,4,2,1,10,0,0
199663,-100,4,2,1,5,0,0

[Colours]
Combo1 : 43,255,43
Combo2 : 255,72,164
Combo3 : 255,36,36
Combo4 : 255,255,0
Combo5 : 60,157,255

[HitObjects]
76,75,190,6,0,L|166:80,1,90,2|0,0:0|0:0,0:0:0:0:
202,106,541,1,2,0:0:0:0:
242,85,658,2,0,L|332:80,1,90,0|0,0:0|0:0,0:0:0:0:
421,90,1127,1,2,0:0:0:0:
359,256,1362,1,0,0:0:0:0:
501,54,1596,2,0,P|507:98|491:140,1,90,2|0,0:0|0:0,0:0:0:0:
454,166,1948,1,0,0:0:0:0:
438,208,2065,6,0,P|429:269|499:360,1,180,2|0,0:0|0:0,0:0:0:0:
512,177,2768,2,0,B|464:204|425:184|384:164|333:185,1,180,2|2,0:0|0:0,0:0:0:0:
256,272,3471,1,2,0:0:0:0:
180,360,3706,2,0,L|128:357,1,45,0|0,0:0|0:0,0:0:0:0:
66,322,3940,6,0,P|44:280|48:222,1,90,2|0,0:0|0:0,0:0:0:0:
120,136,4292,1,0,0:0:0:0:
120,136,4409,2,0,P|142:178|138:236,1,90,2|0,0:0|0:0,0:0:0:0:
236,326,4878,2,0,L|249:230,1,90,2|0,0:0|0:0,0:0:0:0:
338,80,5347,1,2,0:0:0:0:
372,162,5581,1,0,0:0:0:0:
372,162,5698,1,0,0:0:0:0:
372,162,5815,6,0,B|420:132|468:146|468:146|510:130|520:88,1,180,2|0,0:0|0:0,0:0:0:0:
346,244,6519,2,0,L|404:42,1,180,2|2,0:0|0:0,0:0:0:0:
282,18,7222,2,0,L|256:104,1,90,0|2,0:0|0:0,0:0:0:0:
169,226,7691,6,0,P|119:241|73:235,1,90,4|0,3:0|0:0,0:0:0:0:
263,154,8159,1,4,3:0:0:0:
166,328,8394,1,0,0:0:0:0:
153,117,8628,2,0,P|142:73|145:26,1,90,4|0,3:0|0:0,0:0:0:0:
72,212,9097,1,4,3:0:0:0:
180,266,9332,2,0,L|187:319,1,45,0|0,0:0|0:0,0:0:0:0:
258,351,9566,6,0,P|310:357|379:264,1,180,4|4,3:0|3:0,0:0:0:0:
453,76,10269,2,0,P|367:84|328:163,1,180,0|0,0:0|0:0,0:0:0:0:
421,162,10972,2,0,P|472:165|513:147,1,90,4|0,3:0|0:0,0:0:0:0:
307,22,11441,5,4,3:0:0:0:
240,82,11676,1,0,0:0:0:0:
156,115,11910,1,4,3:0:0:0:
65,121,12144,2,0,L|18:116,2,45,0|0|4,0:0|0:0|3:0,0:0:0:0:
102,202,12613,1,0,0:0:0:0:
60,282,12848,2,0,L|40:369,1,90,4|0,3:0|0:0,0:0:0:0:
127,365,13199,1,0,0:0:0:0:
127,365,13317,6,0,P|141:281|193:182,1,180,4|4,3:0|3:0,0:0:0:0:
272,192,14020,1,0,0:0:0:0:
316,113,14254,2,0,P|333:68|334:17,1,90,4|0,3:0|0:0,0:0:0:0:
186,206,14723,2,0,P|183:162|166:120,1,90,4|0,3:0|0:0,0:0:0:0:
40,192,15192,5,4,3:0:0:0:
256,28,15661,1,4,3:0:0:0:
472,192,16129,1,4,3:0:0:0:
292,328,16364,6,0,P|288:280|268:244,1,90,0|4,0:0|3:0,0:0:0:0:
180,140,16833,2,0,P|172:196|208:312,1,180,0|0,0:0|0:0,0:0:0:0:
344,324,17536,1,4,3:0:0:0:
384,188,17770,5,0,0:0:0:0:
320,68,18005,1,4,3:0:0:0:
256,188,18239,1,0,0:0:0:0:
192,68,18474,1,4,3:0:0:0:
128,188,18708,2,0,L|97:272,1,90,0|4,0:0|3:0,0:0:0:0:
20,144,19177,2,0,L|52:60,1,90,0|4,0:0|3:0,0:0:0:0:
256,340,19880,5,4,3:0:0:0:
388,312,20114,2,0,P|400:268|432:232,1,90,0|4,0:0|3:0,0:0:0:0:
408,96,20583,2,0,P|360:160|264:192,1,180,0|0,0:0|0:0,0:0:0:0:
276,52,21287,1,4,3:0:0:0:
140,72,21521,6,0,B|100:96|100:96|72:128,1,90,0|4,0:0|3:0,0:0:0:0:
192,192,21990,1,0,0:0:0:0:
72,256,22224,2,0,B|100:288|100:288|140:312,1,90,4|0,3:0|0:0,0:0:0:0:
320,296,22693,6,0,P|372:296|448:328,1,135,4|0,3:0|0:0,0:0:0:0:
464,340,23162,1,4,3:0:0:0:
440,160,23396,1,0,0:0:0:0:
268,92,23631,1,4,3:0:0:0:
250,82,23748,1,0,0:0:0:0:
232,73,23865,2,0,P|186:73|148:92,1,90,0|4,0:0|3:0,0:0:0:0:
80,236,24334,2,0,P|132:244|168:236,1,90,0|4,0:0|3:0,0:0:0:0:
304,260,24803,5,0,0:0:0:0:
424,328,25037,2,0,P|456:288|464:248,1,90,4|0,3:0|0:0,0:0:0:0:
412,80,25506,1,4,3:0:0:0:
392,84,25623,2,0,P|360:124|352:164,1,90,0|0,0:0|0:0,0:0:0:0:
328,200,25975,2,0,P|308:244|276:268,1,90,4|0,3:0|0:0,0:0:0:0:
192,96,26444,5,4,3:0:0:0:
40,192,26678,1,0,0:0:0:0:
192,288,26912,1,4,3:0:0:0:
368,248,27147,2,0,P|412:272|436:304,1,90,0|4,0:0|3:0,0:0:0:0:
368,136,27616,2,0,P|412:112|436:80,1,90,0|4,0:0|3:0,0:0:0:0:
256,64,28084,1,0,0:0:0:0:
256,64,28319,2,0,P|164:56|104:112,1,180,4|4,3:0|3:0,0:0:0:0:
80,292,29022,6,0,P|120:276|144:236,1,90,0|4,0:0|3:0,0:0:0:0:
316,172,29491,2,0,P|276:188|252:228,1,90,0|4,0:0|3:0,0:0:0:0:
412,152,29960,2,0,P|452:136|476:96,1,90,0|4,0:0|3:0,0:0:0:0:
396,68,30429,5,0,0:0:0:0:
396,68,30546,1,0,0:0:0:0:
396,68,30663,1,4,3:0:0:0:
380,240,30897,2,0,P|384:284|408:336,1,90,0|4,0:0|3:0,0:0:0:0:
284,256,31366,2,0,P|252:287|228:339,1,90,0|4,0:0|3:0,0:0:0:0:
228,180,31835,6,0,P|167:174|124:184,1,90,0|4,0:0|3:0,0:0:0:0:
68,232,32304,2,0,B|60:208|60:208|8:156,1,90,0|4,0:0|3:0,0:0:0:0:
84,104,32773,1,0,0:0:0:0:
172,276,33007,1,4,3:0:0:0:
344,192,33242,1,0,0:0:0:0:
260,24,33476,1,4,3:0:0:0:
213,150,33710,6,0,L|264:248,1,90,0|4,0:0|3:0,0:0:0:0:
448,320,34179,2,0,L|397:222,1,90,0|4,0:0|3:0,0:0:0:0:
260,24,34648,2,0,L|311:122,1,90,0|4,0:0|3:0,0:0:0:0:
372,364,35117,5,0,0:0:0:0:
484,220,35351,1,4,3:0:0:0:
448,320,35586,2,0,P|373:276|294:322,1,180
184,364,36289,1,4,3:0:0:0:
104,268,36523,1,0,0:0:0:0:
104,268,36758,2,0,P|95:223|103:179,1,90,4|0,3:0|0:0,0:0:0:0:
196,96,37227,1,4,3:0:0:0:
312,52,37461,1,0,0:0:0:0:
432,96,37685,6,0,L|488:192,1,90,4|0,3:0|0:0,0:0:0:0:
400,288,38153,2,0,L|344:192,1,90,4|0,3:0|0:0,0:0:0:0:
268,132,38622,1,4,3:0:0:0:
156,100,38857,1,0,0:0:0:0:
76,188,39091,1,4,3:0:0:0:
132,288,39325,1,0,0:0:0:0:
156,100,39560,6,0,P|115:68|62:68,1,90,4|0,3:0|0:0,0:0:0:0:
192,208,40029,2,0,P|232:239|285:239,1,90,4|0,3:0|0:0,0:0:0:0:
380,200,40497,2,0,L|404:84,1,90,4|0,3:0|0:0,0:0:0:0:
468,260,40966,2,0,L|444:376,1,90,4|0,3:0|0:0,0:0:0:0:
360,296,41435,5,4,3:0:0:0:
284,352,41669,1,0,0:0:0:0:
284,352,41787,1,0,0:0:0:0:
284,352,41904,2,0,L|172:368,1,90,4|0,3:0|0:0,0:0:0:0:
112,280,42373,2,0,L|116:224,1,45,4|0,3:0|0:0,0:0:0:0:
296,148,42724,2,0,L|292:204,1,45,0|4,0:0|3:0,0:0:0:0:
220,264,43076,1,0,0:0:0:0:
200,120,43310,5,4,3:0:0:0:
296,52,43545,2,0,P|344:64|376:96,1,90,0|4,0:0|3:0,0:0:0:0:
220,264,44014,2,0,L|243:282,2,30,8|0|8,0:0|2:0|0:0,0:0:0:0:
199,250,44248,1,8,0:0:0:0:
180,237,44365,1,8,0:0:0:0:
161,224,44482,1,0,0:0:0:0:
40,160,44717,1,8,0:0:0:0:
88,32,44951,1,8,0:0:0:0:
208,80,45186,6,0,P|244:25|340:43,1,161.999995056153,4|0,0:0|0:0,0:0:0:0:
365,69,45654,1,8,0:0:0:0:
429,192,45889,5,0,0:0:0:0:
290,188,46123,1,2,0:2:0:0:
361,149,46358,2,0,P|370:201|344:247,1,107.999996704102,0|8,0:0|0:0,0:0:0:0:
291,107,46827,2,0,L|504:137,2,215.999993408203,2|2|2,0:2|0:2|0:2,0:0:0:0:
225,192,47999,1,2,0:2:0:0:
182,187,48116,1,0,0:0:0:0:
139,182,48233,1,0,0:0:0:0:
2,146,48467,1,8,0:0:0:0:
99,246,48702,1,0,0:0:0:0:
13,75,48936,6,0,P|70:125|51:200,1,161.999995056153,2|2,0:2|0:2,0:0:0:0:
1,219,49405,1,0,0:0:0:0:
63,353,49639,5,2,0:2:0:0:
192,360,49874,1,2,0:2:0:0:
73,343,50108,1,0,0:0:0:0:
70,202,50343,1,8,0:0:0:0:
83,333,50577,1,0,0:0:0:0:
139,185,50812,1,2,0:2:0:0:
243,318,51046,2,0,P|338:351|400:271,1,215.999993408203,2|2,0:2|0:2,0:0:0:0:
350,150,51749,1,2,0:2:0:0:
333,110,51866,1,0,0:0:0:0:
316,70,51984,5,0,0:0:0:0:
296,231,52218,1,8,0:0:0:0:
445,169,52452,1,0,0:0:0:0:
350,150,52687,2,0,P|268:132|208:180,1,161.999995056153,2|0,0:2|0:0,0:0:0:0:
200,232,53156,1,8,0:0:0:0:
302,339,53390,2,0,L|297:231,1,107.999996704102,0|2,0:0|0:2,0:0:0:0:
196,70,53859,5,0,0:0:0:0:
216,231,54093,1,8,0:0:0:0:
67,169,54328,1,0,0:0:0:0:
162,150,54562,2,0,P|243:133|302:182,1,161.999995056153,2|0,0:2|0:0,0:0:0:0:
313,236,55031,1,8,0:0:0:0:
212,339,55265,2,0,L|216:231,1,107.999996704102,0|2,0:0|0:2,0:0:0:0:
316,70,55734,5,0,0:0:0:0:
445,169,55969,1,8,0:0:0:0:
296,231,56203,1,0,0:0:0:0:
350,150,56437,5,2,0:2:0:0:
402,279,56672,1,2,0:0:0:0:
288,192,56906,1,10,0:0:0:0:
259,328,57141,1,2,0:0:0:0:
212,192,57375,1,2,0:2:0:0:
116,290,57609,1,2,0:0:0:0:
149,151,57844,1,10,0:0:0:0:
14,180,58078,1,2,0:0:0:0:
119,80,58313,6,0,P|192:48|256:96,1,161.999995056153,2|0,0:2|0:0,0:0:0:0:
280,136,58782,1,2,2:2:0:0:
340,276,59016,2,0,P|267:308|203:260,1,161.999995056153,0|0,2:0|0:0,0:0:0:0:
128,164,60188,6,0,P|108:228|152:312,1,161.999995056153,4|0,0:0|0:0,0:0:0:0:
212,348,60657,2,0,L|300:276,1,107.999996704102,8|0,0:0|0:0,0:0:0:0:
324,136,61126,1,2,0:2:0:0:
440,272,61360,1,0,0:0:0:0:
348,160,61594,1,8,0:0:0:0:
461,295,61829,1,0,0:0:0:0:
332,60,62063,6,0,P|276:76|264:180,1,161.999995056153,2|0,0:2|0:0,0:0:0:0:
188,192,62532,2,0,L|72:192,1,107.999996704102,8|0,0:0|0:0,0:0:0:0:
176,284,63001,2,0,L|296:284,1,107.999996704102,2|0,0:2|0:0,0:0:0:0:
424,252,63470,2,0,B|448:200|420:148|420:148|396:96|428:44,1,215.999993408203,8|2,0:0|0:2,0:0:0:0:
344,208,64173,5,0,0:0:0:0:
500,104,64407,1,8,0:0:0:0:
344,208,64642,1,2,0:2:0:0:
196,104,64876,2,0,P|148:128|112:192,1,107.999996704102,2|0,0:2|0:0,0:0:0:0:
265,275,65345,2,0,P|313:251|344:208,1,107.999996704102,8|0,0:0|0:0,0:0:0:0:
104,264,65814,6,0,P|40:228|24:184,1,107.999996704102,2|0,0:2|0:0,0:0:0:0:
352,120,66283,2,0,P|416:156|432:200,1,107.999996704102,8|0,0:0|0:0,0:0:0:0:
265,275,66752,1,2,0:2:0:0:
256,112,66986,1,0,0:0:0:0:
332,320,67220,2,0,P|344:256|264:196,1,161.999995056153,8|0,0:0|0:0,0:0:0:0:
265,275,67689,6,0,P|209:247|193:199,1,107.999996704102,2|0,0:2|0:0,0:0:0:0:
256,112,68158,2,0,L|344:48,1,107.999996704102,8|0,0:0|0:0,0:0:0:0:
280,140,68627,2,0,L|368:76,1,107.999996704102,2|0,0:2|0:0,0:0:0:0:
472,188,69096,5,8,0:0:0:0:
396,304,69330,1,0,0:0:0:0:
472,188,69564,1,2,0:2:0:0:
396,304,69799,1,0,0:0:0:0:
200,188,70033,2,0,P|144:152|76:156,1,107.999996704102,8|0,0:0|0:0,0:0:0:0:
188,216,70502,2,0,P|132:180|64:184,1,107.999996704102,2|0,0:2|0:0,0:0:0:0:
212,296,70971,6,0,P|260:260|272:204,1,107.999996704102,8|0,0:0|0:0,0:0:0:0:
264,108,71440,1,2,0:2:0:0:
160,128,71674,2,0,P|116:96|96:48,1,107.999996704102,2|10,0:0|0:0,0:0:0:0:
268,144,72143,2,0,P|312:176|332:224,1,107.999996704102,0|2,0:0|0:2,0:0:0:0:
380,328,72612,1,2,0:0:0:0:
192,336,72846,1,10,0:0:0:0:
348,328,73081,1,0,0:0:0:0:
160,340,73315,5,2,0:2:0:0:
256,232,73549,1,0,0:0:0:0:
160,340,73784,2,0,P|116:296|104:244,1,107.999996704102,8|0,0:0|0:0,0:0:0:0:
148,156,74253,2,0,P|86:148|32:176,1,107.999996704102,2|0,0:2|0:0,0:0:0:0:
256,232,74722,2,0,P|280:184|275:131,1,107.999996704102,8|0,0:0|0:0,0:0:0:0:
224,56,75190,5,4,0:0:0:0:
140,90,75659,1,4,3:0:0:0:
56,122,76128,1,4,3:0:0:0:
50,215,76362,6,0,P|75:263|132:292,1,90,0|4,0:0|3:0,0:0:0:0:
191,328,76831,1,0,0:0:0:0:
285,296,77066,2,0,B|340:298|370:329|370:329|380:317|418:303,2,135,4|0|0,3:0|0:0|0:0,0:0:0:0:
204,238,78003,2,0,P|178:202|166:131,1,90,4|0,3:0|0:0,0:0:0:0:
264,148,78472,2,0,P|259:103|284:35,1,90,4|0,3:0|0:0,0:0:0:0:
360,18,78941,6,0,L|499:29,1,135,4|2,3:0|0:0,0:0:0:0:
396,140,79644,2,0,L|257:129,1,135,2|2,0:0|0:0,0:0:0:0:
113,114,80347,1,4,3:0:0:0:
31,227,80582,5,0,0:0:0:0:
31,227,80699,1,0,0:0:0:0:
31,227,80816,2,0,P|97:265|178:229,1,135,4|2,3:0|0:0,0:0:0:0:
281,180,81519,2,0,P|349:172|404:207,2,135,2|2|4,0:0|0:0|3:0,0:0:0:0:
328,264,82457,5,0,0:0:0:0:
328,264,82574,1,0,0:0:0:0:
328,264,82692,2,0,L|364:106,1,135,4|2,3:0|0:0,0:0:0:0:
274,9,83395,2,0,L|238:167,2,135,2|2|4,0:0|0:0|3:0,0:0:0:0:
357,132,84332,5,0,0:0:0:0:
357,132,84450,1,0,0:0:0:0:
357,132,84567,2,0,P|429:134|476:87,1,135,4|2,3:0|0:0,0:0:0:0:
397,221,85270,2,0,P|366:287|390:366,2,135,2|2|4,0:0|0:0|3:0,0:0:0:0:
460,297,86208,1,0,0:0:0:0:
282,254,86442,5,4,3:0:0:0:
266,165,86677,1,0,0:0:0:0:
446,173,86911,5,4,3:0:0:0:
418,258,87145,1,0,0:0:0:0:
356,181,87380,5,4,3:0:0:0:
367,91,87614,1,0,0:0:0:0:
282,254,87849,5,4,3:0:0:0:
264,342,88083,1,0,0:0:0:0:
287,125,88317,5,4,3:0:0:0:
282,131,89021,6,0,C|264:127|251:139|233:135|220:147|208:144,1,72,0|0,0:0|0:0,0:0:0:0:
110,114,89489,6,0,L|104:84,4,22.5,2|2|2|2|10,0:0|0:0|0:0|0:0|0:0,0:0:0:0:
48,124,90193,6,0,P|113:121|161:75,1,135,6|0,0:0|0:0,0:0:0:0:
180,36,90662,1,4,3:0:0:0:
272,40,90896,2,0,P|301:73|342:92,1,90,0|4,0:0|3:0,0:0:0:0:
383,107,91248,2,0,P|397:173|380:238,1,135,0|4,0:0|3:0,0:0:0:0:
332,312,91834,1,0,0:0:0:0:
255,263,92068,2,0,P|193:204|109:223,1,180,4|4,3:0|3:0,0:0:0:0:
48,296,92771,5,0,0:0:0:0:
116,352,93006,1,4,3:0:0:0:
172,280,93240,1,0,0:0:0:0:
109,223,93474,1,4,3:0:0:0:
24,192,93709,1,0,0:0:0:0:
43,104,93943,6,0,P|86:52|151:38,1,135,4|0,3:0|0:0,0:0:0:0:
196,44,94412,1,4,3:0:0:0:
280,72,94647,2,0,P|317:96|360:107,1,90,0|4,0:0|3:0,0:0:0:0:
404,120,94998,2,0,L|415:209,1,90,0|0,0:0|0:0,0:0:0:0:
400,252,95350,1,4,3:0:0:0:
312,248,95584,2,0,P|320:291|349:325,2,90,0|4|0,0:0|3:0|0:0,0:0:0:0:
316,156,96287,1,4,3:0:0:0:
352,72,96522,5,0,0:0:0:0:
264,80,96756,1,4,3:0:0:0:
176,92,96991,1,0,0:0:0:0:
88,108,97225,1,4,3:0:0:0:
100,196,97459,1,0,0:0:0:0:
120,284,97694,6,0,P|148:317|191:331,1,90,8|8,0:0|0:0,0:0:0:0:
272,292,98163,1,8,0:0:0:0:
196,244,98397,1,8,0:0:0:0:
184,156,98632,6,0,L|271:134,1,90,8|8,0:0|0:0,0:0:0:0:
360,112,99100,1,8,0:0:0:0:
448,88,99335,1,8,0:0:0:0:
464,176,99569,6,0,P|465:219|446:261,1,90,8|8,0:0|0:0,0:0:0:0:
360,288,100038,1,8,0:0:0:0:
376,200,100272,1,8,0:0:0:0:
360,112,100507,6,0,P|332:76|294:53,1,90,8|8,0:0|0:0,0:0:0:0:
204,52,100976,1,8,0:0:0:0:
136,112,101210,1,8,0:0:0:0:
80,184,101444,5,8,0:1:0:0:
115,211,101562,1,8,0:1:0:0:
157,226,101679,1,8,0:1:0:0:
202,226,101796,1,8,0:1:0:0:
245,213,101913,5,8,0:1:0:0:
284,190,102030,1,8,0:1:0:0:
322,167,102148,1,8,0:1:0:0:
364,151,102265,1,8,0:1:0:0:
409,146,102382,5,8,0:1:0:0:
452,157,102499,1,8,0:1:0:0:
488,184,102617,1,8,0:1:0:0:
500,228,102734,1,8,0:1:0:0:
505,272,102851,5,8,0:1:0:0:
490,314,102968,1,8,0:1:0:0:
459,345,103085,1,8,0:1:0:0:
416,359,103203,1,8,0:1:0:0:
372,364,103320,6,0,L|349:362,7,22.5,8|8|8|8|8|8|8|8,0:1|0:1|0:1|0:1|0:1|0:1|0:1|0:1,0:0:0:0:
332,348,103789,2,0,L|309:346,3,22.5,8|8|8|8,0:0|0:0|0:0|0:0,0:0:0:0:
292,328,104023,2,0,L|260:324,2,30,0|0|0,0:0|0:0|0:0,0:0:0:0:
192,316,104257,5,8,1:1:0:0:
148,304,104375,1,8,1:1:0:0:
108,280,104492,1,0,1:0:0:0:
176,220,104726,1,8,1:1:0:0:
88,196,104961,1,8,1:1:0:0:
64,72,105195,6,0,B|124:64|164:96|164:96|208:62,1,161.999995056153,4|0,0:0|0:0,0:0:0:0:
288,52,105664,2,0,P|296:104|328:148,1,107.999996704102,8|0,0:2|0:0,0:0:0:0:
404,224,106133,2,0,P|435:267|444:320,2,107.999996704102,2|0|8,0:2|0:0|0:0,0:0:0:0:
296,240,106836,1,0,0:0:0:0:
280,260,106953,1,0,0:0:0:0:
264,280,107070,2,0,L|188:204,1,107.999996704102,2|0,0:2|0:0,0:0:0:0:
24,192,107539,2,0,L|100:268,1,107.999996704102,8|0,0:0|0:0,0:0:0:0:
156,360,108008,1,2,0:2:0:0:
156,360,108125,1,0,0:0:0:0:
156,360,108242,1,0,0:0:0:0:
264,355,108477,2,0,P|302:319|354:307,1,107.999996704102,8|0,0:0|0:0,0:0:0:0:
512,311,108946,6,0,P|528:232|512:153,1,161.999995056153,2|2,0:2|0:2,0:0:0:0:
435,116,109414,2,0,B|392:144|392:144|335:140,1,107.999996704102,8|0,0:0|0:0,0:0:0:0:
232,96,109883,1,2,0:2:0:0:
216,80,110118,1,0,0:0:0:0:
52,84,110352,1,8,0:0:0:0:
68,100,110587,1,0,0:0:0:0:
112,256,110821,1,2,0:2:0:0:
96,240,111055,1,0,0:0:0:0:
240,324,111290,1,8,0:0:0:0:
256,340,111524,2,0,P|358:349|416:263,1,215.999993408203,2|2,0:2|0:2,0:0:0:0:
419,152,112227,2,0,P|423:98|412:45,1,107.999996704102,8|0,0:0|0:0,0:0:0:0:
231,28,112696,6,0,P|158:57|80:38,1,161.999995056153,2|0,0:2|0:0,0:0:0:0:
4,28,113165,2,0,L|15:135,1,107.999996704102,8|0,0:0|0:0,0:0:0:0:
8,244,113634,1,2,0:2:0:0:
28,348,113868,1,0,0:0:0:0:
184,264,114103,1,8,0:0:0:0:
164,160,114337,1,0,0:0:0:0:
288,32,114572,6,0,B|336:32|376:56|376:56|441:29,1,161.999995056153,2|0,0:2|0:0,0:0:0:0:
512,44,115040,2,0,L|500:151,1,107.999996704102,8|0,0:0|0:0,0:0:0:0:
428,232,115509,1,2,0:2:0:0:
396,336,115744,1,0,0:0:0:0:
224,300,115978,1,8,0:0:0:0:
256,196,116212,1,0,0:0:0:0:
244,88,116447,6,0,L|137:84,1,107.999996704102,2|2,0:2|0:0,0:0:0:0:
120,256,116916,2,0,L|228:259,1,107.999996704102,10|0,0:0|0:0,0:0:0:0:
236,171,117384,2,0,L|128:168,1,107.999996704102,2|2,0:2|0:0,0:0:0:0:
117,348,117853,2,0,L|224:352,1,107.999996704102,10|0,0:0|0:0,0:0:0:0:
472,336,118322,6,0,P|500:233|462:134,1,215.999993408203,2|2,0:2|2:2,0:0:0:0:
408,24,119025,2,0,P|317:76|217:44,1,215.999993408203,0|2,2:0|2:0,0:0:0:0:
217,44,119729,1,2,2:0:0:0:
12,108,120197,6,0,B|56:132|96:104|96:104|116:136|156:144,1,161.999995056153,4|0,0:0|0:0,0:0:0:0:
156,124,120666,2,0,P|136:180|144:228,1,107.999996704102,8|0,0:0|0:0,0:0:0:0:
275,346,121135,2,0,P|294:296|288:244,1,107.999996704102,2|0,0:2|0:0,0:0:0:0:
172,124,121604,2,0,P|152:180|160:228,1,107.999996704102,8|0,0:0|0:0,0:0:0:0:
291,346,122073,5,2,0:2:0:0:
392,312,122307,1,0,0:0:0:0:
396,200,122542,2,0,P|388:144|408:96,1,107.999996704102,8|0,0:0|0:0,0:0:0:0:
492,32,123010,1,2,0:2:0:0:
312,44,123245,2,0,L|204:56,1,107.999996704102,0|8,0:0|0:0,0:0:0:0:
96,44,123714,1,0,0:0:0:0:
109,253,123948,6,0,P|124:202|108:152,1,107.999996704102,2|0,0:2|0:0,0:0:0:0:
304,300,124417,2,0,B|276:308|256:324|256:324|232:308|208:300,1,107.999996704102,8|0,0:0|0:0,0:0:0:0:
403,152,124886,2,0,P|387:202|402:253,1,107.999996704102,2|0,0:2|0:0,0:0:0:0:
484,328,125354,1,8,0:0:0:0:
484,328,125589,1,0,0:0:0:0:
403,152,125823,6,0,L|184:144,1,215.999993408203,2|8,0:2|0:0,0:0:0:0:
104,76,126527,1,0,0:0:0:0:
52,172,126761,2,0,P|28:220|32:272,1,107.999996704102,2|0,0:2|0:0,0:0:0:0:
192,240,127230,1,8,0:0:0:0:
308,352,127464,1,0,0:0:0:0:
440,256,127699,6,0,P|464:180|416:116,1,161.999995056153,2|0,0:2|0:0,0:0:0:0:
404,128,128167,2,0,L|296:136,1,107.999996704102,8|0,0:0|0:0,0:0:0:0:
188,156,128636,2,0,P|156:112|152:60,1,107.999996704102,2|0,0:2|0:0,0:0:0:0:
136,168,129105,2,0,P|112:120|112:64,1,107.999996704102,8|0,0:0|0:0,0:0:0:0:
280,164,129574,6,0,P|308:240|288:320,1,161.999995056153,2|0,0:2|0:0,0:0:0:0:
276,324,130043,2,0,L|168:332,1,107.999996704102,8|0,0:0|0:0,0:0:0:0:
68,292,130512,2,0,P|48:244|56:188,1,107.999996704102,2|0,0:2|0:0,0:0:0:0:
140,120,130980,1,8,0:0:0:0:
68,40,131215,1,0,0:0:0:0:
228,68,131449,6,0,P|280:72|336:48,1,107.999996704102,2|2,0:2|0:0,0:0:0:0:
472,36,131918,1,10,0:0:0:0:
400,156,132152,1,0,0:0:0:0:
496,256,132387,1,2,0:2:0:0:
380,336,132621,2,0,L|268:340,1,107.999996704102,2|10,0:0|0:0,0:0:0:0:
180,232,133090,1,0,0:0:0:0:
76,256,133324,6,0,P|96:164|201:126,1,215.999993408203,2|8,0:2|0:0,0:0:0:0:
408,189,134028,2,0,P|355:195|304:180,1,107.999996704102,0|2,0:0|0:2,0:0:0:0:
296,72,134497,1,0,0:0:0:0:
400,44,134731,2,0,P|453:37|504:53,1,107.999996704102,8|0,0:0|0:0,0:0:0:0:
500,144,135200,5,2,0:0:0:0:
25,300,150202,6,0,B|48:252|24:208|24:208|40:200|49:179,1,135,4|0,0:0|0:0,0:0:0:0:
76,176,150671,2,0,L|166:138,1,90,8|2,0:0|0:0,0:0:0:0:
228,248,151140,2,0,L|327:268,1,90,4|2,3:0|0:0,0:0:0:0:
438,255,151609,2,0,P|474:206|457:148,1,90,8|2,0:0|0:0,0:0:0:0:
373,95,152077,2,0,L|259:143,1,90,4|2,3:0|0:0,0:0:0:0:
260,144,152429,1,0,0:0:0:0:
228,152,152546,6,0,P|189:143|153:71,1,90,8|2,0:0|0:0,0:0:0:0:
256,36,153015,1,4,3:0:0:0:
373,95,153249,1,2,0:0:0:0:
260,144,153484,2,0,L|244:292,1,135,8|0,0:0|0:0,0:0:0:0:
244,304,153953,6,0,P|281:331|330:336,1,90,4|2,3:0|0:0,0:0:0:0:
392,300,154304,1,0,0:0:0:0:
392,300,154421,1,8,0:0:0:0:
260,144,154656,1,2,0:0:0:0:
72,228,154890,2,0,P|46:173|57:130,1,90,4|2,3:0|0:0,0:0:0:0:
98,45,155359,2,0,B|128:3|128:3|137:83|177:105,1,135,8|0,0:0|0:0,0:0:0:0:
168,106,155828,6,0,P|262:164|361:100,1,215.999993408203,4|8,3:0|0:0,0:0:0:0:
168,106,156531,1,2,0:0:0:0:
347,121,156766,1,4,3:0:0:0:
168,106,157000,1,2,0:0:0:0:
347,120,157234,2,0,L|232:164,1,107.999996704102,8|2,0:0|0:0,0:0:0:0:
168,106,157703,6,0,L|269:64,1,107.999996704102,4|2,3:0|0:0,0:0:0:0:
332,40,158055,1,0,0:0:0:0:
332,40,158172,1,0,0:0:0:0:
424,192,158406,1,2,0:0:0:0:
412,220,158524,1,0,0:0:0:0:
400,248,158641,2,0,B|428:328|428:328|410:365,1,107.999996704102,4|2,3:0|0:0,0:0:0:0:
300,312,159110,1,8,0:0:0:0:
168,360,159344,1,2,0:0:0:0:
300,312,159579,6,0,L|193:326,1,107.999996704102,4|2,3:0|0:0,0:0:0:0:
80,280,159930,1,0,0:0:0:0:
80,280,160047,2,0,P|55:198|70:163,1,107.999996704102,8|2,0:0|0:0,0:0:0:0:
124,100,160399,1,0,0:0:0:0:
152,112,160516,2,0,P|177:194|162:229,1,107.999996704102,4|2,3:0|0:0,0:0:0:0:
80,280,160985,1,8,0:0:0:0:
256,184,161219,1,2,0:0:0:0:
116,88,161454,5,4,3:0:0:0:
256,168,161688,1,2,0:0:0:0:
396,88,161923,5,8,0:0:0:0:
256,184,162157,1,2,0:0:0:0:
116,72,162391,5,4,3:0:0:0:
256,196,162626,1,2,0:0:0:0:
396,56,162860,5,8,0:0:0:0:
256,212,163095,1,2,0:0:0:0:
116,72,163329,6,0,L|344:108,1,215.999993408203,4|8,3:0|0:0,0:0:0:0:
448,192,164032,2,0,B|456:288|376:308|376:308|352:356|396:412,1,215.999993408203,2|2,0:0|0:0,0:0:0:0:
256,260,164736,1,8,0:0:0:0:
139,371,164970,1,2,0:0:0:0:
373,371,165204,5,4,0:0:0:0:
228,32,167080,6,0,B|160:32|160:32|109:35|89:84,1,161.999995056153,4|0,0:0|0:0,0:0:0:0:
160,104,167549,2,0,L|273:104,1,107.999996704102,8|0,0:0|0:0,0:0:0:0:
368,148,168017,1,2,0:2:0:0:
464,200,168252,1,0,0:0:0:0:
388,276,168486,2,0,P|375:328|388:380,1,107.999996704102,8|0,0:0|0:0,0:0:0:0:
464,200,168955,6,0,P|477:148|464:96,1,107.999996704102,2|0,0:2|0:0,0:0:0:0:
444,80,169307,1,0,0:0:0:0:
420,68,169424,1,8,0:0:0:0:
324,20,169658,2,0,L|100:20,1,215.999993408203,2|2,0:2|0:2,0:0:0:0:
28,92,170361,1,8,0:0:0:0:
88,180,170596,1,0,0:0:0:0:
192,320,170830,6,0,P|256:362|320:320,1,161.999995056153,2|0,0:2|0:0,0:0:0:0:
359,257,171299,2,0,L|256:288,1,107.999996704102,8|0,0:0|0:0,0:0:0:0:
280,184,171768,2,0,L|383:153,1,107.999996704102,2|0,0:2|0:0,0:0:0:0:
459,76,172237,1,8,0:0:0:0:
359,257,172471,1,0,0:0:0:0:
213,111,172706,5,2,0:2:0:0:
136,34,172940,1,0,0:0:0:0:
116,53,173057,1,0,0:0:0:0:
96,72,173174,1,8,0:0:0:0:
19,148,173409,2,0,B|19:256|91:256|91:348,1,215.999993408203,2|2,0:2|0:2,0:0:0:0:
200,364,174112,2,0,L|308:372,1,107.999996704102,8|0,0:0|0:0,0:0:0:0:
492,72,174581,6,0,L|315:59,1,161.999995056153,2|0,0:2|0:0,0:0:0:0:
256,76,175050,1,8,0:0:0:0:
168,140,175284,2,0,P|156:192|168:244,1,107.999996704102,0|2,0:0|0:2,0:0:0:0:
256,192,175753,1,0,0:0:0:0:
344,140,175987,2,0,P|356:192|344:244,1,107.999996704102,8|0,0:0|0:0,0:0:0:0:
256,320,176456,6,0,L|92:344,1,161.999995056153,2|0,0:2|0:0,0:0:0:0:
56,280,176925,1,8,0:0:0:0:
4,188,177159,2,0,B|-11:136|-11:136|4:84,1,107.999996704102,0|2,0:0|0:2,0:0:0:0:
88,16,177628,1,0,0:0:0:0:
136,172,177863,1,8,0:0:0:0:
4,84,178097,1,0,0:0:0:0:
168,76,178331,5,2,0:2:0:0:
40,176,178566,1,2,0:0:0:0:
52,200,178683,1,0,0:0:0:0:
64,224,178800,1,10,0:0:0:0:
144,300,179035,1,0,0:0:0:0:
218,378,179269,2,0,P|278:378|318:350,1,107.999996704102,2|2,0:2|0:0,0:0:0:0:
242,274,179738,2,0,P|182:274|142:302,1,107.999996704102,10|0,0:0|0:0,0:0:0:0:
316,352,180207,5,2,0:2:0:0:
420,324,180441,1,0,0:0:0:0:
444,316,180558,1,0,0:0:0:0:
468,308,180676,2,0,L|480:200,1,107.999996704102,8|0,0:0|0:0,0:0:0:0:
404,44,181144,1,2,0:2:0:0:
380,52,181262,1,0,0:0:0:0:
356,60,181379,2,0,L|344:168,1,107.999996704102,0|8,0:0|0:0,0:0:0:0:
316,352,181848,1,0,0:0:0:0:
468,308,182082,5,4,0:0:0:0:
468,199,182316,1,0,0:0:0:0:
448,179,182434,1,0,0:0:0:0:
428,159,182551,2,0,P|372:159|328:131,1,107.999996704102,8|0,0:0|0:0,0:0:0:0:
84,159,183020,2,0,P|140:159|184:131,1,107.999996704102,2|0,0:2|0:0,0:0:0:0:
256,60,183489,1,8,0:0:0:0:
256,272,183723,6,0,L|256:332,2,53.9999983520508,0|0|2,0:0|0:0|0:2,0:0:0:0:
364,272,184192,1,0,0:0:0:0:
256,184,184426,1,8,0:0:0:0:
148,272,184661,2,0,P|76:192|76:140,1,161.999995056153,2|0,0:2|0:0,0:0:0:0:
96,64,185129,2,0,P|140:96|156:152,1,107.999996704102,2|8,0:2|0:0,0:0:0:0:
256,60,185598,1,0,0:0:0:0:
364,272,185833,6,0,P|436:192|436:140,1,161.999995056153,2|0,0:2|0:0,0:0:0:0:
416,64,186301,2,0,P|372:96|356:152,1,107.999996704102,8|0,0:0|0:0,0:0:0:0:
256,184,186770,1,2,0:2:0:0:
256,292,187005,1,0,0:0:0:0:
236,304,187122,1,0,0:0:0:0:
216,316,187239,2,0,B|160:316|160:316|116:348,1,107.999996704102,8|0,0:0|0:0,0:0:0:0:
20,192,187708,6,0,B|76:192|76:192|120:160,1,107.999996704102,2|0,0:2|0:0,0:0:0:0:
200,92,188177,1,8,0:0:0:0:
288,28,188411,2,0,P|364:28|432:76,1,161.999995056153,2|0,0:2|0:0,0:0:0:0:
504,112,188880,2,0,P|468:152|416:152,1,107.999996704102,2|8,0:2|0:0,0:0:0:0:
328,212,189349,1,0,0:0:0:0:
256,292,189583,5,2,0:2:0:0:
184,212,189818,1,0,0:0:0:0:
184,212,189935,1,0,0:0:0:0:
184,212,190052,2,0,B|184:156|184:156|156:112,1,107.999996704102,8|0,0:0|0:0,0:0:0:0:
256,8,190521,2,0,L|256:116,1,107.999996704102,2|0,0:2|0:0,0:0:0:0:
328,212,190990,2,0,B|328:156|328:156|356:112,1,107.999996704102,8|0,0:0|0:0,0:0:0:0:
256,292,191459,5,2,0:2:0:0:
160,340,191693,1,0,0:0:0:0:
160,340,191810,1,0,0:0:0:0:
160,340,191927,2,0,P|104:340|60:312,1,107.999996704102,8|0,0:0|0:0,0:0:0:0:
256,292,192396,2,0,L|256:184,1,107.999996704102,2|0,0:2|0:0,0:0:0:0:
352,340,192865,2,0,P|408:340|452:312,1,107.999996704102,8|0,0:0|0:0,0:0:0:0:
496,60,193334,5,2,0:2:0:0:
400,112,193568,1,2,0:0:0:0:
400,112,193685,1,0,0:0:0:0:
400,112,193803,2,0,L|320:32,1,107.999996704102,10|0,0:0|0:0,0:0:0:0:
112,272,194271,2,0,L|192:352,1,107.999996704102,2|2,0:2|0:0,0:0:0:0:
188,35,194740,2,0,L|112:112,1,107.999996704102,10|0,0:0|0:0,0:0:0:0:
323,348,195209,2,0,L|400:272,1,107.999996704102,2|0,0:2|0:0,0:0:0:0:
256,108,195678,5,8,0:0:0:0:
196,196,195912,2,0,B|256:250|256:250|316:196,2,161.999995056153,0|2|8,0:0|0:2|0:0,0:0:0:0:
256,108,196850,1,0,0:0:0:0:
256,348,197084,1,2,0:0:0:0:
256,192,197202,12,2,199663,0:0:0:0:
