osu file format v13

[General]
AudioFilename: Maroon 5 - Moves Like Jagger ft. Christina Aguilera.mp3
AudioLeadIn: 1826
PreviewTime: 45186
Countdown: 0
SampleSet: Soft
StackLeniency: 0.3
Mode: 0
LetterboxInBreaks: 0
WidescreenStoryboard: 1

[Editor]
Bookmarks: 190,135200,150202,197084
DistanceSpacing: 1
BeatDivisor: 8
GridSize: 4
TimelineZoom: 1.6

[Metadata]
Title:Moves Like Jagger ft. Christina Aguilera
TitleUnicode:Moves Like Jagger ft. Christina Aguilera
Artist:Maroon 5
ArtistUnicode:Maroon 5
Creator:Gero
Version:Hard
Source:
Tags:Adam Levine Hands All Over Peter Hollens Mac Miller Savannah Outen Tony Asphyxia ezek Gabe DakeDekaane Sekai-nyan -Sekai- Kodora Mystyk MystykAMV mancuso_JM_ mancusojuanmattos XinCrin Irreversible osuplayer111 Andrea
BeatmapID:383191
BeatmapSetID:156371

[Difficulty]
HPDrainRate:6
CircleSize:4
OverallDifficulty:6
ApproachRate:7
SliderMultiplier:1.6
SliderTickRate:2

[Events]
//Background and Video events
0,0,"BG.jpg",0,0
Video,-35,"Video.avi"
//Break Periods
2,135400,149302
//Storyboard Layer 0 (Background)
//Storyboard Layer 1 (Fail)
//Storyboard Layer 2 (Pass)
//Storyboard Layer 3 (Foreground)
//Storyboard Sound Samples
//Background Colour Transformations

[TimingPoints]
190,468.82325363338,4,2,1,60,1,0
37685,468.82325363338,4,2,1,60,1,0
45186,-100,4,1,1,60,0,1
59250,-100,4,2,1,40,0,1
60071,-100,4,2,1,40,0,0
60188,-100,4,1,1,60,0,1
75190,-100,4,2,1,60,0,0
101444,-100,4,2,1,40,0,0
104257,-100,4,2,1,60,0,0
105195,-100,4,1,1,60,0,1
119260,-100,4,2,1,40,0,1
120080,-100,4,2,1,40,0,0
120197,-100,4,1,1,60,0,1
135200,-100,4,2,1,30,0,0
150202,-100,4,2,1,60,0,0
165204,-100,4,2,1,40,0,0
165322,-100,4,2,1,60,0,0
167080,-100,4,1,1,60,0,1
181965,-100,4,1,1,60,0,0
182082,-100,4,1,1,60,0,1
197084,-100,4,2,1,60,0,0
197553,-100,4,2,1,50,0,0
198022,-100,4,2,1,40,0,0
198491,-100,4,2,1,30,0,0
198960,-100,4,2,1,20,0,0
199429,-100,4,2,1,10,0,0
199663,-100,4,2,1,5,0,0

[Colours]
Combo1 : 43,255,43
Combo2 : 255,72,164
Combo3 : 255,36,36
Combo4 : 255,255,0
Combo5 : 60,157,255

[HitObjects]
208,64,190,6,0,P|256:34|304:64,2,120,2|2|0,0:0|0:0|0:0,0:0:0:0:
188,140,1127,2,0,B|216:168|216:168|216:212,1,80,2|0,0:0|0:0,0:0:0:0:
296,208,1596,2,0,B|296:167|296:167|324:139,1,80,2|0,0:0|0:0,0:0:0:0:
376,200,2065,6,0,L|376:72,2,120,2|2|2,0:0|0:0|0:0,0:0:0:0:
440,248,3002,2,0,L|440:332,1,80,0|2,0:0|0:0,0:0:0:0:
368,364,3471,2,0,P|296:364|264:332,1,120,2|0,0:0|0:0,0:0:0:0:
228,316,3940,5,2,0:0:0:0:
256,236,4174,1,0,0:0:0:0:
296,168,4409,2,0,P|296:128|320:96,2,80,2|0|2,0:0|0:0|0:0,0:0:0:0:
256,236,5112,1,0,0:0:0:0:
216,168,5347,2,0,P|216:128|192:96,1,80,2|0,0:0|0:0,0:0:0:0:
112,96,5815,6,0,L|204:12,2,120,2|2|2,0:0|0:0|0:0,0:0:0:0:
116,176,6753,2,0,L|56:228,1,80,0|2,0:0|0:0,0:0:0:0:
60,328,7222,2,0,L|120:276,1,80,0|2,0:0|0:0,0:0:0:0:
196,248,7691,6,0,B|236:244|256:291|256:291|276:244|316:248,1,160,4|4,3:0|3:0,0:0:0:0:
256,192,8394,1,0,0:0:0:0:
196,136,8628,2,0,B|236:140|256:93|256:93|276:140|316:136,1,160,4|4,3:0|3:0,0:0:0:0:
376,192,9332,1,0,0:0:0:0:
436,244,9566,6,0,P|456:300|436:356,2,120,4|4|4,3:0|3:0|3:0,0:0:0:0:
376,192,10504,2,0,L|460:164,1,80,4|0,3:0|0:0,0:0:0:0:
440,88,10972,2,0,L|356:116,1,80,4|0,3:0|0:0,0:0:0:0:
316,48,11441,6,0,L|432:8,2,120,4|4|4,3:0|3:0|3:0,0:0:0:0:
256,100,12379,2,0,B|248:136|248:136|256:180,1,80,4|0,3:0|0:0,0:0:0:0:
219,249,12848,2,0,B|227:285|227:285|219:329,1,80,4|0,3:0|0:0,0:0:0:0:
159,380,13317,6,0,L|283:380,2,120,4|4|4,3:0|3:0|3:0,0:0:0:0:
79,380,14254,2,0,P|45:380|6:354,1,80,4|0,3:0|0:0,0:0:0:0:
67,301,14723,2,0,B|96:272|96:272|96:228,1,80,4|0,3:0|0:0,0:0:0:0:
172,208,15192,6,0,P|92:208|92:140,2,160,4|4|4,3:0|3:0|3:0,0:0:0:0:
256,176,16364,1,0,0:0:0:0:
340,208,16598,2,0,P|420:208|420:140,2,160,4|4|4,3:0|3:0|3:0,0:0:0:0:
256,176,17770,1,0,0:0:0:0:
172,208,18005,6,0,B|160:247|160:247|170:288,1,80,4|0,3:0|0:0,0:0:0:0:
90,349,18474,2,0,B|100:311|100:311|88:272,1,80,4|0,3:0|0:0,0:0:0:0:
17,316,18942,2,0,L|65:159,2,160,4|4|4,3:0|3:0|3:0,0:0:0:0:
90,349,20114,1,0,0:0:0:0:
168,368,20349,6,0,P|208:368|240:344,1,80,4|0,3:0|0:0,0:0:0:0:
320,364,20818,2,0,L|180:284,1,160,4|4,3:0|3:0,0:0:0:0:
144,216,21521,1,0,0:0:0:0:
161,139,21755,2,0,P|121:139|88:160,1,80,4|0,3:0|0:0,0:0:0:0:
144,216,22224,2,0,P|184:216|218:196,1,80,4|0,3:0|0:0,0:0:0:0:
276,252,22693,6,0,L|276:120,2,120,4|4|4,3:0|3:0|3:0,0:0:0:0:
296,328,23631,2,0,B|336:328|336:328|372:348,1,80,4|0,3:0|0:0,0:0:0:0:
428,292,24099,2,0,L|356:248,1,80,4|0,3:0|0:0,0:0:0:0:
384,172,24568,6,0,L|488:236,2,120,4|4|4,3:0|3:0|3:0,0:0:0:0:
359,250,25506,2,0,L|427:291,1,80,4|0,3:0|0:0,0:0:0:0:
370,347,25975,2,0,B|335:327|335:327|295:327,1,80,4|0,3:0|0:0,0:0:0:0:
216,328,26444,6,0,P|157:328|113:284,2,120,4|4|4,3:0|3:0|3:0,0:0:0:0:
188,252,27381,2,0,L|216:176,1,80,4|0,3:0|0:0,0:0:0:0:
296,177,27850,2,0,L|324:253,1,80,4|0,3:0|0:0,0:0:0:0:
296,328,28319,6,0,P|355:328|399:284,2,120,4|4|4,3:0|3:0|3:0,0:0:0:0:
216,328,29257,1,4,3:0:0:0:
188,252,29491,1,0,0:0:0:0:
256,208,29725,1,4,3:0:0:0:
324,252,29960,1,0,0:0:0:0:
296,328,30194,6,0,P|355:328|399:284,2,120,4|4|4,3:0|3:0|3:0,0:0:0:0:
324,252,31132,2,0,B|296:220|296:220|296:176,1,80,4|0,3:0|0:0,0:0:0:0:
216,182,31601,2,0,B|216:220|216:220|188:252,1,80,4|0,3:0|0:0,0:0:0:0:
114,287,32069,6,0,P|157:328|216:328,2,120,4|4|4,3:0|3:0|3:0,0:0:0:0:
188,252,33007,1,4,3:0:0:0:
256,208,33242,1,0,0:0:0:0:
324,164,33476,2,0,L|408:164,1,80,4|0,3:0|0:0,0:0:0:0:
463,109,33945,6,0,P|443:161|464:219,2,120,4|4|4,3:0|3:0|3:0,0:0:0:0:
428,36,34882,2,0,B|464:19|464:19|500:36,2,80,4|0|4,3:0|0:0|3:0,0:0:0:0:
352,64,35586,1,0,0:0:0:0:
276,96,35820,6,0,P|237:107|200:96,1,80,4|0,3:0|0:0,0:0:0:0:
56,56,36289,2,0,P|94:45|132:56,1,80,4|0,3:0|0:0,0:0:0:0:
94,126,36758,5,4,3:0:0:0:
117,202,36992,1,0,0:0:0:0:
117,202,37227,2,0,B|128:243|128:243|119:283,1,80,4|0,3:0|0:0,0:0:0:0:
181,330,37685,6,0,L|47:330,2,120,4|4|4,3:0|3:0|3:0,0:0:0:0:
260,330,38622,1,0,3:0:0:0:
336,307,38857,1,0,0:0:0:0:
394,252,39091,2,0,P|403:211|394:175,1,80,4|0,3:0|0:0,0:0:0:0:
363,100,39560,6,0,L|323:213,2,120,4|4|4,3:0|3:0|3:0,0:0:0:0:
296,56,40497,1,4,3:0:0:0:
256,124,40732,1,0,0:0:0:0:
216,56,40966,1,4,3:0:0:0:
148,100,41201,1,0,0:0:0:0:
148,100,41435,6,0,L|188:213,2,120,4|4|4,3:0|3:0|3:0,0:0:0:0:
216,56,42373,1,4,3:0:0:0:
256,124,42607,1,0,0:0:0:0:
292,196,42842,2,0,B|311:268|311:268|321:311|296:350,1,160,4|4,3:0|3:0,0:0:0:0:
232,296,43545,5,0,0:0:0:0:
186,230,43779,1,4,3:0:0:0:
136,168,44014,1,8,0:0:0:0:
136,168,44248,2,0,L|85:168,2,40,8|8|0,1:0|1:1|1:0,0:0:0:0:
160,92,44717,2,0,L|245:92,1,80,8|8,1:1|1:1,0:0:0:0:
320,80,45186,6,0,P|399:80|465:128,1,160,4|8,0:0|0:0,0:0:0:0:
412,188,45889,1,0,0:0:0:0:
464,258,46123,2,0,P|399:303|320:303,1,160,2|8,0:2|0:0,0:0:0:0:
256,248,46827,1,0,0:0:0:0:
185,211,47061,6,0,L|105:211,1,80,2|0,0:2|0:0,0:0:0:0:
81,135,47530,2,0,L|165:135,1,80,8|0,0:0|0:0,0:0:0:0:
141,59,47999,2,0,B|81:59|81:59|50:59|16:78|6:119,1,160,2|8,0:2|0:0,0:0:0:0:
3,192,48702,1,0,0:0:0:0:
3,272,48936,2,0,P|43:312|111:312,2,120,2|2|2,0:2|0:2|0:2,0:0:0:0:
76,236,49874,6,0,L|108:162,1,80,2|0,0:2|0:0,0:0:0:0:
44,116,50343,2,0,L|76:42,1,80,8|0,0:0|0:0,0:0:0:0:
152,16,50812,2,0,P|232:16|300:64,1,160,2|8,0:2|0:0,0:0:0:0:
256,128,51515,1,0,0:0:0:0:
204,188,51749,2,0,P|270:231|349:231,1,160,2|8,0:2|0:0,0:0:0:0:
420,196,52452,1,0,0:0:0:0:
444,120,52687,6,0,L|436:284,1,160,2|8,0:2|0:0,0:0:0:0:
360,308,53390,1,0,0:0:0:0:
288,340,53624,2,0,B|248:340|248:340|204:360,1,80,2|0,0:2|0:0,0:0:0:0:
136,380,54093,2,0,P|98:380|65:355,1,80,8|0,0:0|0:0,0:0:0:0:
126,302,54562,6,0,P|162:234|126:166,1,160,2|8,0:2|0:0,0:0:0:0:
70,109,55265,1,0,0:0:0:0:
127,52,55500,2,0,L|218:40,1,80,2|0,0:2|0:0,0:0:0:0:
344,87,55969,2,0,L|264:98,1,80,8|0,0:0|0:0,0:0:0:0:
180,128,56437,6,0,L|296:12,2,160,2|8|2,0:2|0:0|0:2,0:0:0:0:
216,200,57609,1,0,0:0:0:0:
252,272,57844,2,0,L|192:332,1,80,8|0,0:0|0:0,0:0:0:0:
102,313,58313,2,0,L|216:200,1,160,2|2,0:2|2:2,0:0:0:0:
178,129,59016,1,0,2:0:0:0:
128,68,59250,6,0,B|168:32|236:48|256:109|256:109|276:48|344:32|384:68,1,320,2|4,0:0|0:0,0:0:0:0:
334,129,60422,5,0,0:0:0:0:
296,200,60657,2,0,B|296:244|296:244|312:280,1,80,8|0,0:0|0:0,0:0:0:0:
202,276,61126,2,0,B|216:244|216:244|216:200,2,80,2|0|8,0:2|0:0|0:0,0:0:0:0:
256,336,61829,1,0,0:0:0:0:
328,372,62063,6,0,L|408:372,1,80,2|0,0:2|0:0,0:0:0:0:
478,292,62532,2,0,L|398:292,1,80,8|0,0:0|0:0,0:0:0:0:
318,288,63001,2,0,P|393:288|421:217,1,160,2|8,0:2|0:0,0:0:0:0:
365,160,63704,1,0,0:0:0:0:
303,109,63939,2,0,L|433:109,2,120,2|2|2,0:2|0:2|0:2,0:0:0:0:
232,144,64876,6,0,P|193:144|158:163,1,80,2|0,0:2|0:0,0:0:0:0:
140,241,65345,2,0,P|179:241|214:222,1,80,8|0,0:0|0:0,0:0:0:0:
158,163,65814,2,0,L|205:319,1,160,2|8,0:2|0:0,0:0:0:0:
256,376,66517,1,0,0:0:0:0:
309,316,66752,2,0,L|355:163,1,160,2|8,0:2|0:0,0:0:0:0:
388,92,67455,1,0,0:0:0:0:
312,63,67689,6,0,P|256:16|200:64,1,160,2|8,0:2|0:0,0:0:0:0:
124,92,68392,1,0,0:0:0:0:
64,144,68627,2,0,P|56:184|64:224,1,80,2|0,0:2|0:0,0:0:0:0:
120,276,69096,2,0,L|200:284,1,80,8|0,0:0|0:0,0:0:0:0:
244,352,69564,6,0,P|280:284|244:216,1,160,2|8,0:2|0:0,0:0:0:0:
184,164,70268,1,0,0:0:0:0:
240,108,70502,2,0,L|320:97,1,80,2|0,0:2|0:0,0:0:0:0:
204,36,70971,2,0,L|113:48,1,80,8|0,0:0|0:0,0:0:0:0:
68,104,71440,6,0,P|48:180|68:264,1,160,2|8,0:2|0:0,0:0:0:0:
132,304,72143,1,0,0:0:0:0:
200,344,72377,2,0,L|296:344,2,80,2|0|8,0:2|0:0|0:0,0:0:0:0:
132,304,73081,1,0,0:0:0:0:
66,258,73315,6,0,P|128:292|168:228,1,160,2|8,0:2|0:0,0:0:0:0:
212,164,74018,1,0,0:0:0:0:
256,96,74253,6,0,L|343:96,1,80,2|0,0:2|0:0,0:0:0:0:
340,176,74722,2,0,L|427:176,1,80,8|0,0:0|0:0,0:0:0:0:
460,244,75190,6,0,P|496:176|460:108,2,160,6|4|4,0:0|3:0|3:0,0:0:0:0:
400,296,76362,1,0,0:0:0:0:
336,344,76597,2,0,B|300:320|300:320|260:320,1,80,4|0,3:0|0:0,0:0:0:0:
188,340,77066,6,0,P|264:316|264:244,1,160,4|4,3:0|3:0,0:0:0:0:
216,184,77769,1,0,0:0:0:0:
188,108,78003,2,0,B|216:80|216:80|216:40,1,80,4|0,3:0|0:0,0:0:0:0:
296,40,78472,2,0,B|296:80|296:80|324:108,1,80,4|0,3:0|0:0,0:0:0:0:
378,46,78941,6,0,L|296:184,1,160,4|4,3:0|3:0,0:0:0:0:
256,256,79644,1,0,0:0:0:0:
216,324,79879,2,0,B|256:328|256:328|296:324,1,80,4|0,3:0|0:0,0:0:0:0:
352,268,80347,2,0,B|392:264|392:264|432:268,1,80,4|0,3:0|0:0,0:0:0:0:
480,204,80816,6,0,P|516:136|480:68,1,160,4|4,3:0|3:0,0:0:0:0:
412,24,81519,1,0,0:0:0:0:
344,64,81754,2,0,L|264:52,1,80,4|0,3:0|0:0,0:0:0:0:
224,120,82223,2,0,L|144:108,1,80,4|0,3:0|0:0,0:0:0:0:
96,172,82692,6,0,B|72:248|116:248|92:332,1,160,4|4,3:0|3:0,0:0:0:0:
164,368,83395,1,0,0:0:0:0:
216,308,83629,2,0,B|256:302|256:302|296:308,1,80,4|0,3:0|0:0,0:0:0:0:
444,348,84098,2,0,B|404:354|404:354|364:348,1,80,4|0,3:0|0:0,0:0:0:0:
404,276,84567,6,0,B|440:256|484:276|484:276|472:240|492:200,1,160,4|4,3:0|3:0,0:0:0:0:
432,148,85270,1,0,0:0:0:0:
372,92,85504,2,0,P|340:72|296:72,1,80,4|0,3:0|0:0,0:0:0:0:
213,71,85973,2,0,P|173:71|140:92,1,80,4|0,3:0|0:0,0:0:0:0:
196,148,86442,6,0,B|216:184|216:184|216:224,1,80,4|0,3:0|0:0,0:0:0:0:
296,224,86911,2,0,B|296:185|296:185|316:149,2,80,4|0|4,3:0|0:0|3:0,0:0:0:0:
348,284,87614,1,0,0:0:0:0:
298,346,87849,1,4,3:0:0:0:
214,346,88083,1,0,0:0:0:0:
164,284,88317,5,4,3:0:0:0:
312,160,89489,6,0,L|336:184,4,20,2|2|2|2|10,0:0|0:0|0:0|0:0|0:0,0:0:0:0:
256,104,89958,1,0,0:0:0:0:
198,50,90193,6,0,P|178:109|200:161,2,120,6|4|4,0:0|3:0|3:0,0:0:0:0:
256,104,91130,2,0,B|272:68|272:68|272:28,2,80,4|0|4,3:0|0:0|3:0,0:0:0:0:
312,160,91834,1,0,0:0:0:0:
372,216,92068,6,0,L|244:216,2,120,4|4|4,3:0|3:0|3:0,0:0:0:0:
441,255,93006,1,4,3:0:0:0:
384,311,93240,1,0,0:0:0:0:
441,255,93474,2,0,P|451:218|442:179,1,80,4|0,3:0|0:0,0:0:0:0:
504,128,93943,6,0,L|376:128,1,120,4|0,3:0|0:0,0:0:0:0:
348,112,94412,1,4,3:0:0:0:
300,48,94647,1,0,0:0:0:0:
256,116,94881,1,4,3:0:0:0:
212,48,95115,1,0,0:0:0:0:
164,112,95350,1,4,3:0:0:0:
212,184,95584,1,0,0:0:0:0:
300,184,95819,6,0,P|252:208|232:268,2,120,4|4|4,3:0|3:0|3:0,0:0:0:0:
312,264,96756,2,0,L|400:264,1,80,4|0,3:0|0:0,0:0:0:0:
412,340,97225,2,0,L|324:340,1,80,4|0,3:0|0:0,0:0:0:0:
256,320,97694,5,8,0:0:0:0:
180,340,97928,1,8,0:0:0:0:
180,340,98163,2,0,L|100:340,1,80,8|8,0:0|0:0,0:0:0:0:
120,264,98632,2,0,L|200:264,1,80,8|8,0:0|0:0,0:0:0:0:
224,188,99100,2,0,L|144:188,1,80,8|8,0:0|0:0,0:0:0:0:
172,112,99569,6,0,L|252:112,2,80,8|8|8,0:0|0:0|0:0,0:0:0:0:
92,96,100272,1,8,0:0:0:0:
23,56,100507,2,0,P|12:93|21:132,1,80,8|8,0:0|0:0,0:0:0:0:
72,196,100976,2,0,P|80:234|69:272,1,80,8|8,0:0|0:0,0:0:0:0:
72,352,101444,6,0,L|116:352,3,40,8|8|8|8,0:1|0:1|0:1|0:1,0:0:0:0:
140,323,101913,2,0,L|184:323,3,40,8|8|8|8,0:1|0:1|0:1|0:1,0:0:0:0:
204,292,102382,6,0,L|248:292,3,40,8|8|8|8,0:1|0:1|0:1|0:1,0:0:0:0:
272,263,102851,2,0,L|316:263,3,40,8|8|8|8,0:1|0:1|0:1|0:1,0:0:0:0:
340,236,103320,6,0,P|375:303|340:371,2,160,8|8|8,0:0|0:0|1:0,0:0:0:0:
316,204,104375,1,8,1:0:0:0:
316,204,104492,1,0,1:0:0:0:
256,152,104726,2,0,L|171:152,1,80,8|8,1:1|1:1,0:0:0:0:
192,72,105195,6,0,B|113:72|113:72|47:120,1,160,4|8,0:0|0:0,0:0:0:0:
84,192,105898,1,0,0:0:0:0:
48,264,106133,2,0,B|114:312|114:312|193:312,1,160,2|8,0:2|0:0,0:0:0:0:
256,264,106836,1,0,0:0:0:0:
320,216,107070,6,0,L|400:216,1,80,2|0,0:2|0:0,0:0:0:0:
431,135,107539,2,0,L|347:135,1,80,8|0,0:0|0:0,0:0:0:0:
371,59,108008,2,0,B|431:59|431:59|462:59|496:78|506:119,1,160,2|8,0:2|0:0,0:0:0:0:
509,192,108711,1,0,0:0:0:0:
509,272,108946,2,0,P|469:312|401:312,2,120,2|2|2,0:2|0:2|0:2,0:0:0:0:
436,236,109883,6,0,L|404:162,1,80,2|0,0:2|0:0,0:0:0:0:
468,116,110352,2,0,L|436:42,1,80,8|0,0:0|0:0,0:0:0:0:
360,16,110821,2,0,P|280:16|212:64,1,160,2|8,0:2|0:0,0:0:0:0:
256,128,111524,1,0,0:0:0:0:
308,188,111759,2,0,P|242:231|163:231,1,160,2|8,0:2|0:0,0:0:0:0:
92,196,112462,1,0,0:0:0:0:
68,120,112696,6,0,L|76:284,1,160,2|8,0:2|0:0,0:0:0:0:
152,308,113399,1,0,0:0:0:0:
224,340,113634,2,0,B|264:340|264:340|308:360,1,80,2|0,0:2|0:0,0:0:0:0:
376,380,114103,2,0,P|414:380|447:355,1,80,8|0,0:0|0:0,0:0:0:0:
386,302,114572,6,0,P|350:234|386:166,1,160,2|8,0:2|0:0,0:0:0:0:
442,109,115275,1,0,0:0:0:0:
385,52,115509,2,0,L|294:40,1,80,2|0,0:2|0:0,0:0:0:0:
168,87,115978,2,0,L|248:98,1,80,8|0,0:0|0:0,0:0:0:0:
332,128,116447,6,0,L|216:12,2,160,2|8|2,0:2|0:0|0:2,0:0:0:0:
296,200,117619,1,0,0:0:0:0:
260,272,117853,2,0,L|320:332,1,80,8|0,0:0|0:0,0:0:0:0:
410,313,118322,6,0,L|296:200,1,160,2|2,0:2|2:2,0:0:0:0:
334,129,119025,1,0,2:0:0:0:
368,56,119260,2,0,P|256:92|144:56,1,240,2|2,0:0|0:0,0:0:0:0:
88,112,120197,6,0,B|88:152|88:152|60:180,1,80,4|0,0:0|0:0,0:0:0:0:
20,248,120666,2,0,P|9:287|17:324,2,80,8|0|2,0:0|0:0|0:2,0:0:0:0:
87,291,121369,1,0,0:0:0:0:
156,332,121604,2,0,B|196:332|196:332|232:352,1,80,8|0,0:0|0:0,0:0:0:0:
280,288,122073,6,0,L|208:248,1,80,2|0,0:2|0:0,0:0:0:0:
248,180,122542,2,0,L|320:220,1,80,8|0,0:0|0:0,0:0:0:0:
388,168,123010,2,0,L|244:88,1,160,2|8,0:2|0:0,0:0:0:0:
180,52,123714,1,0,0:0:0:0:
100,48,123948,2,0,P|48:48|0:96,2,120,2|2|2,0:2|0:2|0:2,0:0:0:0:
76,124,124886,6,0,B|93:160|93:160|76:196,1,80,2|0,0:2|0:0,0:0:0:0:
204,320,125354,2,0,B|187:284|187:284|204:248,1,80,8|0,0:0|0:0,0:0:0:0:
68,132,125823,2,0,B|85:168|85:168|68:204,1,80,2|0,0:2|0:0,0:0:0:0:
212,312,126292,2,0,B|195:276|195:276|212:240,1,80,8|0,0:0|0:0,0:0:0:0:
172,152,126761,2,0,L|104:296,1,160,2|8,0:2|0:0,0:0:0:0:
176,332,127464,1,0,0:0:0:0:
252,360,127699,6,0,B|324:360|324:316|404:316,1,160,2|8,0:2|0:0,0:0:0:0:
472,276,128402,1,0,0:0:0:0:
414,218,128636,2,0,P|403:180|413:142,1,80,2|0,0:2|0:0,0:0:0:0:
472,276,129105,2,0,P|483:314|472:352,1,80,8|0,0:0|0:0,0:0:0:0:
403,316,129574,6,0,L|488:180,1,160,2|8,0:2|0:0,0:0:0:0:
448,112,130277,1,0,0:0:0:0:
400,48,130512,2,0,B|360:48|360:48|324:72,1,80,2|0,0:2|0:0,0:0:0:0:
256,112,130980,2,0,L|168:112,1,80,8|0,0:0|0:0,0:0:0:0:
152,188,131449,6,0,B|220:188|220:188|272:188|296:236,1,160,2|8,0:2|0:0,0:0:0:0:
336,304,132152,1,0,0:0:0:0:
384,368,132387,2,0,L|480:368,2,80,2|0|8,0:2|0:0|0:0,0:0:0:0:
336,304,133090,1,0,0:0:0:0:
370,235,133324,6,0,P|332:297|268:264,1,160,2|8,0:2|0:0,0:0:0:0:
216,204,134028,1,0,0:0:0:0:
184,128,134262,2,0,B|212:100|212:100|212:60,1,80,2|0,0:2|0:0,0:0:0:0:
300,60,134731,2,0,B|300:100|300:100|328:128,1,80,8|0,0:0|0:0,0:0:0:0:
296,204,135200,5,2,0:0:0:0:
259,296,150202,6,0,L|247:375,2,80,4|2|8,0:0|0:0|0:0,0:0:0:0:
200,240,150905,2,0,L|212:156,1,80,2|4,0:0|3:0,0:0:0:0:
256,96,151374,1,2,0:0:0:0:
324,56,151609,2,0,P|256:92|188:56,2,160,8|4|8,0:0|3:0|0:0,0:0:0:0:
324,56,152663,5,0,0:0:0:0:
324,56,152781,1,2,0:0:0:0:
400,80,153015,2,0,B|440:80|440:80|472:112,1,80,4|2,3:0|0:0,0:0:0:0:
408,160,153484,2,0,B|408:236|380:236|380:320,1,160,8|4,0:0|3:0,0:0:0:0:
448,360,154187,5,2,0:0:0:0:
380,316,154421,2,0,P|340:324|304:352,1,80,8|2,0:0|0:0,0:0:0:0:
256,284,154890,1,4,3:0:0:0:
203,346,155125,2,0,P|170:323|132:316,2,80,2|8|2,0:0|0:0|0:0,0:0:0:0:
256,284,155828,6,0,B|260:256|260:256|256:232|256:232|260:204|260:204|256:176|256:176|260:152|260:152|256:124,1,160,4|8,3:0|0:0,0:0:0:0:
200,68,156531,1,2,0:0:0:0:
128,32,156766,2,0,P|92:16|52:16,1,80,4|2,3:0|0:0,0:0:0:0:
76,92,157234,2,0,B|59:128|59:128|76:164,1,80,8|2,0:0|0:0,0:0:0:0:
140,212,157703,6,0,B|112:248|68:248|68:248|56:284|88:320,1,160,4|8,3:0|0:0,0:0:0:0:
164,340,158406,1,2,0:0:0:0:
164,340,158524,1,0,0:0:0:0:
164,340,158641,2,0,L|244:340,1,80,4|2,3:0|0:0,0:0:0:0:
324,336,159110,2,0,P|388:336|440:368,1,120,8|2,0:0|0:0,0:0:0:0:
435,363,159579,6,0,L|456:280,1,80,4|2,3:0|0:0,0:0:0:0:
412,220,160047,1,8,0:0:0:0:
360,156,160282,1,2,0:0:0:0:
360,156,160399,1,0,0:0:0:0:
360,156,160516,2,0,L|380:72,1,80,4|2,3:0|0:0,0:0:0:0:
428,16,160985,2,0,P|375:41|323:16,1,120,8|2,0:0|0:0,0:0:0:0:
323,16,161454,5,4,3:0:0:0:
248,36,161688,2,0,B|216:36|216:36|204:40|204:40|168:40,1,80,2|8,0:0|0:0,0:0:0:0:
100,84,162157,1,2,0:0:0:0:
100,84,162274,1,0,0:0:0:0:
100,84,162391,2,0,P|92:123|100:162,1,80,4|2,3:0|0:0,0:0:0:0:
155,297,162860,2,0,P|163:258|156:220,1,80,8|2,0:0|0:0,0:0:0:0:
84,260,163329,5,4,3:0:0:0:
84,260,163564,2,0,L|260:260,2,160,2|2|2,0:0|0:0|0:0,0:0:0:0:
40,192,164736,1,8,0:0:0:0:
84,124,164970,1,2,0:0:0:0:
84,124,165204,5,4,0:0:0:0:
448,308,167080,6,0,P|384:356|304:356,1,160,4|8,0:0|0:0,0:0:0:0:
256,296,167783,1,0,0:0:0:0:
205,356,168017,2,0,P|126:355|64:308,1,160,2|8,0:2|0:0,0:0:0:0:
60,228,168721,1,0,0:0:0:0:
60,228,168955,6,0,B|100:228|100:228|128:256,1,80,2|0,0:2|0:0,0:0:0:0:
196,212,169424,2,0,L|140:156,1,80,8|0,0:0|0:0,0:0:0:0:
180,84,169893,2,0,B|220:84|220:84|256:67|256:67|292:84|292:84|332:84,1,160,2|8,0:2|0:0,0:0:0:0:
372,155,170596,1,0,0:0:0:0:
428,212,170830,2,0,P|372:232|316:212,2,120,2|2|2,0:2|0:2|0:2,0:0:0:0:
492,260,171768,6,0,P|503:298|492:336,1,80,2|0,0:2|0:0,0:0:0:0:
412,376,172237,2,0,P|401:338|412:300,1,80,8|0,0:0|0:0,0:0:0:0:
492,260,172706,2,0,L|331:260,1,160,2|8,0:2|0:0,0:0:0:0:
256,244,173409,1,0,0:0:0:0:
176,240,173643,2,0,B|252:240|252:240|312:180,1,160,2|8,0:2|0:0,0:0:0:0:
372,120,174346,1,0,0:0:0:0:
400,40,174581,6,0,L|408:204,1,160,2|8,0:2|0:0,0:0:0:0:
388,276,175284,1,0,0:0:0:0:
388,276,175519,2,0,P|428:276|464:256,2,80,2|0|8,0:2|0:0|0:0,0:0:0:0:
316,240,176222,1,0,0:0:0:0:
248,196,176456,6,0,B|192:196|192:196|152:172|152:172|92:172,1,160,2|8,0:2|0:0,0:0:0:0:
37,115,177159,1,0,0:0:0:0:
93,58,177394,2,0,B|133:58|133:58|169:34,1,80,2|0,0:2|0:0,0:0:0:0:
288,45,177863,2,0,L|223:92,1,80,8|0,0:0|0:0,0:0:0:0:
164,144,178331,6,0,P|142:220|164:296,2,160,2|8|2,0:2|0:0|0:2,0:0:0:0:
224,92,179504,1,0,0:0:0:0:
148,64,179738,2,0,P|112:80|88:116,1,80,8|0,0:0|0:0,0:0:0:0:
164,144,180207,6,0,L|60:20,1,160,2|8,0:2|0:0,0:0:0:0:
16,88,180910,1,0,0:0:0:0:
16,88,181144,2,0,L|72:152,1,80,2|0,0:2|0:0,0:0:0:0:
16,208,181613,2,0,L|72:272,1,80,8|0,0:0|0:0,0:0:0:0:
125,324,182082,5,4,0:0:0:0:
200,292,182316,1,0,0:0:0:0:
267,249,182551,2,0,P|277:287|269:325,2,80,8|0|2,0:0|0:0|0:2,0:0:0:0:
211,193,183254,1,0,0:0:0:0:
155,133,183489,2,0,B|120:113|120:113|80:113,1,80,8|0,0:0|0:0,0:0:0:0:
59,37,183957,6,0,L|147:37,1,80,2|0,0:2|0:0,0:0:0:0:
99,189,184426,2,0,L|19:189,1,80,8|0,0:0|0:0,0:0:0:0:
44,112,184895,2,0,L|208:112,1,160,2|8,0:2|0:0,0:0:0:0:
280,84,185598,1,0,0:0:0:0:
340,136,185833,2,0,P|360:192|340:248,2,120,2|2|2,0:2|0:2|0:2,0:0:0:0:
284,192,186770,6,0,B|256:220|256:220|228:192,1,80,2|0,0:2|0:0,0:0:0:0:
171,247,187239,2,0,B|208:284|208:284|204:296|204:312,1,80,8|0,0:0|0:0,0:0:0:0:
309,311,187708,2,0,B|309:295|305:283|305:283|342:246,1,80,2|0,0:2|0:0,0:0:0:0:
400,192,188177,1,8,0:0:0:0:
440,124,188411,2,0,P|476:192|440:260,1,160,2|2,0:2|0:2,0:0:0:0:
400,192,189114,1,8,0:0:0:0:
352,128,189349,1,0,0:0:0:0:
304,64,189583,6,0,B|224:64|224:108|152:108,1,160,2|8,0:2|0:0,0:0:0:0:
120,180,190286,1,0,0:0:0:0:
76,248,190521,2,0,P|65:286|76:324,1,80,2|0,0:2|0:0,0:0:0:0:
148,364,190990,2,0,P|158:326|147:288,1,80,8|0,0:0|0:0,0:0:0:0:
188,220,191459,6,0,L|48:136,1,160,2|8,0:2|0:0,0:0:0:0:
60,60,192162,1,0,0:0:0:0:
140,44,192396,2,0,P|174:24|214:23,1,80,2|0,0:2|0:0,0:0:0:0:
297,23,192865,2,0,P|337:24|372:44,1,80,8|0,0:0|0:0,0:0:0:0:
316,104,193334,6,0,B|256:157|256:157|196:104,1,160,2|8,0:2|0:0,0:0:0:0:
160,176,194037,1,0,0:0:0:0:
220,228,194271,2,0,P|256:243|292:228,1,80,2|0,0:2|0:0,0:0:0:0:
352,176,194740,1,8,0:0:0:0:
416,124,194975,1,0,0:0:0:0:
416,124,195209,6,0,B|424:171|448:195|448:195|424:219|416:267,1,160,2|8,0:2|0:0,0:0:0:0:
476,324,195912,2,0,B|447:352|407:352|407:352|363:352,2,120,0|2|8,0:0|0:2|0:0,0:0:0:0:
416,268,196850,1,0,0:0:0:0:
476,216,197084,5,2,0:0:0:0:
256,192,197202,12,2,199663,0:0:0:0:
