osu file format v13

[General]
AudioFilename: 01 Maps.mp3
AudioLeadIn: 0
PreviewTime: 39435
Countdown: 1
SampleSet: Soft
StackLeniency: 0.7
Mode: 0
LetterboxInBreaks: 1
WidescreenStoryboard: 0

[Editor]
DistanceSpacing: 1.2
BeatDivisor: 4
GridSize: 4
TimelineZoom: 1

[Metadata]
Title:Maps
TitleUnicode:Maps
Artist:Maroon 5
ArtistUnicode:Maroon 5
Creator:SuperMICrophone
Version:Insane
Source:
Tags:
BeatmapID:483057
BeatmapSetID:204576

[Difficulty]
HPDrainRate:7
CircleSize:4
OverallDifficulty:8
ApproachRate:8
SliderMultiplier:2
SliderTickRate:1

[Events]
//Background and Video events
0,0,"rsz_1maps.jpg",0,0
//Break Periods
2,72330,79580
//Storyboard Layer 0 (Background)
//Storyboard Layer 1 (Fail)
//Storyboard Layer 2 (Pass)
//Storyboard Layer 3 (Foreground)
//Storyboard Sound Samples
//Background Colour Transformations
3,100,163,162,255

[TimingPoints]
330,500,4,2,2,60,1,0
2825,-100,4,2,2,35,0,0
4325,-100,4,2,2,60,0,0
6825,-100,4,2,2,35,0,0
8325,-100,4,2,2,60,0,0
11325,-100,4,2,2,35,0,0
12325,-100,4,2,2,60,0,0
14825,-100,4,2,2,35,0,0
16325,-100,4,2,1,50,0,0
39575,-133.333333333333,4,2,2,30,0,0
40325,-100,4,2,1,65,0,1
56200,-100,4,2,1,65,0,0
56325,-80,4,2,1,65,0,1
70330,-80,4,2,1,65,0,0
80330,-100,4,2,1,50,0,0
99580,-133.333333333333,4,2,2,30,0,0
100330,-80,4,2,1,65,0,1

[Colours]
Combo1 : 242,24,57
Combo2 : 255,128,0
Combo3 : 255,255,0

[HitObjects]
116,136,580,6,0,L|104:240,2,100,0|2|0,0:0|0:0|0:0,0:0:0:0:
216,72,1330,2,0,L|204:171,1,100,2|0,0:0|0:0,0:0:0:0:
228,288,1830,1,0,0:0:0:0:
336,340,2080,2,0,P|428:320|468:220,1,200,2|2,0:0|0:0,0:0:0:0:
328,48,2830,5,0,0:0:0:0:
324,64,3330,1,0,0:0:0:0:
320,84,3830,1,0,0:0:0:0:
216,20,4080,1,2,0:0:0:0:
116,84,4330,6,0,P|64:152|84:264,1,200,0|2,0:0|0:0,0:0:0:0:
176,188,5080,1,0,0:0:0:0:
267,116,5330,2,0,P|286:211|231:291,1,200,0|2,0:0|0:0,0:0:0:0:
176,188,6080,2,0,L|376:240,1,200,0|2,0:0|0:0,0:0:0:0:
472,96,6830,5,0,0:0:0:0:
476,76,7330,1,0,0:0:0:0:
480,60,7830,1,2,0:0:0:0:
240,44,8330,6,0,L|252:152,1,100
280,260,8830,1,2,0:0:0:0:
400,280,9080,1,0,0:0:0:0:
476,188,9330,2,0,P|496:128|496:36,2,150,0|2|0,0:0|0:0|0:0,0:0:0:0:
280,260,10580,1,0,0:0:0:0:
164,292,10830,5,2,0:0:0:0:
144,300,11330,1,0,0:0:0:0:
124,308,11830,1,0,0:0:0:0:
168,196,12080,1,2,0:0:0:0:
88,108,12330,6,0,P|156:76|264:124,1,200,0|2,0:0|0:0,0:0:0:0:
308,236,13080,1,0,0:0:0:0:
384,144,13330,2,0,P|432:128|488:140,2,100,0|0|2,0:0|0:0|0:0,0:0:0:0:
308,236,14080,2,0,P|248:320|136:324,1,200
60,156,14830,5,0,0:0:0:0:
60,136,15330,1,0,0:0:0:0:
60,116,15830,1,2,0:0:0:0:
280,24,16330,6,0,P|288:76|312:116,1,100,0|0,0:0|0:0,0:0:0:0:
424,160,16830,1,0,0:0:0:0:
332,236,17080,1,0,0:0:0:0:
492,368,17330,2,0,P|472:320|444:280,1,100,0|0,0:0|0:0,0:0:0:0:
332,236,17830,1,0,0:0:0:0:
164,244,18080,2,0,B|125:279|125:279|103:334,2,100,0|0|0,0:0|0:0|0:0,0:0:0:0:
320,116,18830,5,0,0:0:0:0:
256,12,19080,1,0,0:0:0:0:
192,112,19330,1,0,0:0:0:0:
316,296,19580,1,0,0:0:0:0:
340,288,19705,1,0,0:0:0:0:
360,276,19830,2,0,P|400:248|428:180,1,100,0|0,0:0|0:0,0:0:0:0:
152,276,20330,6,0,P|112:248|84:180,1,100,2|0,0:0|0:0,0:0:0:0:
188,40,20830,1,0,0:0:0:0:
208,160,21080,1,0,0:0:0:0:
320,256,21330,2,0,L|336:356,2,100,0|0|0,0:0|0:0|0:0,0:0:0:0:
396,128,22080,2,0,L|380:28,2,100,0|0|0,0:0|0:0|0:0,0:0:0:0:
420,300,22830,5,0,0:0:0:0:
92,300,23330,1,0,0:0:0:0:
128,184,23580,1,0,0:0:0:0:
176,72,23830,1,0,0:0:0:0:
192,52,23955,1,0,0:0:0:0:
212,40,24080,1,0,0:0:0:0:
236,36,24205,1,0,0:0:0:0:
260,40,24330,1,0,0:0:0:0:
432,192,24580,5,0,0:0:0:0:
404,308,24830,1,0,0:0:0:0:
292,348,25080,1,0,0:0:0:0:
200,272,25330,2,0,P|160:236|104:228,2,100,0|0|0,0:0|0:0|0:0,0:0:0:0:
252,164,26080,1,0,0:0:0:0:
180,68,26330,1,0,0:0:0:0:
300,52,26580,1,0,0:0:0:0:
252,164,26830,5,0,0:0:0:0:
484,232,27330,1,0,0:0:0:0:
380,292,27580,2,0,L|328:292,2,50,0|0|0,0:0|0:0|0:0,0:0:0:0:
480,356,28080,1,0,0:0:0:0:
260,364,28330,6,0,P|228:328|232:268,1,100
248,108,28830,2,0,P|280:144|276:204,1,100
120,312,29330,1,0,0:0:0:0:
104,192,29580,1,0,0:0:0:0:
88,72,29830,1,0,0:0:0:0:
248,108,30080,2,0,P|288:88|348:68,2,100,0|0|0,0:0|0:0|0:0,0:0:0:0:
104,192,30830,1,0,0:0:0:0:
408,192,31330,1,0,0:0:0:0:
203,146,31580,5,0,0:0:0:0:
321,169,31830,1,0,0:0:0:0:
242,260,32080,2,0,P|232:312|244:364,1,100
410,290,32580,2,0,P|419:241|408:192,1,100
300,68,33080,2,0,L|308:172,1,100
128,300,33580,1,0,0:0:0:0:
241,261,33830,1,0,0:0:0:0:
152,180,34080,2,0,L|124:80,1,100
256,120,34580,2,0,L|281:19,1,100
364,164,35080,2,0,L|436:89,1,100
151,171,35580,5,2,0:0:0:0:
290,292,35830,1,0,0:0:0:0:
325,111,36080,2,0,P|360:76|412:56,1,100,2|0,0:0|0:0,0:0:0:0:
328,256,36580,2,0,P|293:291|241:311,1,100,2|0,0:0|0:0,0:0:0:0:
72,226,37080,2,0,P|106:190|158:170,1,100,2|0,0:0|0:0,0:0:0:0:
264,216,37580,1,0,0:0:0:0:
326,112,37830,1,0,0:0:0:0:
448,292,38080,2,0,P|420:244|384:212,1,100,2|0,0:0|0:0,0:0:0:0:
64,292,38580,2,0,P|92:244|128:212,1,100,2|0,0:0|0:0,0:0:0:0:
256,148,39080,1,0,0:0:0:0:
416,332,39580,5,2,0:0:0:0:
432,312,39705,1,0,0:0:0:0:
448,292,39830,2,0,P|468:248|472:216,1,75.0000028610231
444,68,40330,6,0,P|336:48|280:120,1,200,12|8,0:0|0:0,0:0:0:0:
264,236,41080,1,0,0:0:0:0:
264,236,41330,2,0,P|194:302|102:276,1,200,8|8,0:0|0:0,0:0:0:0:
44,160,42080,5,0,0:0:0:0:
118,53,42330,1,8,0:0:0:0:
242,91,42580,1,0,0:0:0:0:
242,91,42705,1,0,0:0:0:0:
242,91,42830,1,8,0:0:0:0:
245,221,43080,1,0,0:0:0:0:
122,263,43330,2,0,P|112:320|124:364,1,100,8|0,0:0|0:0,0:0:0:0:
389,360,43830,2,0,P|400:311|390:263,1,100,8|0,0:0|0:0,0:0:0:0:
488,84,44330,6,0,B|450:114|446:172|446:172|395:146|349:164,1,200,8|8,0:0|0:0,0:0:0:0:
256,252,45080,1,0,0:0:0:0:
161,163,45330,2,0,B|116:146|65:172|65:172|61:114|24:84,1,200,8|8,0:0|0:0,0:0:0:0:
152,64,46080,1,0,0:0:0:0:
176,56,46205,1,0,0:0:0:0:
200,48,46330,2,0,P|248:36|300:40,1,100,8|0,0:0|0:0,0:0:0:0:
368,64,46705,2,0,B|400:96|400:140|400:140|464:164,1,150
500,288,47330,2,0,L|400:252,1,100,8|0,0:0|0:0,0:0:0:0:
212,280,47830,2,0,L|306:313,1,100,8|0,0:0|0:0,0:0:0:0:
248,176,48330,6,0,P|152:188|104:276,1,200,8|8,0:0|0:0,0:0:0:0:
104,271,49080,1,0,0:0:0:0:
204,88,49330,2,8,P|108:120|40:196,1,200
42,191,50080,5,0,0:0:0:0:
92,312,50330,1,8,0:0:0:0:
220,336,50580,1,0,0:0:0:0:
220,336,50705,1,0,0:0:0:0:
220,336,50830,1,8,0:0:0:0:
300,232,51080,1,0,0:0:0:0:
292,28,51330,2,0,P|316:76|328:128,1,100,8|0,0:0|0:0,0:0:0:0:
452,296,51830,2,0,P|428:248|416:196,1,100,8|0,0:0|0:0,0:0:0:0:
128,328,52330,2,0,P|204:268|304:232,2,200,8|8|8,0:0|0:0|0:0,0:0:0:0:
56,52,53830,5,8,0:0:0:0:
184,72,54080,1,0,0:0:0:0:
312,92,54330,2,0,L|416:108,1,100,12|0,0:0|0:0,0:0:0:0:
452,188,54705,2,0,L|353:172,1,100
296,244,55080,2,0,L|348:252,1,50
400,336,55330,2,0,L|350:328,1,50,4|0,0:0|0:0,0:0:0:0:
272,316,55580,1,0,0:0:0:0:
116,288,55830,1,4,0:0:0:0:
216,164,56080,1,0,0:0:0:0:
404,92,56330,6,0,P|424:164|416:276,1,187.5,12|0,0:0|0:0,0:0:0:0:
400,336,56830,1,8,0:0:0:0:
117,287,57080,1,0,0:0:0:0:
317,206,57330,1,8,0:0:0:0:
70,171,57580,1,0,0:0:0:0:
271,90,57830,1,8,0:0:0:0:
241,305,58080,1,0,0:0:0:0:
147,73,58330,2,0,B|92:32|32:52|32:52|36:120,1,187.5,8|0,0:0|0:0,0:0:0:0:
71,172,58830,1,8,0:0:0:0:
241,305,59080,5,0,0:0:0:0:
271,90,59330,1,8,0:0:0:0:
334,299,59580,1,2,0:0:0:0:
334,299,59705,1,2,0:0:0:0:
334,299,59830,1,8,0:0:0:0:
364,84,60080,1,2,0:0:0:0:
428,292,60330,2,0,B|440:208|440:208|488:180|504:124,1,187.5,8|0,0:0|0:0,0:0:0:0:
512,68,60830,1,8,0:0:0:0:
271,90,61080,5,0,0:0:0:0:
53,137,61330,1,8,0:0:0:0:
256,227,61580,1,0,0:0:0:0:
145,35,61830,1,8,0:0:0:0:
122,256,62080,1,0,0:0:0:0:
271,91,62330,1,8,0:0:0:0:
122,256,62580,5,2,0:0:0:0:
128,272,62705,1,0,0:0:0:0:
140,288,62830,1,8,0:0:0:0:
256,48,63080,1,2,0:0:0:0:
256,68,63205,1,0,0:0:0:0:
256,88,63330,1,8,0:0:0:0:
372,288,63580,1,2,0:0:0:0:
384,272,63705,1,0,0:0:0:0:
390,256,63830,1,8,0:0:0:0:
468,56,64080,1,2,0:0:0:0:
256,88,64330,6,0,P|216:136|100:168,1,187.5,8|0,0:0|0:0,0:0:0:0:
36,156,64830,1,8,0:0:0:0:
112,340,65080,1,0,0:0:0:0:
400,340,65330,1,8,0:0:0:0:
476,156,65580,1,0,0:0:0:0:
256,228,65830,1,8,0:0:0:0:
36,156,66080,1,0,0:0:0:0:
256,88,66330,6,0,P|296:136|412:168,1,187.5,8|0,0:0|0:0,0:0:0:0:
476,156,66830,1,8,0:0:0:0:
256,228,67080,1,0,0:0:0:0:
36,156,67330,1,8,0:0:0:0:
112,300,67580,1,0,0:0:0:0:
184,80,67830,1,8,0:0:0:0:
396,76,68080,1,0,0:0:0:0:
505,280,68330,6,0,B|471:310|418:285|422:265|425:245|373:220|339:250,1,187.5,8|0,0:0|0:0,0:0:0:0:
296,296,68830,1,8,0:0:0:0:
112,300,69080,1,0,0:0:0:0:
15,126,69330,1,8,0:0:0:0:
215,129,69580,1,0,0:0:0:0:
72,324,69830,1,8,0:0:0:0:
10,77,70080,1,0,0:0:0:0:
256,147,70330,1,8,0:0:0:0:
440,324,70580,5,2,0:0:0:0:
368,308,70705,1,0,0:0:0:0:
296,292,70830,1,0,0:0:0:0:
48,224,71080,5,2,0:0:0:0:
120,208,71205,1,0,0:0:0:0:
192,192,71330,1,0,0:0:0:0:
440,116,71580,5,2,0:0:0:0:
368,100,71705,1,0,0:0:0:0:
296,84,71830,1,0,0:0:0:0:
112,96,80330,6,0,L|216:108,1,100,0|0,0:0|0:0,0:0:0:0:
328,140,80830,1,0,0:0:0:0:
432,204,81080,1,0,0:0:0:0:
328,260,81330,2,0,P|360:300|408:320,2,100,0|0|0,0:0|0:0|0:0,0:0:0:0:
184,260,82080,2,0,P|152:300|104:320,2,100,0|0|0,0:0|0:0|0:0,0:0:0:0:
80,204,82830,1,0,0:0:0:0:
256,40,83330,1,0,0:0:0:0:
368,80,83580,1,0,0:0:0:0:
380,88,83705,1,0,0:0:0:0:
392,100,83830,6,0,P|424:136|448:184,1,100
196,348,84330,2,0,P|284:288|380:268,1,200
492,284,85080,1,0,0:0:0:0:
236,180,85330,2,0,B|242:108|242:108|250:108|250:108|256:37,2,150,0|0|0,0:0|0:0|0:0,0:0:0:0:
236,180,86330,1,0,0:0:0:0:
44,324,86830,1,0,0:0:0:0:
16,84,87330,1,0,0:0:0:0:
128,236,87580,5,2,0:0:0:0:
140,248,87705,1,0,0:0:0:0:
312,352,87955,1,2,0:0:0:0:
316,335,88080,1,0,0:0:0:0:
408,72,88330,2,0,L|368:268,1,200
256,228,89080,1,0,0:0:0:0:
144,268,89330,2,0,L|112:112,1,150,0|0,0:0|0:0,0:0:0:0:
256,192,89830,12,2,91080,0:0:0:0:
184,72,91580,5,0,0:0:0:0:
68,108,91830,1,0,0:0:0:0:
180,156,92080,2,0,P|232:140|264:104,1,100
312,260,92580,2,0,P|349:220|358:172,1,100
480,272,93080,2,0,P|492:218|476:173,1,100
188,324,93580,1,0,0:0:0:0:
324,324,93830,1,0,0:0:0:0:
84,152,94080,2,0,L|96:256,1,100
192,136,94580,2,0,L|180:36,1,100
300,128,95080,2,0,L|312:232,1,100
464,146,95580,5,2,0:0:0:0:
483,304,95830,1,0,0:0:0:0:
324,324,96080,2,0,L|216:340,1,100,2|0,0:0|0:0,0:0:0:0:
248,220,96580,2,0,L|140:236,1,100,2|0,0:0|0:0,0:0:0:0:
168,116,97080,2,0,L|60:132,1,100,2|0,0:0|0:0,0:0:0:0:
304,52,97580,1,0,0:0:0:0:
292,200,97830,1,0,0:0:0:0:
396,308,98080,2,0,P|368:352|316:368,1,100,2|0,0:0|0:0,0:0:0:0:
116,308,98580,2,0,P|144:352|196:368,1,100,2|0,0:0|0:0,0:0:0:0:
256,236,99080,1,0,0:0:0:0:
376,40,99580,5,2,0:0:0:0:
380,56,99705,1,0,0:0:0:0:
384,72,99830,2,0,L|404:152,1,75.0000028610231
440,332,100330,6,0,P|372:328|256:200,1,250,12|8,0:0|0:0,0:0:0:0:
256,52,101080,1,0,0:0:0:0:
255,200,101330,2,0,P|190:303|72:332,1,250,8|8,0:0|0:0,0:0:0:0:
