osu file format v5

[General]
AudioFilename: Maroon 5 - Makes Me Wonder.mp3
AudioLeadIn: 0
PreviewTime: -1
Countdown: 1
SampleSet: Normal
StackLeniency: 0.7
Mode: 0
LetterboxInBreaks: 1
EditorBookmarks: 16689,33743,47295,71769,80059,92953,109927,134795,143611,160453,177295

[Metadata]
Title:Makes Me Wonder
Artist:Maroon 5
Creator:kingcobra52
Version:Normal
Source:
Tags:

[Difficulty]
HPDrainRate:4
CircleSize:4
OverallDifficulty:5
SliderMultiplier:1.6
SliderTickRate:1

[Events]
//Background and Video events
0,0,"m5logocolored.jpg"
//Break Periods
2,63548,70832
2,126706,133990
//Storyboard Layer 0 (Background)
//Storyboard Layer 1 (Failing)
//Storyboard Layer 2 (Passing)
//Storyboard Layer 3 (Foreground)
//Storyboard Sound Samples
//Background Colour Transformations
3,100,0,0,0

[TimingPoints]
2296,526.315789473684,4,1,0,70,1

[Colours]
Combo1 : 255,167,34
Combo2 : 2,125,2
Combo3 : 3,3,141
Combo4 : 183,4,4

[HitObjects]
96,280,17296,2,0,B|56:248|88:200,1,80
192,144,18085,1,8
256,144,18348,1,8
320,144,18611,1,8
432,200,19138,6,0,B|440:296|320:304,1,160
272,312,19927,2,8,B|232:336|192:320,2,80
104,224,21243,6,0,B|64:144|168:88,1,160
216,72,22032,2,8,B|256:48|304:64,2,80
408,48,23348,6,2,B|296:80|456:136|328:184,1,160
288,176,24138,2,2,B|248:208|320:216|248:256,2,80
80,320,25717,6,0,B|80:64,1,240,0|8
144,80,26769,1,8
208,80,27032,1,8
336,80,27559,6,0,B|384:72|408:112,2,80
272,80,28348,2,0,B|248:136|280:192|344:216,1,160
248,296,29401,6,0,B|224:336|176:336|168:288|136:272|104:312,1,160
103,176,30453,2,0,B|127:138|175:138|183:186|215:202|242:167,1,160
248,48,31506,2,0,B|416:128,1,160
392,176,32295,2,4,B|240:264,1,160
128,256,33348,1,4
40,160,33874,6,0,B|48:104|88:64|160:48,2,160
40,280,35453,1,0
88,320,35717,1,0
136,280,35980,1,0
232,200,36506,5,2
328,280,37032,1,2
336,152,37559,1,2
384,112,37822,5,0
375,48,38085,2,0,B|328:16|264:16|216:56,2,160
416,168,39664,1,0
416,232,39927,1,0
256,336,40717,5,2
144,264,41243,1,2
40,192,41769,1,2
256,192,42295,12,4,46506
64,40,47559,6,0,B|32:80|64:120,3,80
112,152,48611,2,0,B|288:152,1,160
400,152,49664,1,0
472,256,50190,1,0
352,288,50717,2,2,B|320:320|272:304,3,80
278,305,51769,1,2
256,176,52295,5,8
256,112,52559,1,8
256,48,52822,1,8
136,40,53348,5,8
88,88,53611,1,8
40,136,53874,2,8,B|24:232|120:264,1,160
240,264,54927,5,4
360,232,55453,1,0
424,216,55717,5,0
472,168,55980,2,0,B|456:80|352:56,3,160
304,56,57822,2,8,B|264:24|216:64,3,80
264,112,58874,1,8
104,216,59664,5,2
192,304,60190,1,2
320,320,60717,1,2
256,192,61243,12,4,63348
80,192,72032,6,0,B|112:248|160:288|288:304|376:272|432:192,1,400,0|8
376,80,73874,1,0
312,80,74138,1,0
248,80,74401,1,0
184,80,74664,2,0,B|128:96|88:136|96:208,1,160
120,256,75453,5,0
96,312,75717,2,2,B|152:344|224:336|256:312,1,160
319,207,76769,2,2,B|347:173|379:189|387:237|435:237|459:197,1,160
455,72,77822,2,2,B|429:106|397:90|389:41|341:41|317:80,1,160
192,80,78874,1,4
128,80,79138,5,4
128,208,79664,1,4
128,328,80190,6,0,B|304:328,2,160
128,200,81769,1,0
192,200,82032,1,0
256,200,82296,1,0
336,96,82822,5,2
464,96,83348,1,2
400,200,83874,1,2
336,200,84138,1,0
336,264,84401,6,0,B|168:264,2,160
456,264,85980,1,0
456,200,86243,1,0
288,96,87032,5,2
168,144,87559,1,2
96,248,88085,1,2
256,192,88611,12,4,90190
176,192,90717,6,4,B|256:152|344:200,3,160
256,88,92822,1,4
128,88,93348,5,0
80,128,93611,1,0
32,168,93874,2,0,B|16:216|72:248,3,80
104,280,94927,2,0,B|136:312|192:320|248:304|272:280,1,160
368,240,95980,1,0
432,128,96506,1,0
304,128,97032,6,2,B|216:128,3,80
224,128,98085,1,2
120,200,98611,5,8
168,248,98874,1,8
216,296,99138,1,8
344,296,99664,1,8
392,248,99927,1,8
440,200,100190,2,8,B|440:32,1,160
312,40,101243,5,4
184,40,101769,1,0
120,64,102032,1,0
88,120,102296,2,0,B|64:184|104:256|160:264,3,160
192,288,104138,2,0,B|224:320|272:312,3,80
265,312,105190,6,2,B|328:312|376:280|400:224,1,160
424,176,105980,1,2
440,112,106243,2,2,B|464:72|432:24,3,80
439,35,107296,1,2
256,192,108085,12,4,109664
176,192,110190,6,0,B|344:192,2,160
176,128,111506,1,0
176,64,111769,2,0,B|360:64,1,160
448,120,112822,5,0
424,248,113348,1,0
336,320,113874,2,2,B|296:344|248:320,3,80
259,324,114927,1,2
184,232,115453,5,8
120,232,115717,1,8
56,232,115980,1,8
56,104,116506,1,8
120,104,116769,1,8
184,104,117032,2,8,B|360:104,1,160
440,184,118085,5,4
376,296,118611,1,0
320,328,118874,1,0
256,336,119138,2,0,B|201:361|137:337|113:281,3,160
168,256,120980,2,0,B|200:288|248:272,3,80
296,248,122032,6,0,B|344:240|376:208|384:168|381:140|368:112|352:88|320:72|280:80,1,240
240,80,123085,1,2
176,79,123348,2,2,B|120:88|96:112|96:160|120:208,1,160
256,192,124401,12,4,126506
160,56,135190,6,0,B|160:152,5,80
336,56,137296,2,2,B|336:152,5,80
408,312,139401,6,0,B|312:312,1,80
264,312,139927,1,0
200,312,140190,2,0,B|144:312|80:280|56:224,1,160
256,192,141243,12,4,143348
256,192,143874,5,0
256,72,144401,1,0
128,72,144927,1,0
88,120,145190,1,0
128,168,145453,1,0
168,296,145980,5,2
296,320,146506,1,2
408,256,147032,1,2
440,200,147296,1,0
464,144,147559,6,0,B|440:64|336:64|312:64,2,160
352,200,149138,1,0
288,200,149401,1,0
128,304,150190,5,2
56,192,150717,1,2
128,80,151243,1,2
256,72,151769,5,0
384,72,152296,1,8
384,200,152822,1,0
256,200,153348,1,8
256,328,153874,1,0
128,328,154401,1,8
128,200,154927,1,0
128,72,155453,1,8
192,72,155717,6,8,B|288:72,2,80
352,176,157032,1,2
368,232,157296,1,2
344,288,157559,1,2
296,328,157822,1,2
256,192,158085,12,4,160190
384,88,160717,5,0
432,128,160980,1,0
480,168,161243,2,0,B|496:216|440:248,3,80
408,280,162296,2,0,B|376:312|320:320|264:304|240:280,1,160
144,240,163348,1,0
80,128,163874,1,0
208,128,164401,6,2,B|296:128,3,80
288,128,165453,1,2
392,200,165980,5,8
344,248,166243,1,8
296,296,166506,1,8
168,296,167032,1,8
120,248,167296,1,8
72,200,167559,2,8,B|72:32,1,160
200,40,168611,5,4
328,40,169138,1,0
392,64,169401,1,0
424,120,169664,2,0,B|448:184|408:256|352:264,3,160
320,288,171506,2,0,B|288:320|240:312,3,80
247,312,172559,6,2,B|184:312|136:280|112:224,1,160
88,176,173348,1,2
72,112,173611,2,2,B|48:72|80:24,3,80
73,35,174664,1,2
256,192,175453,12,4,177032
256,192,177559,6,0,B|88:192,2,160
256,128,178874,1,0
256,64,179138,2,0,B|416:64,1,160
464,184,180190,5,0
384,280,180717,1,0
264,328,181243,2,2,B|224:352|176:328,3,80
187,332,182296,1,2
184,200,182822,5,8
120,200,183085,1,8
56,200,183348,1,8
56,72,183874,1,8
120,72,184138,1,8
184,72,184401,2,8,B|360:72,1,160
424,168,185453,5,4
360,280,185980,1,0
304,312,186243,1,0
240,328,186506,2,0,B|185:353|121:329|97:273,3,160
152,248,188348,2,0,B|184:280|232:264,3,80
288,248,189401,6,0,B|336:240|368:208|376:168|373:140|360:112|344:88|312:72|272:80,1,240
232,80,190453,1,2
168,80,190717,2,2,B|130:104|130:152|178:160|194:192|159:219,1,160
256,192,191769,12,4,193874
