osu file format v14

[General]
AudioFilename: Uptown Funk ft. Waluigi.mp3
AudioLeadIn: 0
PreviewTime: -1
Countdown: 1
SampleSet: None
StackLeniency: 0.7
Mode: 0
LetterboxInBreaks: 0
WidescreenStoryboard: 1

[Editor]
Bookmarks: 104192,104974,105235,106018,106539,108626,173322
DistanceSpacing: 1
BeatDivisor: 4
GridSize: 16
TimelineZoom: 1

[Metadata]
Title:Uptown Funk ft. Waluigi
TitleUnicode:Uptown Funk ft. Waluigi
Artist:Mark Ronson
ArtistUnicode:Mark Ronson
Creator:Dizzy Future
Version:Hard
Source:
Tags:
BeatmapID:670601
BeatmapSetID:298846

[Difficulty]
HPDrainRate:6
CircleSize:5
OverallDifficulty:6
ApproachRate:6
SliderMultiplier:1.4
SliderTickRate:1

[Events]
//Background and Video events
0,0,"Waluigi.full.1535438.jpg",0,0
//Break Periods
2,66044,72098
//Storyboard Layer 0 (Background)
//Storyboard Layer 1 (Fail)
//Storyboard Layer 2 (Pass)
//Storyboard Layer 3 (Foreground)
//Storyboard Sound Samples

[TimingPoints]
8453,521.739130434783,4,1,0,100,1,0
8553,-100,4,1,0,100,0,0
58539,-100,4,1,0,100,0,1
91931,-100,4,1,0,100,0,0
133670,-100,4,1,0,100,0,1
167049,-100,4,1,0,100,0,0

[Colours]
Combo1 : 46,46,46
Combo2 : 64,0,128
Combo3 : 146,36,255
Combo4 : 255,255,0

[HitObjects]
45,217,16800,6,0,L|173:297,1,140
213,340,17583,1,0,0:0:0:0:
240,272,17844,2,0,L|333:206,1,105
298,313,18626,2,0,P|320:336|365:354,1,70
464,352,19279,1,0,0:0:0:0:
488,327,19409,1,0,0:0:0:0:
480,256,19539,1,0,0:0:0:0:
464,224,19670,1,0,0:0:0:0:
416,176,19931,2,0,P|357:115|277:131,1,140
306,185,20713,5,0,0:0:0:0:
235,185,20974,1,0,0:0:0:0:
235,255,21235,1,0,0:0:0:0:
305,255,21496,1,0,0:0:0:0:
234,255,21757,1,0,0:0:0:0:
184,304,22018,2,0,L|120:240,1,70
134,324,22539,2,0,L|54:269,1,70,0|0,0:3|0:0,0:0:0:0:
76,214,23061,1,0,0:0:0:0:
76,143,23322,1,0,0:0:0:0:
125,192,23583,1,0,0:0:0:0:
152,169,23844,2,0,L|120:124,4,35
102,119,24626,5,0,0:0:0:0:
131,44,24887,1,0,0:0:0:0:
176,96,25148,2,0,P|227:47|293:49,1,140
255,117,25931,1,0,0:0:0:0:
255,186,26192,2,0,P|324:168|357:112,1,140
448,224,27235,2,0,L|512:208,2,35
384,256,27757,1,0,0:0:0:0:
320,224,28018,1,0,0:0:0:0:
272,272,28279,2,0,B|352:320|352:320|368:368,1,140
288,352,29061,5,0,0:0:0:0:
261,383,29322,2,0,B|208:352|160:368|160:368|128:332,1,140
192,288,30105,1,0,0:0:0:0:
128,272,30366,2,0,P|50:233|100:145,1,210
128,144,31279,1,0,0:0:0:0:
160,160,31409,1,0,0:0:0:0:
112,208,31670,1,0,0:0:0:0:
182,208,31931,1,0,0:0:0:0:
224,144,32192,1,0,0:0:0:0:
256,80,32453,1,0,0:0:0:0:
288,80,32583,1,0,0:0:0:0:
320,96,32713,1,0,0:0:0:0:
320,96,32974,6,0,B|272:144|272:144|192:144|192:112|192:112|192:112,1,140
33,88,34018,1,0,0:0:0:0:
83,40,34278,1,0,0:0:0:0:
147,14,34539,1,0,0:0:0:0:
217,5,34800,1,0,0:0:0:0:
286,13,35061,1,0,0:0:0:0:
353,34,35322,1,0,0:0:0:0:
416,64,35583,6,0,P|431:109|400:208,1,140
464,224,36366,1,0,0:0:0:0:
473,285,36626,2,0,P|458:337|368:368,1,140
352,304,37409,2,0,P|320:320|304:352,1,70
240,320,37931,6,0,L|277:260,1,70
240,208,38453,2,0,L|203:268,1,70
144,304,38974,1,0,0:0:0:0:
119,271,39105,1,0,0:0:0:0:
94,246,39235,1,0,0:0:0:0:
69,221,39366,2,0,L|47:169,2,35
112,112,39757,6,0,P|139:178|214:212,1,140
191,126,40539,1,0,0:0:0:0:
192,48,40800,2,0,P|262:72|262:136,1,140
336,96,41583,1,0,0:0:0:0:
352,16,41844,1,0,0:0:0:0:
422,0,42105,5,0,0:0:0:0:
452,62,42365,1,0,0:0:0:0:
462,131,42626,1,0,0:0:0:0:
442,197,42887,1,0,0:0:0:0:
391,245,43148,1,0,0:0:0:0:
296,287,43409,2,0,P|255:322|216:323,1,70
240,324,43931,1,0,0:0:0:0:
219,274,44061,5,0,0:0:0:0:
144,288,44322,1,0,0:0:0:0:
119,263,44453,1,0,0:0:0:0:
94,238,44583,1,0,0:0:0:0:
77,268,44713,1,0,0:0:0:0:
77,338,44974,1,0,0:0:0:0:
42,343,45105,2,0,L|2:298,3,35
16,228,45757,2,0,P|0:189|9:142,2,70
87,228,46409,2,0,B|70:159|70:159|102:143|102:143|138:41|138:41|169:79|231:79|231:79|265:127|265:127|291:86|304:112,1,420
349,233,48235,2,0,P|399:187|401:119,1,140
347,60,49148,1,0,0:0:0:0:
397,110,49409,1,0,0:0:0:0:
434,169,49670,1,0,0:0:0:0:
434,239,49931,1,0,0:0:0:0:
397,299,50192,1,0,0:0:0:0:
347,348,50453,6,0,P|306:348|270:323,1,70
281,264,50974,2,0,L|340:292,5,35
272,191,51757,2,0,P|183:181|132:195,1,140
193,357,52539,5,0,0:0:0:0:
193,286,52800,2,0,L|252:314,5,35
191,218,53583,2,0,P|105:243|63:276,1,140
66,273,54366,1,0,0:0:0:0:
51,199,54496,6,0,P|17:192|0:164,1,70
49,113,55018,2,0,L|17:97,5,35
126,67,55670,1,0,0:0:0:0:
126,67,55931,2,0,P|209:49|263:63,1,140
261,132,56713,1,0,0:0:0:0:
310,181,56974,1,0,0:0:0:0:
260,230,57235,1,0,0:0:0:0:
210,279,57496,1,0,0:0:0:0:
234,303,57626,1,0,0:0:0:0:
266,315,57757,1,0,0:0:0:0:
300,315,57887,1,0,0:0:0:0:
474,315,58539,5,0,0:0:0:0:
424,265,58800,1,0,0:0:0:0:
473,215,59061,1,0,0:0:0:0:
474,315,59322,1,0,0:0:0:0:
424,265,59583,1,0,0:0:0:0:
374,215,59844,1,0,0:0:0:0:
473,215,60105,1,0,0:0:0:0:
421,163,60366,1,0,0:0:0:0:
470,113,60626,5,0,0:0:0:0:
421,163,60887,1,0,0:0:0:0:
371,113,61148,1,0,0:0:0:0:
371,113,61409,1,0,0:0:0:0:
420,63,61670,1,0,0:0:0:0:
470,113,61931,1,0,0:0:0:0:
420,63,62192,1,0,0:0:0:0:
370,13,62453,1,0,0:0:0:0:
320,62,62713,5,0,0:0:0:0:
370,13,62974,1,0,0:0:0:0:
320,62,63235,1,0,0:0:0:0:
270,12,63496,1,0,0:0:0:0:
220,61,63757,1,0,0:0:0:0:
270,12,64018,1,0,0:0:0:0:
220,61,64279,1,0,0:0:0:0:
170,11,64539,1,0,0:0:0:0:
220,61,64800,1,0,0:0:0:0:
256,192,65844,1,0,3:0:0:0:
257,193,73148,5,0,0:0:0:0:
207,242,73409,1,0,0:0:0:0:
182,217,73539,1,0,0:0:0:0:
132,167,73800,1,0,0:0:0:0:
156,142,73931,1,0,0:0:0:0:
205,92,74192,2,0,L|245:75,8,35,0|0|0|0|0|0|0|0|0,0:3|0:3|0:3|0:3|0:3|0:3|0:3|0:3|0:3,0:3:0:0:
254,141,75496,6,0,L|320:192,1,70
320,112,76018,2,0,L|383:163,2,70
368,64,76800,2,0,L|421:113,1,70
369,161,77322,1,0,0:0:0:0:
320,210,77583,5,0,3:0:0:0:
369,259,77844,1,0,0:0:0:0:
319,308,78105,1,0,0:0:0:0:
269,258,78366,1,0,0:0:0:0:
269,258,78626,1,0,0:0:0:0:
219,208,78887,1,0,0:0:0:0:
169,257,79148,1,0,0:0:0:0:
218,306,79409,1,0,0:0:0:0:
160,352,79670,1,0,0:0:0:0:
160,352,79931,1,0,0:0:0:0:
110,302,80192,1,0,0:0:0:0:
110,302,80453,1,0,0:0:0:0:
60,252,80713,1,0,0:0:0:0:
60,252,80974,1,0,0:0:0:0:
60,181,81235,1,0,0:0:0:0:
60,181,81496,1,0,0:0:0:0:
109,131,81757,5,0,0:0:0:0:
144,139,81887,1,0,0:0:0:0:
214,139,82148,1,0,0:0:0:0:
207,173,82279,1,0,0:0:0:0:
277,173,82540,2,0,L|319:165,8,35,0|0|0|0|0|0|0|0|0,0:3|0:3|0:3|0:3|0:3|0:3|0:3|0:3|0:3,0:3:0:0:
277,102,83713,1,0,0:0:0:0:
252,77,83844,1,0,0:0:0:0:
227,52,83974,1,0,0:0:0:0:
332,52,84366,1,0,0:0:0:0:
401,52,84626,2,0,L|441:35,8,35,0|0|0|0|0|0|0|0|0,0:3|0:3|0:3|0:3|0:3|0:3|0:3|0:3|0:3,0:3:0:0:
401,122,85801,5,0,0:0:0:0:
426,147,86061,1,0,0:0:0:0:
450,171,86192,1,0,0:0:0:0:
400,220,86453,1,0,0:0:0:0:
449,269,86714,2,0,L|481:255,8,35,0|0|0|0|0|0|0|0|0,0:3|0:3|0:3|0:3|0:3|0:3|0:3|0:3|0:3,0:3:0:0:
399,318,87887,5,0,0:0:0:0:
368,334,88148,1,0,0:0:0:0:
332,334,88279,1,0,0:0:0:0:
361,241,88540,1,0,0:0:0:0:
311,191,88801,2,0,L|351:174,4,35,0|0|0|0|0,0:3|0:3|0:3|0:3|0:3,0:3:0:0:
261,141,89583,1,0,0:0:0:0:
161,240,90105,1,0,0:0:0:0:
259,338,90626,1,0,0:0:0:0:
358,238,91148,2,0,P|396:196|367:124,1,140
319,174,91931,1,0,0:0:0:0:
256,192,92453,12,0,93496,0:0:0:0:
256,192,94018,5,0,0:0:0:0:
206,241,94279,1,0,0:0:0:0:
255,290,94539,1,0,0:0:0:0:
304,240,94800,1,0,0:0:0:0:
255,290,95061,1,0,0:0:0:0:
304,339,95192,2,0,L|345:347,3,35
387,296,95844,1,0,0:0:0:0:
436,246,96105,6,0,P|409:164|354:128,1,140
318,182,96887,1,0,0:0:0:0:
265,129,97148,2,0,P|200:163|164:219,1,140
65,316,98192,2,0,L|132:341,2,70
65,245,98974,1,0,0:0:0:0:
15,195,99235,1,0,0:0:0:0:
64,145,99496,2,0,B|91:104|91:104|123:105,1,70
182,104,100018,1,0,0:0:0:0:
231,153,100279,5,0,0:0:0:0:
231,153,100539,2,0,P|256:96|336:96,1,140
376,139,101322,2,0,L|371:210,2,70
446,139,102105,1,0,0:0:0:0:
446,209,102366,1,0,0:0:0:0:
432,241,102496,1,0,0:0:0:0:
432,241,102626,2,0,L|368:304,1,70
276,290,103279,1,0,0:0:0:0:
251,314,103409,1,0,0:0:0:0:
216,314,103539,1,0,0:0:0:0:
191,289,103670,1,0,0:0:0:0:
166,264,103800,1,0,0:0:0:0:
91,338,104192,6,0,P|1:266|13:165,1,210
74,179,105235,2,0,B|137:241|143:299|143:299|208:336,1,210,0|0,0:0|0:0,0:3:0:0:
252,283,106279,1,0,0:0:0:0:
252,213,106539,2,0,L|282:229,4,35
181,213,107322,1,0,0:0:0:0:
131,163,107583,2,0,L|90:102,2,70
192,96,108366,6,0,B|240:144|240:144|320:144|320:112|320:112|320:112,1,140
379,130,109148,1,0,0:0:0:0:
329,80,109409,1,0,0:0:0:0:
279,30,109670,1,0,0:0:0:0:
208,30,109931,1,0,0:0:0:0:
137,30,110192,1,0,0:0:0:0:
87,79,110453,1,0,0:0:0:0:
37,128,110713,6,0,P|22:173|53:272,1,140
93,210,111496,1,0,0:0:0:0:
142,259,111757,2,0,P|185:290|275:259,1,140
314,321,112539,2,0,B|348:337|348:337|362:369,1,70
410,316,113061,6,0,L|373:256,1,70
443,256,113583,2,0,L|406:196,1,70
476,196,114115,1,0,0:0:0:0:
470,159,114235,1,0,0:0:0:0:
446,133,114366,1,0,0:0:0:0:
422,107,114496,2,0,L|371:82,2,35
372,156,115018,6,0,P|345:222|270:256,1,140
287,149,115800,1,0,0:0:0:0:
287,78,116192,2,0,P|217:102|217:166,1,140
143,159,116974,1,0,0:0:0:0:
143,88,117235,5,0,0:0:0:0:
93,38,117496,1,0,0:0:0:0:
43,87,117757,1,0,0:0:0:0:
43,157,118018,1,0,0:0:0:0:
43,227,118279,1,0,0:0:0:0:
92,276,118539,1,0,0:0:0:0:
141,325,118800,2,0,P|182:360|221:361,1,70
246,313,119322,5,0,0:0:0:0:
316,313,119583,1,0,0:0:0:0:
368,272,119713,1,0,0:0:0:0:
393,247,119843,1,0,0:0:0:0:
418,222,119973,1,0,0:0:0:0:
426,243,120103,1,0,0:0:0:0:
426,313,120365,1,0,0:0:0:0:
461,313,120496,2,0,L|501:268,3,35
498,254,121018,2,0,P|514:215|505:168,2,70
425,228,121800,2,0,B|442:159|442:159|410:143|410:143|374:41|374:41|343:79|281:79|281:79|247:127|247:127|221:86|208:112,1,420
163,233,123626,2,0,P|113:187|111:119,1,140
165,60,124409,1,0,0:0:0:0:
115,110,124670,1,0,0:0:0:0:
78,169,124931,1,0,0:0:0:0:
78,239,125192,1,0,0:0:0:0:
115,299,125453,1,0,0:0:0:0:
347,348,125714,6,0,P|306:348|270:323,1,70
281,264,126235,2,0,L|340:292,5,35
272,191,127018,2,0,P|183:181|144:192,1,105
193,357,127931,5,0,0:0:0:0:
193,286,128192,2,0,L|252:314,5,35
191,218,128974,2,0,P|105:243|63:276,1,140
51,199,129757,6,0,P|17:192|0:164,1,70
49,113,130279,2,0,L|17:97,5,35
126,67,131192,2,0,P|209:49|240:64,1,105
275,104,131844,5,0,0:0:0:0:
226,153,132105,1,0,0:0:0:0:
276,202,132366,1,0,0:0:0:0:
325,251,132626,1,0,0:0:0:0:
349,227,132756,1,0,0:0:0:0:
373,203,132887,1,0,0:0:0:0:
397,179,133017,1,0,0:0:0:0:
512,55,133670,5,0,0:0:0:0:
462,104,133931,1,0,0:0:0:0:
412,54,134192,1,0,0:0:0:0:
461,103,134453,1,0,0:0:0:0:
411,152,134714,1,0,0:0:0:0:
361,201,134975,5,0,0:0:0:0:
431,201,135236,1,0,0:0:0:0:
431,271,135497,1,0,0:0:0:0:
361,271,135757,1,0,0:0:0:0:
431,271,136018,5,0,0:0:0:0:
431,200,136279,1,0,0:0:0:0:
431,270,136540,1,0,0:0:0:0:
420,321,136801,1,0,0:0:0:0:
490,321,137062,1,0,0:0:0:0:
419,321,137323,1,0,0:0:0:0:
370,371,137584,1,0,0:0:0:0:
320,322,137844,1,0,0:0:0:0:
369,371,138105,1,0,0:0:0:0:
320,322,138366,1,0,0:0:0:0:
270,372,138627,1,0,0:0:0:0:
220,323,138888,1,0,0:0:0:0:
270,372,139149,5,0,0:0:0:0:
220,323,139410,1,0,0:0:0:0:
170,373,139670,1,0,0:0:0:0:
220,323,139931,1,0,0:0:0:0:
256,192,140192,12,0,141496,3:0:0:0:
251,197,142018,6,0,L|185:248,1,70
185,168,142540,2,0,L|122:219,2,70
137,120,143322,2,0,L|84:169,1,70
136,217,143844,1,0,0:0:0:0:
185,266,144105,1,0,3:0:0:0:
136,315,144366,1,0,0:0:0:0:
186,364,144627,1,0,0:0:0:0:
236,314,144888,1,0,0:0:0:0:
236,314,145148,1,0,0:0:0:0:
285,363,145409,1,0,0:0:0:0:
334,313,145670,1,0,0:0:0:0:
285,363,145931,1,0,0:0:0:0:
334,313,146192,1,0,0:0:0:0:
432,214,146713,5,0,0:0:0:0:
332,114,147235,1,0,0:0:0:0:
472,114,147757,1,0,0:0:0:0:
372,14,148279,1,0,0:0:0:0:
322,63,148539,1,0,0:0:0:0:
297,38,148670,1,0,0:0:0:0:
262,38,148800,1,0,0:0:0:0:
237,62,148931,1,0,0:0:0:0:
212,86,149061,1,0,0:0:0:0:
162,135,149322,6,0,B|75:141|84:141,1,70
42,189,149844,2,0,L|72:229,4,35
112,189,150626,2,0,L|178:240,1,70
178,160,151148,2,0,L|241:211,2,70
226,112,151930,2,0,L|279:161,1,70
327,209,152453,1,0,0:0:0:0:
425,110,152974,1,0,0:0:0:0:
512,209,153496,1,0,0:0:0:0:
412,308,154018,1,0,0:0:0:0:
412,203,154279,1,0,0:0:0:0:
412,203,154539,1,0,0:0:0:0:
312,103,155061,5,0,0:0:0:0:
212,202,155583,1,0,0:0:0:0:
352,202,156105,1,0,0:0:0:0:
281,202,156366,1,0,0:0:0:0:
281,202,156626,1,0,0:0:0:0:
281,272,156887,1,0,0:0:0:0:
281,306,157017,1,0,0:0:0:0:
210,306,157278,1,0,0:0:0:0:
185,330,157409,1,0,0:0:0:0:
135,280,157670,2,0,L|93:272,8,35,0|0|0|0|0|0|0|0|0,0:3|0:3|0:3|0:3|0:3|0:3|0:3|0:3|0:3,0:3:0:0:
159,255,158843,5,0,0:0:0:0:
184,230,158974,1,0,0:0:0:0:
209,205,159104,1,0,0:0:0:0:
103,205,159496,1,0,0:0:0:0:
32,196,159756,2,0,L|-8:179,8,35,0|0|0|0|0|0|0|0|0,0:3|0:3|0:3|0:3|0:3|0:3|0:3|0:3|0:3,0:3:0:0:
57,170,160931,5,0,0:0:0:0:
130,96,161321,1,0,0:0:0:0:
154,71,161452,1,0,0:0:0:0:
178,46,161583,1,0,0:0:0:0:
252,120,161974,2,0,L|220:106,8,35,0|0|0|0|0|0|0|0|0,0:3|0:3|0:3|0:3|0:3|0:3|0:3|0:3|0:3,0:3:0:0:
276,144,163148,5,0,0:0:0:0:
300,168,163279,1,0,0:0:0:0:
300,202,163409,1,0,0:0:0:0:
349,251,163670,1,0,0:0:0:0:
299,300,163931,2,0,L|267:286,6,35,0|0|0|0|0|0|0,0:3|0:3|0:3|0:3|0:3|0:3|0:3,0:3:0:0:
249,349,164974,5,0,0:0:0:0:
199,299,165496,1,0,0:0:0:0:
99,199,166018,1,0,0:0:0:0:
208,112,166539,2,0,P|256:128|336:176,1,140
