osu file format v14

[General]
AudioFilename: Mark Ronson - Uptown Funk (feat. Bruno Mars).mp3
AudioLeadIn: 0
PreviewTime: 64874
Countdown: 0
SampleSet: Soft
StackLeniency: 0.6
Mode: 0
LetterboxInBreaks: 0
WidescreenStoryboard: 1

[Editor]
DistanceSpacing: 1
BeatDivisor: 2
GridSize: 4
TimelineZoom: 1.4

[Metadata]
Title:Uptown Funk (feat. Bruno Mars)
TitleUnicode:Uptown Funk (feat. Bruno Mars)
Artist:Mark Ronson
ArtistUnicode:Mark Ronson
Creator:Maeglwn
Version:Beginner
Source:
Tags:
BeatmapID:674907
BeatmapSetID:291766

[Difficulty]
HPDrainRate:2
CircleSize:3
OverallDifficulty:2
ApproachRate:4
SliderMultiplier:1.2
SliderTickRate:2

[Events]
//Background and Video events
0,0,"maxresdefault.jpg",0,0
Video,-151,"test.avi"
//Break Periods
//Storyboard Layer 0 (Background)
//Storyboard Layer 1 (Fail)
//Storyboard Layer 2 (Pass)
//Storyboard Layer 3 (Foreground)
//Storyboard Sound Samples

[TimingPoints]
309,521.739130434783,4,2,1,100,1,0
58743,-100,4,2,1,20,0,0
65004,-100,4,2,1,100,0,0
67091,-100,4,2,1,100,0,1
92135,-100,4,2,1,100,0,0
125526,-111.111111111111,4,2,1,100,0,0
133874,-111.111111111111,4,2,1,20,0,0
140135,-100,4,2,1,100,0,0
142222,-100,4,2,1,100,0,1
167265,-111.111111111111,4,2,1,100,0,0
192309,-100,4,2,1,100,0,0
209004,-100,4,2,1,100,0,1
234048,-100,4,2,1,100,0,0

[Colours]
Combo1 : 128,64,64
Combo2 : 244,74,227
Combo3 : 192,192,192
Combo4 : 255,225,136

[HitObjects]
256,128,309,5,0,0:0:0:0:
160,200,830,2,0,P|256:252|360:192,1,240
256,128,2395,6,0,B|200:68|132:88|132:88|72:84|84:4,2,240
356,196,5004,5,0,0:0:0:0:
164,340,6048,1,0,0:0:0:0:
96,244,6569,6,0,B|72:188|72:188|104:152|88:128,1,120
196,76,7613,2,0,B|220:132|220:132|188:168|204:192,1,120
300,248,8656,6,0,B|384:252|384:252|396:144|496:144,2,240
180,240,11265,6,0,P|140:188|156:112,1,120
224,48,12309,1,0,0:0:0:0:
284,152,12830,5,0,0:0:0:0:
352,52,13352,2,0,P|404:148|332:260,1,240
232,296,14917,6,0,B|180:328|180:328|140:296|100:320,1,120
68,204,15961,2,0,B|120:172|120:172|160:204|200:180,1,120
280,248,17004,6,0,P|324:280|404:264,2,120
200,160,18569,1,0,0:0:0:0:
280,72,19091,6,0,B|368:56|368:56|380:72|404:72,1,120
460,172,20135,2,0,B|372:188|372:188|360:172|336:172,1,120
280,72,21178,6,0,P|216:60|152:92,2,120
232,180,22743,1,0,0:0:0:0:
180,288,23265,6,0,P|244:300|308:268,1,120
392,212,24309,2,0,B|432:192|432:192|408:156|428:112,1,120
332,44,25352,6,0,B|292:64|292:64|316:100|296:144,1,120
180,128,26395,2,0,B|220:108|220:108|196:72|216:28,1,120
100,84,27439,6,0,P|92:148|136:208,1,120
196,288,28482,1,0,0:0:0:0:
280,200,29004,1,0,0:0:0:0:
320,312,29526,6,0,P|364:284|396:212,2,120
280,200,31092,2,0,B|290:150|290:150|249:138|240:91,1,120
136,59,32135,1,0,0:0:0:0:
92,172,32657,2,0,B|93:207|55:227|55:227|76:273,1,120
168,348,33700,6,0,P|220:364|292:340,2,120
68,284,35265,1,0,0:0:0:0:
140,188,35787,2,0,P|190:144|251:132,1,120
341,195,36830,2,0,P|290:238|229:250,1,120
128,308,37874,6,0,P|238:348|348:306,1,240
408,204,39439,1,0,0:0:0:0:
340,116,39961,2,0,B|288:116|288:116|256:132|256:132|196:132,1,120
220,252,41004,2,0,B|272:252|272:252|304:268|304:268|364:268,1,120
412,176,42048,6,0,P|432:100|384:32,2,120
348,276,43613,1,0,0:0:0:0:
252,204,44135,2,0,P|196:188|128:212,1,120
196,312,45178,1,0,0:0:0:0:
252,204,45700,1,0,0:0:0:0:
308,312,46222,6,0,P|368:336|432:328,2,120
204,252,47787,1,0,0:0:0:0:
248,140,48309,2,0,B|288:124|288:124|324:68|392:84,1,120
392,192,49352,2,0,B|352:208|352:208|316:264|248:248,1,120
180,204,50395,6,0,P|112:164|104:92,3,120
212,88,52482,6,0,P|280:128|288:200,3,120
232,268,54569,2,0,B|244:296|244:296|284:292|340:336,3,120
444,300,56656,2,0,L|480:236,6,60
336,352,58743,6,0,P|279:367|223:347,2,120
284,244,60309,1,0,0:0:0:0:
232,136,60830,6,0,P|288:120|344:140,2,120
284,244,62396,1,0,0:0:0:0:
