osu file format v5

[General]
AudioFilename: ducktales theme (TV Edit).mp3
AudioLeadIn: 0
PreviewTime: -1
Countdown: 0
SampleSet: Normal
StackLeniency: 0.7
Mode: 0
LetterboxInBreaks: 1
EditorBookmarks: 20664,34236,42379,58665
EditorDistanceSpacing: 0.899999976158142

[Metadata]
Title:DuckTales Theme (TV Edit)
Artist:Mark Muller
Creator:K2J
Version:Uncle Donald
Source:Disney's DuckTales
Tags:tv scrooge

[Difficulty]
HPDrainRate:2
CircleSize:4
OverallDifficulty:3
SliderMultiplier:1.1
SliderTickRate:1

[Events]
//Background and Video events
0,0,"ducktales.jpg"
1,0,"ducktales theme (TV Edit).avi"
//Break Periods
//Storyboard Layer 0 (Background)
//Storyboard Layer 1 (Failing)
//Storyboard Layer 2 (Passing)
//Storyboard Layer 3 (Foreground)
//Storyboard Sound Samples
//Background Colour Transformations
3,100,0,0,0

[TimingPoints]
4409,339.55857385399,4,1,0,25,1,0
32931,-100,4,2,0,25,0,0
34290,-100,4,1,0,25,0,0

[Colours]
Combo1 : 0,0,255
Combo2 : 255,0,0
Combo3 : 0,128,0
Combo4 : 255,0,255

[HitObjects]
104,72,4409,1,0
200,72,4748,1,0
296,72,5088,1,0
392,72,5427,1,0
392,168,5767,2,2,B|336:160|280:144|280:144|288:200|328:232|328:232|232:224|192:224,1,330
112,224,7125,5,8
112,72,7634,1,0
360,72,8483,1,8
360,224,8993,1,0
168,56,9841,6,0,B|168:168,1,110
168,264,10521,2,0,B|296:264,1,110
352,200,11200,1,0
408,280,11539,1,0
440,320,11709,2,2,B|496:232|432:168,1,165
368,96,12558,5,8
216,96,13067,1,0
216,344,13916,1,8
64,344,14425,1,0
240,40,15614,5,0
152,80,15953,1,0
240,128,16293,1,0
328,80,16633,2,2,B|360:40|400:40|424:72|424:72|424:120|392:120|392:192,1,220
392,240,17538,2,0,B|344:240,1,36.6666666666667
304,240,17821,2,0,B|176:248|128:192,1,165
56,160,18670,1,0
136,96,19010,1,0
216,32,19349,2,2,B|360:168,1,183.333333333333
256,368,20707,5,4
256,368,21047,1,0
64,304,21726,2,2,B|176:304,1,110
256,248,22405,1,8
256,248,22745,2,0,B|320:136,1,110,8|0
384,88,23424,5,0
288,88,23763,1,0
184,88,24103,1,8
88,88,24442,1,0
136,176,24782,1,0
192,256,25122,1,0
256,328,25461,2,8,B|256:192,1,110,8|0
256,120,26140,5,4
256,120,26480,1,0
440,56,27159,2,2,B|440:176,1,110
440,264,27838,1,0
440,264,28178,2,0,B|440:328|368:344,1,110
272,344,28857,5,0
176,344,29196,1,0
224,256,29536,1,0
224,160,29875,1,0
272,72,30215,1,8
176,72,30555,1,8
72,72,30894,2,8,B|72:200,1,110,8|8
72,280,31573,5,4
144,352,31913,1,0
440,352,32931,5,0
376,272,33271,1,2
312,192,33611,1,2
248,112,33950,1,6
104,24,34516,6,0,B|104:88,1,55
160,136,34969,2,0,B|40:136,1,110,0|0
64,232,35648,1,2
160,232,35987,1,2
256,232,36327,2,2,B|256:104,1,110
440,56,37346,6,0,B|440:136,1,73.3333333333333
440,160,37685,2,0,B|440:288,1,110
360,328,38364,1,2
256,328,38704,1,2
152,328,39043,1,2
256,328,39383,1,2
256,192,40062,12,0,42100
256,192,42439,5,4
256,192,42779,1,0
416,72,43458,1,2
416,72,43797,1,2
416,168,44137,1,8
320,168,44476,1,8
320,232,44703,1,8
320,232,44816,1,8
320,232,44986,6,0,B|136:232,1,165,8|0
56,232,45835,1,0
104,144,46174,1,0
200,144,46514,2,8,B|304:56|424:56,1,220,8|8
464,56,47419,1,2
464,56,47532,1,2
416,144,47872,5,4
312,144,48212,1,0
368,328,48891,2,2,B|368:216,1,110
376,16,49909,2,0,L|344:64|400:96|360:136|360:136|352:144,1,165
312,144,50588,6,0,L|200:144,1,110,0|0
200,240,51268,1,0
200,240,51607,1,0
96,240,51947,1,8
96,240,52286,1,8
96,136,52626,2,8,L|96:80|96:80|152:80,1,110
240,48,53305,5,4
336,48,53644,1,0
472,192,54324,2,2,B|432:232|368:232,1,110
320,232,54833,2,8,B|256:232,1,55
216,232,55173,2,0,L|160:232,1,55
112,232,55512,1,0
112,280,55682,1,2
176,352,56021,5,0
256,288,56361,1,0
336,352,56701,1,0
256,288,57040,1,0
256,192,57380,5,2
160,128,57719,1,0
64,64,58059,1,0
160,32,58398,1,0
160,128,58738,5,4
352,128,59077,1,4
256,192,59417,12,2,60436
