osu file format v5

[General]
AudioFilename: ducktales theme (TV Edit).mp3
AudioLeadIn: 0
PreviewTime: -1
Countdown: 0
SampleSet: Normal
StackLeniency: 0.7
Mode: 0
LetterboxInBreaks: 1
EditorBookmarks: 20664,26941,34236,42379,58665
EditorDistanceSpacing: 1.20000004768372

[Metadata]
Title:DuckTales Theme (TV Edit)
Artist:Mark Muller
Creator:K2J
Version:Great Uncle Scrooge
Source:Disney's DuckTales
Tags:tv scrooge

[Difficulty]
HPDrainRate:3
CircleSize:5
OverallDifficulty:6
SliderMultiplier:1.2
SliderTickRate:1

[Events]
//Background and Video events
0,0,"ducktales.jpg"
1,0,"ducktales theme (TV Edit).avi"
//Break Periods
//Storyboard Layer 0 (Background)
//Storyboard Layer 1 (Failing)
//Storyboard Layer 2 (Passing)
//Storyboard Layer 3 (Foreground)
//Storyboard Sound Samples
//Background Colour Transformations
3,100,0,0,0

[TimingPoints]
4409,339.55857385399,4,1,0,25,1,0
32879,-100,4,2,0,49,0,0
34236,-100,4,1,0,30,0,0
53305,-100,4,1,0,30,0,1

[Colours]
Combo1 : 0,0,255
Combo2 : 255,0,0
Combo3 : 0,128,0
Combo4 : 255,0,255

[HitObjects]
104,192,1692,1,0
248,192,2032,1,2
128,272,2371,1,0
272,272,2711,1,2
408,232,3050,1,0
408,96,3390,2,0,L|344:96,1,60,2|2
192,96,3899,1,2
192,96,4068,1,2
96,192,4409,5,0
192,288,4748,1,0
288,192,5088,1,0
384,288,5427,1,0
480,192,5767,2,2,B|440:128|384:88|352:88|336:120|288:120|360:224|368:264|472:208|376:152,1,360
256,80,7125,6,0,B|256:208,1,120
256,272,7634,2,0,B|184:344|88:264,1,180,0|8
256,80,8483,2,0,B|256:216,1,120,0|0
256,272,8993,2,0,B|328:344|424:264,1,180,0|8
448,128,9841,5,0
304,128,10181,1,0
160,128,10521,2,0,L|120:176|168:232,1,120
304,264,11200,1,0
448,264,11539,1,0
376,264,11709,2,0,B|377:308|361:356|281:380|257:348,1,180,0|0
168,264,12558,6,0,B|64:192,1,120
40,264,13067,2,0,B|-32:192|48:96,1,180,0|8
184,104,13916,2,0,B|288:176,1,120
312,112,14425,2,0,B|384:184|304:280,1,180,0|8
448,192,15274,1,0
448,32,15614,5,0
320,96,15953,1,0
192,32,16293,1,0
112,152,16633,2,2,B|136:120|200:128|216:160|216:160|208:208|168:208|168:288,1,240
168,360,17538,5,8
216,360,17651,1,8
312,360,17878,2,0,B|336:352|360:328|320:224,1,150
312,72,18670,2,0,B|176:72,1,120
192,216,19349,2,2,B|336:216,1,120
312,144,19858,2,2,B|312:336,1,180
256,184,20707,5,4
256,328,21047,1,0
256,88,21613,1,2
224,56,21726,2,2,B|256:32|304:32|360:56,1,120,2|2
344,224,22405,1,8
480,192,22745,1,8
432,112,22971,1,8
408,72,23084,1,8
368,8,23254,1,4
296,8,23424,6,0,B|168:8,1,120
72,104,24103,1,0
160,224,24442,1,0
352,224,24782,2,0,B|352:184|344:104|296:72|208:88|192:120,1,240,0|0
112,144,25688,1,2
72,176,25801,1,2
184,256,26140,5,4
328,256,26480,1,0
416,56,27046,1,2
448,24,27159,2,2,B|416:0|368:0|312:24,1,120
256,112,27838,1,0
256,256,28178,2,0,B|256:384,1,120
160,352,28744,1,0
160,304,28857,6,0,B|160:176,1,120
40,184,29536,2,0,B|168:184,1,120,0|0
256,72,30215,2,0,B|256:200,1,120,2|2
400,192,30894,2,0,B|400:64,1,120,2|2
320,192,31573,5,4
320,48,31913,1,0
320,264,32422,2,0,B|320:336,1,60
432,272,32931,5,0
336,208,33271,1,2
240,144,33611,1,2
136,88,33950,1,4
48,32,34290,5,0
48,128,34516,1,0
48,128,34629,1,0
48,200,34799,1,0
120,200,34969,2,0,B|120:336,1,120
264,320,35648,2,2,B|392:320,1,120
264,320,36327,2,2,B|128:320,1,120
256,56,37346,5,0
256,152,37572,1,0
256,104,37685,2,0,B|392:104,1,120
360,248,38364,2,2,B|288:352,1,120
152,248,39043,2,2,B|224:352,1,120
256,256,39609,5,0
256,216,39723,2,0,B|256:144,1,60,0|0
256,72,40062,5,0
352,72,40289,1,0
400,72,40402,1,0
256,192,40741,12,0,42100
152,160,42439,5,4
360,160,42779,1,0
256,352,43345,1,2
256,304,43458,2,2,B|256:168,1,120
256,40,44137,1,8
176,136,44476,1,8
336,136,44703,1,8
336,88,44816,1,8
424,24,45071,6,0,B|479:81|407:161,1,150,0|0
304,256,45835,1,0
208,128,46174,1,0
120,8,46514,2,0,B|120:136,2,120
208,8,47419,1,2
256,8,47532,1,2
256,256,47872,5,4
256,112,48212,1,0
464,224,48777,1,2
488,176,48891,2,2,B|512:208|512:256|488:312,1,120
384,216,49570,1,8
432,96,49909,1,0
416,136,50023,1,0
400,176,50136,1,0
384,216,50249,2,0,B|352:304,1,80
320,320,50588,6,0,B|232:232,1,120,0|0
151,151,51268,2,0,B|239:239,1,120,0|0
256,96,51947,2,0,B|344:8,1,120
256,96,52626,2,0,B|168:184,1,120,0|0
256,296,53305,5,4
256,152,53644,1,4
64,296,54210,1,2
64,248,54324,2,2,B|64:120,1,120
128,96,54833,1,8
184,136,55003,1,8
128,96,55173,1,0
168,72,55286,1,8
256,40,55512,1,2
320,72,55682,5,0
408,256,56022,1,0
256,352,56361,1,0
104,256,56701,1,0
256,160,57040,1,0
256,32,57380,2,2,B|256:-24|320:-24|320:48,1,120
256,160,58059,1,2
256,304,58398,5,0
136,112,58738,1,4
392,64,59078,1,4
256,192,59417,12,0,60096
256,120,60436,5,2
