osu file format v5

[General]
AudioFilename: Eureka On My Mind Reprise (EUREKA End Credits)[siled].mp3
AudioLeadIn: 0
PreviewTime: -1
Countdown: 0
SampleSet: Soft
StackLeniency: 0.7
Mode: 0
LetterboxInBreaks: 1
EditorBookmarks: 5011,12344
EditorDistanceSpacing: 2

[Metadata]
Title:Eureka On My Mind Reprise
Artist:Mark Mothersbaugh & John Enroth
Creator:The_Priest_In_Yellow
Version:A what-gate?
Source:EUReKA
Tags:

[Difficulty]
HPDrainRate:8
CircleSize:5
OverallDifficulty:7
SliderMultiplier:1.1
SliderTickRate:2

[Events]
//Background and Video events
0,0,"evreka.jpg"
//Break Periods
//Storyboard Layer 0 (Background)
//Storyboard Layer 1 (Failing)
//Storyboard Layer 2 (Passing)
//Storyboard Layer 3 (Foreground)
//Storyboard Sound Samples
//Background Colour Transformations
3,100,163,162,255

[TimingPoints]
1040,500.417014178482,4,2,0,20,1,0
2677,-100,4,2,0,31,0,0
4761,-100,4,2,0,50,0,0
47828,-100,4,2,0,35,0,0
48496,-100,4,2,0,20,0,0
49163,-100,4,2,0,10,0,0

[Colours]
Combo1 : 223,239,255
Combo2 : 0,91,183
Combo3 : 36,184,255

[HitObjects]
440,216,1040,5,0
440,72,1373,1,0
368,72,1540,1,0
216,72,1874,1,0
144,72,2040,1,0
288,72,2374,1,0
216,72,2541,1,0
72,72,2874,5,0
72,72,3041,1,0
160,192,3375,1,2
208,248,3542,2,0,B|256:304,2,55,2|0|0
112,136,4376,1,2
112,136,4542,1,2
256,136,4876,1,0
328,136,5043,5,0
480,144,5376,1,0
480,216,5543,1,0
416,344,5877,1,2
416,344,6044,1,2
192,344,6544,1,0
232,200,6878,1,2
232,200,7045,1,2
376,200,7378,1,4
40,56,9046,5,0
184,56,9380,1,0
400,56,9880,1,2
328,56,10047,1,2
400,264,10547,1,2
256,264,10881,1,2
328,264,11048,1,2
184,264,11381,1,4
184,192,11548,1,2
184,120,11715,1,2
184,192,11882,1,2
184,264,12049,1,2
256,24,12382,5,8
256,96,12549,1,8
256,312,13050,5,0
80,176,13550,1,0
296,176,14050,1,2
80,176,14551,1,2
256,48,15051,1,2
256,192,15385,1,0
256,120,15552,1,0
256,264,15885,2,0,B|203:305|153:261,1,110,0|2
160,192,16552,5,2
208,328,16887,1,2
208,328,17053,1,2
32,192,17553,6,0,B|32:72,1,110
178,82,18387,1,0
250,82,18554,1,0
469,82,19054,1,0
416,312,19555,1,8
272,312,19888,1,8
104,168,20389,5,2
32,168,20555,1,2
176,168,20889,1,2
248,168,21056,1,6
392,344,21556,5,0
248,168,22057,1,0
144,64,22390,1,8
72,64,22557,1,8
216,64,22891,1,8
288,64,23057,1,8
400,256,23558,1,0
256,256,23891,2,0,B|144:144,1,146.666666666667
40,48,24892,1,0
40,48,25059,1,4
40,192,25393,1,0
40,264,25560,5,0
256,264,26060,1,0
400,264,26394,1,2
328,264,26560,1,2
328,120,26894,5,2
328,192,27061,1,2
104,192,27561,1,0
328,192,28062,1,0
456,256,28395,1,2
456,256,28562,1,2
456,112,28896,1,2
456,112,29062,5,4
200,96,29563,1,0
200,312,30063,1,0
200,168,30397,1,8
200,240,30564,1,8
56,240,30897,1,8
128,240,31064,1,8
128,96,31398,1,0
128,96,31565,1,0
272,96,31898,2,2,B|408:96,2,128.333333333333,0|2|6
48,80,33566,5,0
224,208,34067,1,0
336,296,34400,1,2
400,336,34567,1,2
400,112,35067,1,2
176,104,35568,1,2
176,248,35901,1,2
40,72,36402,5,8
40,72,36569,1,8
464,80,36902,5,8
464,80,37069,1,8
256,152,37570,5,0
256,368,38070,1,0
144,176,38404,1,0
144,176,38570,1,0
24,48,38904,1,2
24,48,39071,1,2
200,48,39571,1,8
320,48,39905,2,2,B|320:192,1,110
320,232,40572,1,8
192,304,40906,1,2
264,304,41072,1,8
88,168,41573,5,0
256,16,42073,1,0
256,160,42407,1,2
256,160,42574,1,2
256,304,42907,1,2
256,304,43074,1,2
256,80,43575,1,0
64,184,44075,5,0
208,184,44409,1,2
208,112,44575,1,2
352,112,44909,1,2
352,184,45076,1,6
256,288,46077,5,8
256,64,46577,1,8
256,288,47077,1,12
480,192,48078,1,0
360,104,48412,1,2
304,56,48579,1,2
416,152,48912,1,2
360,104,49079,2,0,B|360:216,1,110,2|0
