osu file format v14

[General]
AudioFilename: au_revoir.mp3
AudioLeadIn: 0
PreviewTime: 50148
Countdown: 0
SampleSet: Soft
StackLeniency: 0.3
Mode: 0
LetterboxInBreaks: 0
WidescreenStoryboard: 0

[Editor]
Bookmarks: 68969
DistanceSpacing: 1
BeatDivisor: 4
GridSize: 4
TimelineZoom: 2.7

[Metadata]
Title:Au revoir feat. Sido
TitleUnicode:Au revoir feat. Sido
Artist:Mark Forster
ArtistUnicode:Mark Forster
Creator:Desperate-kun
Version:Normal
Source:
Tags:Bauch und Kopf Mao Cut Version
BeatmapID:531877
BeatmapSetID:227984

[Difficulty]
HPDrainRate:4
CircleSize:3.5
OverallDifficulty:4.5
ApproachRate:5.5
SliderMultiplier:1.55
SliderTickRate:2

[Events]
//Background and Video events
0,0,"bg.jpg",0,0
//Break Periods
//Storyboard Layer 0 (Background)
//Storyboard Layer 1 (Fail)
//Storyboard Layer 2 (Pass)
//Storyboard Layer 3 (Foreground)
//Storyboard Sound Samples

[TimingPoints]
1045,566.037735849057,4,2,0,30,1,0
9818,-100,4,3,0,70,0,0
10243,-100,4,2,1,70,0,0
50856,-83.3333333333333,4,2,1,70,0,1
50997,-83.3333333333333,4,2,1,80,0,1
68969,-83.3333333333333,4,2,1,70,0,1
69252,-83.3333333333333,4,2,1,80,0,1
87082,-100,4,2,1,40,0,0

[Colours]
Combo1 : 192,240,240
Combo2 : 240,192,192
Combo3 : 192,240,192
Combo4 : 192,192,240
Combo5 : 240,240,192
Combo6 : 240,192,240

[HitObjects]
170,88,9818,5,0,0:0:0:0:
159,164,10101,2,0,P|166:235|221:313,1,155,4|8,2:0|0:0,0:0:0:0:
285,324,10950,2,0,L|373:317,1,77.5,2|0,0:0|0:0,0:0:0:0:
368,240,11516,2,0,L|290:246,2,77.5,2|8|0,0:0|0:0|0:0,0:0:0:0:
428,191,12365,6,0,P|441:144|391:48,1,155,2|8,0:0|0:0,0:0:0:0:
319,53,13214,1,2,0:0:0:0:
256,98,13497,2,0,L|256:183,2,77.5,0|2|8,0:0|0:0|0:0,0:0:0:0:
193,53,14346,1,0,0:0:0:0:
114,52,14629,6,0,P|73:115|84:191,1,155,2|8,0:0|0:0,0:0:0:0:
144,239,15478,1,2,0:0:0:0:
209,98,16045,2,0,P|213:59|209:18,2,77.5,2|8|0,0:0|0:0|0:0,0:0:0:0:
180,170,16894,5,2,0:0:0:0:
256,305,17460,1,8,0:0:0:0:
296,238,17743,2,0,P|285:168|292:83,1,155,2|2,0:0|0:0,0:0:0:0:
347,30,18592,2,0,L|434:36,1,77.5,8|2,0:0|0:0,0:0:0:0:
475,93,19158,6,0,P|486:163|479:248,1,155,2|8,0:0|0:0,0:0:0:0:
426,303,20007,1,2,0:0:0:0:
353,276,20290,2,0,B|274:267|287:324|204:315,1,155,0|8,0:0|0:0,0:0:0:0:
150,263,21139,1,0,0:0:0:0:
224,239,21422,6,0,P|244:201|226:86,1,155,2|8,0:0|0:0,0:0:0:0:
162,56,22271,2,0,L|326:40,1,155,2|2,0:0|0:0,0:0:0:0:
392,29,23120,2,0,P|398:70|420:102,1,77.5,8|0,0:0|0:0,0:0:0:0:
483,140,23686,6,0,P|487:215|433:286,1,155,2|8,0:0|0:0,0:0:0:0:
366,290,24535,2,0,L|279:278,1,77.5,2|0,0:0|0:0,0:0:0:0:
258,350,25101,2,0,L|334:360,2,77.5,2|8|0,0:0|0:0|0:0,0:0:0:0:
181,335,25950,6,0,P|131:352|58:293,1,155,2|8,0:0|0:0,0:0:0:0:
133,274,26799,1,2,0:0:0:0:
22,165,27365,1,2,0:0:0:0:
99,160,27648,2,0,P|136:148|164:123,1,77.5,8|2,0:0|0:0,0:0:0:0:
136,51,28214,6,0,P|82:40|22:61,2,116.25,2|2|2,0:0|0:0|0:0,0:0:0:0:
212,65,29346,2,0,P|226:114|321:170,1,155,0|8,0:0|0:0,0:0:0:0:
385,154,30195,1,0,0:0:0:0:
363,228,30478,6,0,L|352:384,2,155,2|8|0,0:0|0:0|0:0,0:0:0:0:
286,242,31894,2,0,L|281:323,1,77.5,2|8,0:0|0:0,0:0:0:0:
214,358,32460,1,0,0:0:0:0:
146,320,32743,6,0,P|131:261|142:162,1,155,2|8,0:0|0:0,0:0:0:0:
195,114,33592,1,2,0:0:0:0:
272,122,33875,2,0,L|352:129,1,77.5,0|2,0:0|0:0,0:0:0:0:
420,98,34441,2,0,P|447:129|488:142,1,77.5,8|0,0:0|0:0,0:0:0:0:
505,214,35007,6,0,P|494:258|403:315,1,155,2|8,0:0|0:0,0:0:0:0:
332,292,35856,1,2,0:0:0:0:
276,345,36139,1,0,0:0:0:0:
217,293,36422,2,0,L|211:213,2,77.5,2|8|2,0:0|0:0|0:0,0:0:0:0:
276,345,37271,6,0,P|211:345|144:373,2,116.25,2|2|2,0:0|0:0|0:0,0:0:0:0:
332,292,38403,1,0,0:0:0:0:
388,239,38686,2,0,P|393:198|388:154,2,77.5,2|8|0,0:0|0:0|0:0,0:0:0:0:
457,273,39535,6,0,P|469:193|455:114,1,155,2|8,0:0|0:0,0:0:0:0:
390,80,40384,2,0,L|224:90,1,155,2|2,0:0|0:0,0:0:0:0:
163,59,41233,2,0,P|132:88|89:96,1,77.5,8|0,0:0|0:0,0:0:0:0:
33,54,41799,6,0,L|55:215,1,155,2|8,0:0|0:0,0:0:0:0:
69,283,42648,2,0,P|65:319|45:355,2,77.5,2|0|2,0:0|0:0|0:0,0:0:0:0:
128,233,43497,2,0,P|165:247|207:245,1,77.5,8|0,0:0|0:0,0:0:0:0:
272,212,44063,6,0,P|292:265|395:289,1,155,2|8,0:0|0:0,0:0:0:0:
451,265,44912,1,0,0:0:0:0:
370,132,45478,1,2,0:0:0:0:
447,138,45761,2,0,P|488:134|526:118,1,77.5,8|0,0:0|0:0,0:0:0:0:
491,49,46328,6,0,B|410:76|421:26|340:56,1,155,2|8,0:0|0:0,0:0:0:0:
284,110,47177,1,2,0:0:0:0:
307,183,47460,2,0,P|297:240|201:295,2,155,0|8|2,0:0|0:0|0:0,0:0:0:0:
284,110,48875,5,0,0:0:0:0:
209,89,49158,2,0,L|128:98,1,77.5,8|2,0:0|0:0,0:0:0:0:
154,171,49724,2,0,L|73:180,1,77.5,8|2,0:0|0:0,0:0:0:0:
98,252,50290,2,0,L|17:261,1,77.5,8|2,0:0|0:0,0:0:0:0:
70,339,50856,6,0,P|125:356|211:340,1,139.499995742798,6|2,0:0|0:0,0:0:0:0:
239,312,51422,2,0,L|250:215,1,92.9999971618653,0|2,1:0|0:0,0:0:0:0:
338,247,51988,2,0,L|327:339,1,92.9999971618653,0|2,0:0|0:0,0:0:0:0:
418,320,52554,1,0,1:0:0:0:
467,240,52837,1,0,0:0:0:0:
448,148,53120,6,0,P|368:129|342:23,1,185.999994323731,2|0,0:0|1:0,0:0:0:0:
428,55,53969,2,0,L|525:44,2,92.9999971618653,2|0|2,0:0|0:0|0:0,0:0:0:0:
337,38,54818,2,0,P|292:56|221:55,1,92.9999971618653,0|0,1:0|0:0,0:0:0:0:
158,33,55384,6,0,P|167:104|216:147,1,139.499995742798,2|2,0:0|0:0,0:0:0:0:
261,153,55950,2,0,L|250:257,1,92.9999971618653,0|2,1:0|0:0,0:0:0:0:
239,337,56516,2,0,P|186:361|137:359,1,92.9999971618653,0|2,0:0|0:0,0:0:0:0:
64,331,57082,1,0,1:0:0:0:
45,239,57365,1,0,0:0:0:0:
26,147,57648,6,0,P|78:203|178:188,1,185.999994323731,2|0,0:0|1:0,0:0:0:0:
235,113,58497,2,0,L|226:18,2,92.9999971618653,2|0|2,0:0|0:0|0:0,0:0:0:0:
271,198,59346,2,0,P|313:205|364:198,1,92.9999971618653,0|0,1:0|0:0,0:0:0:0:
425,129,59912,6,0,L|398:283,1,139.499995742798,2|2,0:0|0:0,0:0:0:0:
390,311,60478,1,0,1:0:0:0:
306,351,60761,1,2,0:0:0:0:
219,315,61045,2,0,P|171:312|118:327,1,92.9999971618653,0|2,0:0|0:0,0:0:0:0:
132,229,61611,2,0,P|86:239|40:236,1,92.9999971618653,0|0,1:0|0:0,0:0:0:0:
26,144,62177,6,0,P|94:153|159:63,1,185.999994323731,2|0,0:0|1:0,0:0:0:0:
243,107,63026,2,0,P|228:155|201:189,2,92.9999971618653,2|0|2,0:0|0:0|0:0,0:0:0:0:
320,55,63875,2,0,P|366:49|424:58,1,92.9999971618653,0|2,1:0|0:0,0:0:0:0:
478,119,64441,5,2,0:0:0:0:
414,293,65007,2,0,L|256:279,1,139.499995742798,0|0,1:0|0:0,0:0:0:0:
247,319,65573,2,0,L|89:305,1,139.499995742798,2|2,0:0|0:0,0:0:0:0:
61,301,66139,2,0,P|71:252|64:206,1,92.9999971618653,0|0,1:0|0:0,0:0:0:0:
40,120,66705,6,0,L|145:127,1,92.9999971618653,2|0,0:0|0:0,0:0:0:0:
211,76,67271,2,0,L|316:83,1,92.9999971618653,0|0,1:0|0:0,0:0:0:0:
387,40,67837,2,0,L|433:42,2,46.4999985809327,0|0|2,1:0|1:0|0:0,0:0:0:0:
384,132,68403,2,0,L|430:134,2,46.4999985809327,0|0|2,1:0|1:0|0:0,0:0:0:0:
381,224,68969,5,6,0:0:0:0:
473,227,69252,2,0,P|450:286|366:312,2,139.499995742798,2|2|2,0:3|0:3|0:3,0:0:0:0:
381,224,70384,1,2,0:0:0:0:
302,274,70667,2,0,P|254:287|193:276,1,92.9999971618653,0|2,1:0|0:3,0:0:0:0:
139,223,71233,5,2,0:0:0:0:
124,314,71516,2,0,P|85:346|-13:342,2,139.499995742798,2|2|2,0:3|0:3|0:3,0:0:0:0:
139,223,72648,1,2,0:0:0:0:
150,130,72931,2,0,L|163:28,1,92.9999971618653,0|2,1:0|0:3,0:0:0:0:
245,77,73497,5,2,0:0:0:0:
233,168,73780,2,0,L|218:317,2,139.499995742798,2|2|2,0:3|0:3|0:3,0:0:0:0:
319,132,74912,1,2,0:0:0:0:
405,166,75195,2,0,P|430:202|445:251,1,92.9999971618653,0|2,1:0|0:3,0:0:0:0:
409,334,75761,5,2,0:0:0:0:
336,278,76045,2,0,P|271:274|195:295,2,139.499995742798,2|2|2,0:3|0:3|0:3,0:0:0:0:
409,334,77177,1,2,0:0:0:0:
444,248,77460,2,0,P|451:202|446:153,1,92.9999971618653,0|2,1:0|0:3,0:0:0:0:
402,73,78026,5,2,0:0:0:0:
355,153,78309,2,0,P|298:163|218:114,2,139.499995742798,2|2|2,0:3|0:3|0:3,0:0:0:0:
402,73,79441,1,2,0:0:0:0:
320,29,79724,2,0,L|216:41,1,92.9999971618653,0|2,1:0|0:3,0:0:0:0:
135,26,80290,5,2,0:0:0:0:
93,109,80573,2,0,P|88:178|120:244,2,139.499995742798,2|2|2,0:3|0:3|0:3,0:0:0:0:
178,145,81705,1,2,0:0:0:0:
268,124,81988,2,0,L|373:127,1,92.9999971618653,0|2,1:0|0:3,0:0:0:0:
451,147,82554,5,2,0:0:0:0:
464,239,82837,2,0,P|442:302|355:350,2,139.499995742798,2|2|2,0:3|0:3|0:3,0:0:0:0:
451,147,83969,1,2,0:0:0:0:
376,208,84252,2,0,P|326:223|262:218,1,92.9999971618653,0|2,1:0|0:3,0:0:0:0:
203,179,84818,5,2,0:0:0:0:
203,271,85101,1,0,1:0:0:0:
151,348,85384,2,0,P|91:367|12:349,2,139.499995742798,0|2|0,1:0|0:0|1:0,0:0:0:0:
203,271,86516,2,0,P|258:265|301:274,1,92.9999971618653,0|0,1:0|3:0,0:0:0:0:
373,320,87082,5,4,0:0:0:0:
