osu file format v14

[General]
AudioFilename: au_revoir.mp3
AudioLeadIn: 0
PreviewTime: 50148
Countdown: 0
SampleSet: Soft
StackLeniency: 0.3
Mode: 0
LetterboxInBreaks: 0
WidescreenStoryboard: 0

[Editor]
DistanceSpacing: 1.7
BeatDivisor: 4
GridSize: 4
TimelineZoom: 1.7

[Metadata]
Title:Au revoir feat. Sido
TitleUnicode:Au revoir feat. Sido
Artist:Mark Forster
ArtistUnicode:Mark Forster
Creator:Desperate-kun
Version:Farewell
Source:
Tags:Bauch und Kopf Mao Cut Version
BeatmapID:531078
BeatmapSetID:227984

[Difficulty]
HPDrainRate:7
CircleSize:4
OverallDifficulty:7.5
ApproachRate:9
SliderMultiplier:2.2
SliderTickRate:2

[Events]
//Background and Video events
0,0,"bg.jpg",0,0
//Break Periods
//Storyboard Layer 0 (Background)
//Storyboard Layer 1 (Fail)
//Storyboard Layer 2 (Pass)
//Storyboard Layer 3 (Foreground)
//Storyboard Sound Samples

[TimingPoints]
1045,566.037735849057,4,2,0,30,1,0
9818,-100,4,3,0,70,0,0
10243,-100,4,2,1,70,0,0
28214,-100,4,2,0,70,0,0
28356,-100,4,2,1,70,0,0
50290,-83.3333333333333,4,2,1,70,0,0
50856,-83.3333333333333,4,2,1,70,0,1
50997,-83.3333333333333,4,2,1,80,0,1
68969,-83.3333333333333,4,2,1,70,0,1
69111,-83.3333333333333,4,2,1,80,0,1
69677,-71.4285714285714,4,2,1,80,0,1
70101,-83.3333333333333,4,2,1,80,0,1
70526,-71.4285714285714,4,2,1,80,0,1
70950,-83.3333333333333,4,2,1,80,0,1
71941,-71.4285714285714,4,2,1,80,0,1
72365,-83.3333333333333,4,2,1,80,0,1
72790,-71.4285714285714,4,2,1,80,0,1
73214,-83.3333333333333,4,2,1,80,0,1
74205,-71.4285714285714,4,2,1,80,0,1
74629,-83.3333333333333,4,2,1,80,0,1
75054,-71.4285714285714,4,2,1,80,0,1
75478,-83.3333333333333,4,2,1,80,0,1
76469,-71.4285714285714,4,2,1,80,0,1
76894,-83.3333333333333,4,2,1,80,0,1
77318,-71.4285714285714,4,2,1,80,0,1
77743,-83.3333333333333,4,2,1,80,0,1
78733,-71.4285714285714,4,2,1,80,0,1
79158,-83.3333333333333,4,2,1,80,0,1
79582,-71.4285714285714,4,2,1,80,0,1
80007,-83.3333333333333,4,2,1,80,0,1
80997,-71.4285714285714,4,2,1,80,0,1
81422,-83.3333333333333,4,2,1,80,0,1
81846,-71.4285714285714,4,2,1,80,0,1
82271,-83.3333333333333,4,2,1,80,0,1
83261,-71.4285714285714,4,2,1,80,0,1
83686,-83.3333333333333,4,2,1,80,0,1
84111,-71.4285714285714,4,2,1,80,0,1
84535,-83.3333333333333,4,2,1,80,0,1
86233,-71.4285714285714,4,2,1,80,0,1
87082,-100,4,2,1,40,0,0

[Colours]
Combo1 : 192,240,240
Combo2 : 240,192,192
Combo3 : 192,240,192
Combo4 : 192,192,240
Combo5 : 240,240,192
Combo6 : 240,192,240

[HitObjects]
256,192,5856,12,0,9535,0:0:0:0:
109,148,9818,6,0,L|49:161,1,55
109,235,10101,2,0,P|190:239|256:192,1,165,4|2,2:0|0:0,0:0:0:0:
277,117,10667,1,8,0:0:0:0:
392,278,10950,2,0,L|396:218,1,55,2|0,0:0|0:0,0:0:0:0:
401,146,11233,2,0,L|408:37,1,110,0|2,0:0|0:0,0:0:0:0:
277,117,11799,1,8,0:0:0:0:
312,301,12082,2,0,L|316:241,1,55
222,347,12365,6,0,P|168:357|65:318,1,165,2|2,0:0|0:0,0:0:0:0:
39,247,12931,1,8,0:0:0:0:
86,97,13214,1,2,0:0:0:0:
186,223,13497,2,0,P|173:169|185:115,1,110,0|2,0:0|0:0,0:0:0:0:
389,174,14063,2,0,P|336:183|283:167,1,110,8|0,0:0|0:0,0:0:0:0:
484,43,14629,6,0,L|476:153,1,110,2|0,0:0|0:0,0:0:0:0:
471,230,15054,1,2,0:0:0:0:
466,306,15195,1,8,0:0:0:0:
321,359,15478,1,2,0:0:0:0:
151,218,15761,1,0,0:0:0:0:
358,142,16045,1,2,0:0:0:0:
191,359,16328,1,8,0:0:0:0:
154,142,16611,1,0,0:0:0:0:
361,218,16894,6,0,P|417:191|435:139,1,110,2|0,0:0|0:0,0:0:0:0:
403,79,17318,1,2,0:0:0:0:
371,8,17460,1,8,0:0:0:0:
256,124,17743,1,2,0:0:0:0:
141,8,18026,1,0,0:0:0:0:
361,218,18309,1,2,0:0:0:0:
151,218,18592,1,8,0:0:0:0:
395,331,18875,1,2,0:0:0:0:
117,331,19158,6,0,P|64:300|42:240,1,110,2|0,0:0|0:0,0:0:0:0:
35,181,19582,1,2,0:0:0:0:
26,104,19724,1,8,0:0:0:0:
212,55,20007,2,0,L|206:115,1,55,2|0,0:0|0:0,0:0:0:0:
242,178,20290,2,0,P|296:185|355:165,1,110,0|2,0:0|0:0,0:0:0:0:
434,41,20856,1,8,0:0:0:0:
412,258,21139,2,0,L|406:318,1,55
496,286,21422,6,0,P|508:233|497:180,1,110,2|0,0:0|0:0,0:0:0:0:
465,110,21847,1,2,0:0:0:0:
434,41,21988,1,8,0:0:0:0:
327,275,22271,2,0,L|335:165,1,110,2|0,0:0|0:0,0:0:0:0:
256,104,22695,1,0,0:0:0:0:
176,165,22837,2,0,L|185:275,1,110,2|8,0:0|0:0,0:0:0:0:
42,171,23403,1,0,0:0:0:0:
162,40,23686,6,0,L|276:29,1,110,2|0,0:0|0:0,0:0:0:0:
347,43,24111,1,2,0:0:0:0:
422,57,24252,1,8,0:0:0:0:
358,197,24535,2,0,L|369:258,1,55,2|0,0:0|0:0,0:0:0:0:
445,253,24818,2,0,P|448:312|421:361,1,110,0|2,0:0|0:0,0:0:0:0:
193,244,25384,1,8,0:0:0:0:
358,197,25667,1,0,0:0:0:0:
316,365,25950,6,0,P|284:320|278:266,1,110,2|0,0:0|0:0,0:0:0:0:
312,197,26375,1,2,0:0:0:0:
344,127,26516,1,8,0:0:0:0:
167,54,26799,1,2,0:0:0:0:
193,244,27082,1,0,0:0:0:0:
276,33,27365,1,2,0:0:0:0:
395,297,27648,1,8,0:0:0:0:
331,340,27790,1,8,0:0:0:0:
256,348,27931,1,2,0:0:0:0:
180,340,28072,1,8,0:0:0:0:
116,297,28214,6,0,L|85:183,1,110,4|0,0:0|0:0,0:0:0:0:
85,97,28639,1,2,0:0:0:0:
167,54,28780,1,8,0:0:0:0:
235,191,29063,1,2,0:0:0:0:
326,213,29205,1,0,0:0:0:0:
401,158,29346,2,0,P|385:98|405:42,1,110,0|2,0:0|0:0,0:0:0:0:
476,103,29771,1,0,0:0:0:0:
488,195,29912,2,0,P|500:247|484:299,1,110,8|0,0:0|0:0,0:0:0:0:
213,367,30478,6,0,L|327:356,1,110,2|0,0:0|0:0,0:0:0:0:
386,287,30903,1,2,0:0:0:0:
299,255,31045,2,0,L|185:244,1,110,8|2,0:0|0:0,0:0:0:0:
126,175,31469,1,0,0:0:0:0:
213,143,31611,2,0,L|327:132,1,110,0|2,0:0|0:0,0:0:0:0:
385,62,32035,1,0,0:0:0:0:
298,30,32177,1,8,0:0:0:0:
142,84,32460,2,0,L|127:32,1,55
41,143,32743,6,0,P|40:201|75:255,1,110,2|0,0:0|0:0,0:0:0:0:
134,304,33167,1,2,0:0:0:0:
217,260,33309,2,0,P|270:252|321:272,1,110,8|2,0:0|0:0,0:0:0:0:
465,328,33875,1,0,0:0:0:0:
447,123,34158,1,2,0:0:0:0:
242,141,34441,1,8,0:0:0:0:
260,346,34724,1,0,0:0:0:0:
362,198,35007,6,0,P|372:133|357:73,1,110,2|0,0:0|0:0,0:0:0:0:
292,30,35431,1,2,0:0:0:0:
199,46,35573,2,0,L|87:60,1,110,8|2,0:0|0:0,0:0:0:0:
242,141,36139,1,0,0:0:0:0:
60,185,36422,1,2,0:0:0:0:
265,264,36705,1,8,0:0:0:0:
29,310,36988,1,2,0:0:0:0:
106,362,37129,1,0,0:0:0:0:
199,352,37271,6,0,P|261:342|332:361,1,110,2|0,0:0|0:0,0:0:0:0:
368,280,37695,1,2,0:0:0:0:
446,331,37837,2,0,P|462:276|439:215,1,110,8|2,0:0|0:0,0:0:0:0:
373,169,38261,1,0,0:0:0:0:
298,113,38403,2,0,P|283:60|299:8,1,110,0|2,0:0|0:0,0:0:0:0:
474,23,38969,1,8,0:0:0:0:
373,170,39252,2,0,L|324:205,1,55
214,197,39535,6,0,P|228:249|212:301,1,110,2|0,0:0|0:0,0:0:0:0:
135,355,39960,1,2,0:0:0:0:
75,284,40101,1,8,0:0:0:0:
58,65,40384,2,0,L|176:90,1,110,2|0,0:0|0:0,0:0:0:0:
256,66,40809,1,0,0:0:0:0:
346,87,40950,2,0,L|454:65,1,110,2|8,0:0|0:0,0:0:0:0:
437,284,41516,1,0,0:0:0:0:
256,160,41799,6,0,P|261:221|235:272,1,110,2|0,0:0|0:0,0:0:0:0:
168,322,42224,1,2,0:0:0:0:
75,315,42365,1,8,0:0:0:0:
16,82,42648,2,0,L|21:140,1,55,2|0,0:0|0:0,0:0:0:0:
139,99,42931,2,0,L|128:214,1,110,0|2,0:0|0:0,0:0:0:0:
214,169,43356,1,0,0:0:0:0:
299,129,43497,2,0,L|308:244,1,110,8|0,0:0|0:0,0:0:0:0:
385,184,43922,1,0,0:0:0:0:
461,130,44063,6,0,L|489:241,1,110,2|0,0:0|0:0,0:0:0:0:
473,329,44488,1,2,0:0:0:0:
386,364,44629,1,8,0:0:0:0:
256,252,44912,1,2,0:0:0:0:
126,364,45195,1,0,0:0:0:0:
127,184,45478,1,2,0:0:0:0:
256,352,45761,1,8,0:0:0:0:
385,184,46045,1,0,0:0:0:0:
361,93,46186,1,0,0:0:0:0:
276,52,46328,6,0,P|221:78|138:70,1,110,2|0,0:0|0:0,0:0:0:0:
101,20,46752,1,2,0:0:0:0:
85,113,46894,1,8,0:0:0:0:
256,188,47177,2,0,L|256:248,1,55,2|0,0:0|0:0,0:0:0:0:
256,352,47460,2,0,P|300:324|357:317,1,110,0|2,0:0|0:0,0:0:0:0:
449,323,47884,1,0,0:0:0:0:
409,238,48026,2,0,P|395:188|405:131,1,110,8|0,0:0|0:0,0:0:0:0:
439,45,48450,1,0,0:0:0:0:
345,59,48592,6,0,P|293:57|242:31,1,110,2|0,0:0|0:0,0:0:0:0:
226,123,49016,1,2,0:0:0:0:
278,201,49158,1,8,0:0:0:0:
73,45,49441,1,2,0:0:0:0:
123,334,49724,1,8,0:0:0:0:
389,334,50007,1,2,0:0:0:0:
439,45,50290,6,0,L|446:120,1,65.9999979858399,8|8,0:0|0:0,0:0:0:0:
389,334,50573,2,0,L|382:268,1,65.9999979858399,2|8,0:0|0:0,0:0:0:0:
256,88,50856,6,0,B|212:180|296:180|256:279,1,197.99999395752,6|2,0:0|0:0,0:0:0:0:
151,237,51422,1,0,1:0:0:0:
361,147,51705,1,2,0:0:0:0:
130,94,51988,2,0,P|162:142|239:172,1,131.99999597168,0|2,0:0|0:0,0:0:0:0:
442,59,52554,1,0,1:0:0:0:
459,286,52837,2,0,L|468:220,1,65.9999979858399
460,73,53120,6,0,P|403:148|296:145,1,197.99999395752,2|2,0:0|0:0,0:0:0:0:
227,69,53686,1,0,1:0:0:0:
286,319,53969,1,2,0:0:0:0:
74,228,54252,2,0,L|93:372,1,131.99999597168,0|2,0:0|0:0,0:0:0:0:
438,228,54818,2,0,L|419:372,1,131.99999597168,0|0,1:0|0:0,0:0:0:0:
308,345,55243,1,0,0:0:0:0:
280,236,55384,6,0,P|311:172|220:47,1,197.99999395752,2|2,0:0|0:0,0:0:0:0:
371,40,55950,1,0,1:0:0:0:
195,159,56233,1,2,0:0:0:0:
415,183,56516,2,0,L|397:313,1,131.99999597168,0|2,0:0|0:0,0:0:0:0:
96,248,57082,2,0,L|78:118,1,131.99999597168,0|0,1:0|0:0,0:0:0:0:
371,40,57648,6,0,P|343:145|249:190,1,197.99999395752,2|2,0:0|0:0,0:0:0:0:
117,52,58214,2,0,P|183:47|247:63,1,131.99999597168,0|2,1:0|0:0,0:0:0:0:
430,222,58780,1,0,0:0:0:0:
414,333,58922,1,8,0:0:0:0:
312,379,59063,1,2,0:0:0:0:
256,184,59346,1,0,1:0:0:0:
200,379,59629,1,0,0:0:0:0:
98,333,59770,1,0,0:0:0:0:
82,222,59912,6,0,P|108:156|56:33,1,197.99999395752,2|2,0:0|0:0,0:0:0:0:
177,28,60478,1,0,1:0:0:0:
218,248,60761,1,2,0:0:0:0:
389,101,61045,1,0,0:0:0:0:
374,211,61186,1,0,0:0:0:0:
359,322,61328,1,2,0:0:0:0:
257,122,61611,1,0,1:0:0:0:
480,135,61894,1,0,0:0:0:0:
359,322,62177,6,0,B|267:278|267:362|168:322,1,197.99999395752,2|2,0:0|0:0,0:0:0:0:
88,242,62743,1,0,1:0:0:0:
177,28,63026,1,2,0:0:0:0:
408,46,63309,1,0,0:0:0:0:
462,271,63592,1,2,0:0:0:0:
139,169,63875,2,0,L|125:104,1,65.9999979858399,0|8,1:0|0:0,0:0:0:0:
299,237,64158,2,0,L|312:301,1,65.9999979858399,2|8,0:0|0:0,0:0:0:0:
408,46,64441,6,0,P|373:107|297:125,1,131.99999597168,2|0,0:0|0:0,0:0:0:0:
206,111,64865,1,0,0:0:0:0:
94,96,65007,2,0,B|107:161|107:161|158:201|158:201|173:273,1,197.99999395752,0|0,1:0|0:0,0:0:0:0:
366,310,65573,2,0,B|352:245|352:245|301:205|301:205|287:139,1,197.99999395752,2|2,0:0|0:0,0:0:0:0:
221,341,66139,2,0,P|153:354|91:308,1,131.99999597168,0|0,1:0|0:0,0:0:0:0:
78,77,66705,6,0,P|78:141|122:189,1,131.99999597168,2|0,0:0|0:0,0:0:0:0:
256,48,67271,2,0,B|240:112|240:112|272:172|272:172|256:236,1,197.99999395752,0|0,1:0|0:0,0:0:0:0:
355,99,67837,1,0,1:0:0:0:
465,79,67978,1,0,1:0:0:0:
426,184,68120,1,2,0:0:0:0:
312,333,68403,1,0,1:0:0:0:
256,235,68545,1,0,1:0:0:0:
200,333,68686,1,2,0:0:0:0:
47,79,68969,5,6,0:0:0:0:
81,304,69252,2,0,L|96:172,1,131.99999597168,2|0,0:3|1:0,0:0:0:0:
190,37,69677,2,0,L|180:135,1,76.9999976501466,2|2,0:3|0:0,0:0:0:0:
431,304,70101,2,0,L|416:172,1,131.99999597168,2|2,0:3|0:0,0:0:0:0:
322,37,70526,2,0,L|331:135,1,76.9999976501466,2|0,0:3|1:0,0:0:0:0:
256,348,70950,1,2,0:3:0:0:
256,144,71233,5,2,0:0:0:0:
152,309,71516,2,0,P|86:333|-3:297,1,131.99999597168,2|0,0:3|1:0,0:0:0:0:
71,139,71941,2,0,L|80:216,1,76.9999976501466,2|2,0:3|0:0,0:0:0:0:
360,75,72365,2,0,P|426:51|515:87,1,131.99999597168,2|2,0:3|0:0,0:0:0:0:
439,243,72790,2,0,L|431:166,1,76.9999976501466,2|0,0:3|1:0,0:0:0:0:
196,83,73214,1,2,0:3:0:0:
316,301,73497,5,2,0:0:0:0:
360,75,73780,2,0,L|336:214,1,131.99999597168,2|0,0:3|1:0,0:0:0:0:
196,301,74205,2,0,P|156:303|111:279,1,76.9999976501466,2|2,0:3|0:0,0:0:0:0:
152,75,74629,2,0,L|176:214,1,131.99999597168,2|2,0:3|0:0,0:0:0:0:
316,301,75054,2,0,P|356:303|401:279,1,76.9999976501466,2|0,0:3|1:0,0:0:0:0:
484,63,75479,1,2,0:3:0:0:
442,168,75621,1,0,0:0:0:0:
337,205,75762,5,2,0:0:0:0:
78,122,76045,2,0,L|102:261,1,131.99999597168,2|0,0:3|1:0,0:0:0:0:
256,152,76469,2,0,L|256:248,1,76.9999976501466,2|2,0:3|0:0,0:0:0:0:
434,122,76894,2,0,L|410:261,1,131.99999597168,2|2,0:3|0:0,0:0:0:0:
256,152,77318,2,0,L|256:248,1,76.9999976501466,2|0,0:3|1:0,0:0:0:0:
332,66,77743,1,2,0:3:0:0:
319,318,78026,5,2,0:0:0:0:
78,122,78309,2,0,P|79:197|113:261,1,131.99999597168,2|0,0:3|1:0,0:0:0:0:
176,110,78733,2,0,P|166:146|176:191,1,76.9999976501466,2|2,0:3|0:0,0:0:0:0:
434,122,79158,2,0,P|433:197|399:261,1,131.99999597168,2|2,0:3|0:0,0:0:0:0:
336,110,79582,2,0,P|346:146|336:191,1,76.9999976501466,2|0,0:3|1:0,0:0:0:0:
256,344,80007,1,2,0:3:0:0:
256,148,80290,5,2,0:0:0:0:
160,324,80573,2,0,P|100:357|7:349,1,131.99999597168,2|0,0:3|1:0,0:0:0:0:
198,240,80997,2,0,L|118:240,1,76.9999976501466,2|2,0:3|0:0,0:0:0:0:
352,60,81422,2,0,P|412:27|505:35,1,131.99999597168,2|2,0:3|0:0,0:0:0:0:
314,144,81846,2,0,L|394:144,1,76.9999976501466,2|0,0:3|1:0,0:0:0:0:
181,104,82271,1,2,0:3:0:0:
331,280,82554,5,2,0:0:0:0:
181,104,82837,2,0,L|48:97,1,131.99999597168,2|0,0:3|1:0,0:0:0:0:
109,292,83261,2,0,L|114:192,1,76.9999976501466,2|2,0:3|0:0,0:0:0:0:
331,280,83686,2,0,L|464:287,1,131.99999597168,2|2,0:3|0:0,0:0:0:0:
403,92,84111,2,0,L|397:191,1,76.9999976501466,2|0,0:3|1:0,0:0:0:0:
269,47,84535,1,2,0:3:0:0:
272,159,84677,1,0,0:0:0:0:
202,246,84818,5,2,0:0:0:0:
395,338,85101,1,2,1:2:0:0:
117,338,85384,1,0,1:0:0:0:
84,230,85526,2,0,L|50:89,1,131.99999597168,2|2,0:3|0:0,0:0:0:0:
202,246,85950,1,8,0:0:0:0:
362,48,86233,6,0,L|338:159,1,76.9999976501466,0|0,1:0|0:0,0:0:0:0:
256,384,86516,2,0,L|256:296,1,76.9999976501466,0|2,1:0|0:0,0:0:0:0:
150,48,86799,2,0,L|174:159,1,76.9999976501466,0|0,3:0|3:0,0:0:0:0:
256,296,87082,5,4,0:0:0:0:
