osu file format v14

[General]
AudioFilename: au_revoir.mp3
AudioLeadIn: 0
PreviewTime: 50148
Countdown: 0
SampleSet: Soft
StackLeniency: 0.3
Mode: 0
LetterboxInBreaks: 0
WidescreenStoryboard: 0

[Editor]
Bookmarks: 68969
DistanceSpacing: 1.2
BeatDivisor: 4
GridSize: 4
TimelineZoom: 2.7

[Metadata]
Title:Au revoir feat. Sido
TitleUnicode:Au revoir feat. Sido
Artist:Mark Forster
ArtistUnicode:Mark Forster
Creator:Desperate-kun
Version:Easy
Source:
Tags:Bauch und Kopf Mao Cut Version
BeatmapID:531862
BeatmapSetID:227984

[Difficulty]
HPDrainRate:2.5
CircleSize:3
OverallDifficulty:3
ApproachRate:3.5
SliderMultiplier:1.2
SliderTickRate:2

[Events]
//Background and Video events
0,0,"bg.jpg",0,0
//Break Periods
//Storyboard Layer 0 (Background)
//Storyboard Layer 1 (Fail)
//Storyboard Layer 2 (Pass)
//Storyboard Layer 3 (Foreground)
//Storyboard Sound Samples

[TimingPoints]
1045,566.037735849057,4,2,0,30,1,0
9818,-100,4,3,0,70,0,0
10243,-100,4,2,1,70,0,0
50856,-83.3333333333333,4,2,1,70,0,1
50997,-83.3333333333333,4,2,1,80,0,1
68969,-83.3333333333333,4,2,1,70,0,1
69252,-83.3333333333333,4,2,1,80,0,1
87082,-100,4,2,1,40,0,0

[Colours]
Combo1 : 192,240,240
Combo2 : 240,192,192
Combo3 : 192,240,192
Combo4 : 192,192,240
Combo5 : 240,240,192
Combo6 : 240,192,240

[HitObjects]
376,79,9818,5,0,0:0:0:0:
394,136,10101,2,0,P|397:191|376:259,1,120,4|8,2:0|0:0,0:0:0:0:
277,317,11233,2,0,L|154:296,1,120,0|8,0:0|0:0,0:0:0:0:
143,177,12365,2,0,P|136:112|161:57,2,120,2|8|0,0:0|0:0|0:0,0:0:0:0:
254,133,14063,1,8,0:0:0:0:
371,166,14629,6,0,P|387:251|333:319,1,180,2|2,0:0|0:0,0:0:0:0:
273,326,15761,2,0,P|223:322|152:335,1,120,0|8,0:0|0:0,0:0:0:0:
52,270,16894,1,2,0:0:0:0:
80,153,17460,1,8,0:0:0:0:
190,107,18026,2,0,P|240:125|320:117,1,120,0|8,0:0|0:0,0:0:0:0:
359,95,18875,1,2,0:0:0:0:
413,69,19158,6,0,L|402:201,1,120,2|8,0:0|0:0,0:0:0:0:
440,235,20007,2,0,P|434:308|393:358,1,120,2|2,0:0|0:0,0:0:0:0:
351,364,20856,1,8,0:0:0:0:
246,305,21422,2,0,B|156:287|168:352|66:329,1,180,2|2,0:0|0:0,0:0:0:0:
103,214,22837,2,0,P|120:157|108:85,1,120,2|0,0:0|0:0,0:0:0:0:
75,50,23686,6,0,L|203:58,1,120,2|8,0:0|0:0,0:0:0:0:
312,32,24818,1,0,0:0:0:0:
278,147,25384,1,8,0:0:0:0:
395,121,25950,2,0,P|397:164|357:238,2,120,2|8|0,0:0|0:0|0:0,0:0:0:0:
278,147,27648,1,8,0:0:0:0:
245,262,28214,6,0,P|164:295|63:250,2,180,2|2|8,0:0|0:0|0:0,0:0:0:0:
278,147,30478,2,0,L|272:21,2,120,2|8|0,0:0|0:0|0:0,0:0:0:0:
344,245,32177,1,8,0:0:0:0:
456,203,32743,6,0,P|464:263|429:329,1,120,2|8,0:0|0:0,0:0:0:0:
331,365,33875,2,0,L|266:369,1,60,0|2,0:0|0:0,0:0:0:0:
223,332,34441,2,0,L|158:328,1,60,8|0,0:0|0:0,0:0:0:0:
109,355,35007,2,0,P|59:341|16:267,1,120,2|8,0:0|0:0,0:0:0:0:
25,168,36139,1,0,0:0:0:0:
127,104,36705,2,0,L|206:113,1,60,8|2,0:0|0:0,0:0:0:0:
242,88,37271,6,0,P|289:113|366:108,1,120,2|8,0:0|0:0,0:0:0:0:
463,61,38403,2,0,L|453:189,1,120,0|8,0:0|0:0,0:0:0:0:
462,300,39535,2,0,P|391:298|337:331,1,120,2|8,0:0|0:0,0:0:0:0:
293,296,40384,2,0,P|239:320|179:315,1,120,2|2,0:0|0:0,0:0:0:0:
133,276,41233,1,8,0:0:0:0:
222,196,41799,6,0,L|235:54,1,120,2|8,0:0|0:0,0:0:0:0:
346,37,42931,2,0,L|356:156,1,120,0|8,0:0|0:0,0:0:0:0:
372,275,44063,2,0,P|391:317|455:357,2,120,2|8|0,0:0|0:0|0:0,0:0:0:0:
356,156,45761,1,8,0:0:0:0:
244,114,46328,6,0,P|191:110|121:128,1,120,2|8,0:0|0:0,0:0:0:0:
96,177,47177,1,2,0:0:0:0:
121,231,47460,2,0,P|174:235|244:217,2,120,0|8|2,0:0|0:0|0:0,0:0:0:0:
11,181,49158,1,8,0:0:0:0:
61,71,49724,1,8,0:0:0:0:
173,121,50290,2,0,L|244:138,1,60,8|2,0:0|0:0,0:0:0:0:
297,105,50856,6,0,P|320:163|406:195,1,143.999995605469,6|0,0:0|1:0,0:0:0:0:
461,182,51705,1,2,0:0:0:0:
468,253,51988,2,0,P|436:314|371:345,1,143.999995605469,0|0,0:0|1:0,0:0:0:0:
239,286,53120,2,0,B|128:273|140:346|26:330,1,215.999993408203,2|2,0:0|0:0,0:0:0:0:
1,265,54252,1,0,0:0:0:0:
22,122,54818,1,0,1:0:0:0:
155,67,55384,6,0,B|266:54|254:127|368:111,1,215.999993408203,2|2,0:0|0:0,0:0:0:0:
426,80,56516,1,0,0:0:0:0:
474,215,57082,1,0,1:0:0:0:
395,335,57648,2,0,P|331:358|234:335,1,143.999995605469,2|0,0:0|1:0,0:0:0:0:
199,304,58497,2,0,P|128:292|61:316,1,143.999995605469,2|2,0:0|0:0,0:0:0:0:
5,362,59346,1,0,1:0:0:0:
28,219,59912,6,0,L|17:66,2,143.999995605469,2|0|0,0:0|1:0|0:0,0:0:0:0:
148,139,61611,1,0,1:0:0:0:
258,231,62177,2,0,P|322:241|405:201,1,143.999995605469,2|0,0:0|1:0,0:0:0:0:
444,160,63026,2,0,L|434:310,1,143.999995605469,2|2,0:0|0:0,0:0:0:0:
430,375,63875,1,0,1:0:0:0:
290,338,64441,6,0,P|211:354|139:341,1,143.999995605469,2|0,0:0|1:0,0:0:0:0:
77,219,65573,2,0,P|156:203|228:216,1,143.999995605469,2|0,0:0|1:0,0:0:0:0:
348,151,66705,2,0,L|339:306,1,143.999995605469,2|0,0:0|1:0,0:0:0:0:
472,240,67837,2,0,L|477:166,1,71.9999978027344,0|2,1:0|0:0,0:0:0:0:
482,96,68403,2,0,P|446:104|386:99,1,71.9999978027344,0|2,1:0|0:0,0:0:0:0:
348,67,68969,6,0,P|270:56|186:82,1,143.999995605469,6|0,0:0|1:0,0:0:0:0:
99,166,70101,2,0,L|107:242,1,71.9999978027344,0|2,0:0|0:0,0:0:0:0:
115,309,70667,1,0,1:0:0:0:
250,356,71233,2,0,P|328:367|412:341,1,143.999995605469,2|0,0:0|1:0,0:0:0:0:
499,257,72365,2,0,L|491:181,1,71.9999978027344,0|2,0:0|0:0,0:0:0:0:
483,114,72931,1,0,1:0:0:0:
349,59,73497,6,0,P|331:128|265:172,1,143.999995605469,2|0,0:0|1:0,0:0:0:0:
130,167,74629,2,0,L|146:253,1,71.9999978027344,0|2,0:0|0:0,0:0:0:0:
160,307,75195,1,0,1:0:0:0:
303,323,75761,2,0,P|363:305|434:230,1,143.999995605469,2|0,0:0|1:0,0:0:0:0:
468,114,76894,2,0,L|473:33,2,71.9999978027344,0|2|0,0:0|0:0|1:0,0:0:0:0:
328,149,78026,6,0,B|249:138|266:177|184:164,1,143.999995605469,2|0,0:0|1:0,0:0:0:0:
54,108,79158,2,0,L|63:190,1,71.9999978027344,0|2,0:0|0:0,0:0:0:0:
70,251,79724,1,0,1:0:0:0:
205,300,80290,2,0,B|284:311|267:272|349:285,1,143.999995605469,2|0,0:0|1:0,0:0:0:0:
479,341,81422,2,0,L|470:259,1,71.9999978027344,0|2,0:0|0:0,0:0:0:0:
463,198,81988,1,0,1:0:0:0:
371,86,82554,6,0,P|326:109|208:102,1,143.999995605469,2|0,0:0|1:0,0:0:0:0:
99,59,83686,2,0,L|21:68,2,71.9999978027344,0|2|0,0:0|0:0|1:0,0:0:0:0:
122,201,84818,2,0,L|84:289,2,71.9999978027344,2|0|0,0:0|1:0|1:0,0:0:0:0:
248,269,85950,2,0,L|258:357,2,71.9999978027344,8|0|0,0:0|1:0|1:0,0:0:0:0:
314,141,87082,5,4,0:0:0:0:
