osu file format v14

[General]
AudioFilename: au_revoir.mp3
AudioLeadIn: 0
PreviewTime: 50148
Countdown: 0
SampleSet: Soft
StackLeniency: 0.3
Mode: 0
LetterboxInBreaks: 0
WidescreenStoryboard: 0

[Editor]
Bookmarks: 68969
DistanceSpacing: 1
BeatDivisor: 4
GridSize: 4
TimelineZoom: 1.700001

[Metadata]
Title:Au revoir feat. Sido
TitleUnicode:Au revoir feat. Sido
Artist:Mark Forster
ArtistUnicode:Mark Forster
Creator:Desperate-kun
Version:Beginner
Source:
Tags:Bauch und Kopf Mao Cut Version
BeatmapID:531893
BeatmapSetID:227984

[Difficulty]
HPDrainRate:1
CircleSize:2.5
OverallDifficulty:1.5
ApproachRate:1.5
SliderMultiplier:0.85
SliderTickRate:1

[Events]
//Background and Video events
0,0,"bg.jpg",0,0
//Break Periods
//Storyboard Layer 0 (Background)
//Storyboard Layer 1 (Fail)
//Storyboard Layer 2 (Pass)
//Storyboard Layer 3 (Foreground)
//Storyboard Sound Samples

[TimingPoints]
1045,566.037735849057,4,2,0,30,1,0
10101,-100,4,2,0,70,0,0
10243,-100,4,2,1,70,0,0
50856,-83.3333333333333,4,2,1,70,0,1
50997,-83.3333333333333,4,2,1,80,0,1
68969,-83.3333333333333,4,2,1,70,0,1
69252,-83.3333333333333,4,2,1,80,0,1
87082,-100,4,2,1,40,0,0

[Colours]
Combo1 : 192,240,240
Combo2 : 240,192,192
Combo3 : 192,240,192
Combo4 : 192,192,240
Combo5 : 240,240,192
Combo6 : 240,192,240

[HitObjects]
56,340,10101,6,0,P|137:323|186:256,1,170,4|0,0:0|0:0,0:0:0:0:
182,170,11799,1,8,0:0:0:0:
256,128,12365,2,0,L|256:32,2,85,2|8|0,0:0|0:0|0:0,0:0:0:0:
256,212,14063,1,8,0:0:0:0:
330,170,14629,6,0,P|376:176|428:284,1,170,2|0,0:0|0:0,0:0:0:0:
380,345,16328,1,8,0:0:0:0:
296,328,16894,2,0,B|203:320|225:366|127:357,1,170,2|0,0:0|0:0,0:0:0:0:
71,297,18592,1,8,0:0:0:0:
131,236,19158,6,0,P|137:195|129:151,1,85,2|8,0:0|0:0,0:0:0:0:
89,77,20290,2,0,L|186:83,1,85,0|8,0:0|0:0,0:0:0:0:
249,44,21422,1,2,0:0:0:0:
246,128,21988,2,0,P|289:182|391:188,1,170,8|8,0:0|0:0,0:0:0:0:
457,147,23686,6,0,L|427:319,1,170,2|0,0:0|0:0,0:0:0:0:
350,349,25384,1,8,0:0:0:0:
269,323,25950,2,0,P|199:320|131:337,2,127.5,2|2|8,0:0|0:0|0:0,0:0:0:0:
350,349,28214,6,0,L|366:248,1,85,2|8,0:0|0:0,0:0:0:0:
315,194,29346,2,0,L|299:93,1,85,0|8,0:0|0:0,0:0:0:0:
369,58,30478,2,0,P|416:55|464:67,2,85,2|8|0,0:0|0:0|0:0,0:0:0:0:
301,110,32177,1,8,0:0:0:0:
226,70,32743,6,0,P|136:72|76:125,1,170,2|0,0:0|0:0,0:0:0:0:
71,206,34441,1,8,0:0:0:0:
135,261,35007,2,0,P|225:259|285:206,1,170,2|0,0:0|0:0,0:0:0:0:
294,124,36705,1,8,0:0:0:0:
361,175,37271,6,0,P|421:181|494:154,2,127.5,2|2|8,0:0|0:0|0:0,0:0:0:0:
294,124,39535,2,0,P|234:118|161:145,2,127.5,2|2|8,0:0|0:0|0:0,0:0:0:0:
281,208,41799,6,0,P|280:279|359:341,1,170,2|0,0:0|0:0,0:0:0:0:
434,323,43497,1,8,0:0:0:0:
446,238,44063,2,0,L|465:68,2,170,2|0|2,0:0|0:0|0:0,0:0:0:0:
434,323,46894,5,8,0:0:0:0:
365,272,47460,2,0,P|312:268|277:274,1,85,0|8,0:0|0:0,0:0:0:0:
205,312,48592,1,2,0:0:0:0:
120,324,49158,1,8,0:0:0:0:
42,288,49724,2,0,P|29:247|24:205,1,85,8|8,0:0|0:0,0:0:0:0:
85,123,50856,6,0,B|190:100|180:162|287:143,1,203.999993774414,6|0,0:0|0:0,0:0:0:0:
367,85,52554,1,0,1:0:0:0:
377,186,53120,2,0,P|376:249|257:302,1,203.999993774414,2|0,0:0|0:0,0:0:0:0:
183,239,54818,1,0,1:0:0:0:
158,140,55384,6,0,L|137:36,2,101.999996887207,2|0|0,0:0|1:0|0:0,0:0:0:0:
256,166,57082,1,0,1:0:0:0:
353,139,57648,2,0,L|374:40,2,101.999996887207,2|0|0,0:0|1:0|0:0,0:0:0:0:
329,239,59346,1,0,1:0:0:0:
429,256,59912,6,0,P|368:332|271:323,1,203.999993774414,2|0,0:0|0:0,0:0:0:0:
190,261,61611,1,0,1:0:0:0:
229,166,62177,2,0,P|228:108|158:34,2,152.999995330811,2|2|0,0:0|0:0|1:0,0:0:0:0:
190,261,64441,6,0,L|86:271,2,101.999996887207,2|0|2,0:0|1:0|0:0,0:0:0:0:
322,123,66705,2,0,L|426:113,2,101.999996887207,2|0|0,0:0|1:0|1:0,0:0:0:0:
229,80,68403,1,0,1:0:0:0:
148,142,68969,6,0,P|122:217|208:305,1,203.999993774414,6|0,0:0|0:0,0:0:0:0:
256,219,70667,1,0,1:0:0:0:
314,303,71233,2,0,P|386:236|364:142,1,203.999993774414,2|0,0:0|0:0,0:0:0:0:
284,77,72931,1,0,1:0:0:0:
182,88,73497,6,0,L|24:100,2,152.999995330811,2|2|0,0:0|0:0|1:0,0:0:0:0:
243,169,75761,2,0,L|395:157,2,152.999995330811,2|2|0,0:0|0:0|1:0,0:0:0:0:
165,235,78026,6,0,P|179:322|282:354,1,203.999993774414,2|0,0:0|0:0,0:0:0:0:
373,314,79724,1,0,1:0:0:0:
412,220,80290,2,0,P|398:133|295:101,1,203.999993774414,2|0,0:0|0:0,0:0:0:0:
203,139,81988,1,0,1:0:0:0:
107,104,82554,6,0,L|84:258,2,152.999995330811,2|2|0,0:0|0:0|1:0,0:0:0:0:
203,139,84818,2,0,L|226:293,2,152.999995330811,2|0|0,0:0|0:0|1:0,0:0:0:0:
237,42,87082,5,4,0:0:0:0:
