osu file format v7

[General]
AudioFilename: Nadeshiko Romance.mp3
AudioLeadIn: 993
PreviewTime: 51191
Countdown: 0
SampleSet: Soft
StackLeniency: 0.7
Mode: 0
LetterboxInBreaks: 1

[Editor]
DistanceSpacing: 0.800000011920929
BeatDivisor: 4
GridSize: 8

[Metadata]
Title:Nadeshiko Romance (TV size)
Artist:Mariya Ise
Creator:Sallad4ever
Version:Hard
Source:Hanamaru Youchien
Tags:hinagiku narasaki

[Difficulty]
HPDrainRate:5
CircleSize:4
OverallDifficulty:7
SliderMultiplier:2
SliderTickRate:2

[Events]
//Background and Video events
Video,0,"ED_8.avi"
0,0,"hinagiku bg.png"
//Break Periods
//Storyboard Layer 0 (Background)
//Storyboard Layer 1 (Fail)
//Storyboard Layer 2 (Pass)
//Storyboard Layer 3 (Foreground)
//Storyboard Sound Samples
//Background Colour Transformations
3,100,255,128,192

[TimingPoints]
1795,517.241379310345,4,2,0,80,1,0
67995,-100,4,2,0,80,0,1
84553,-200,4,2,0,100,0,1
85588,-200,4,2,2,29,0,1
86622,-200,4,2,2,20,0,0

[Colours]
Combo1 : 255,40,255
Combo2 : 255,40,40
Combo3 : 255,139,23

[HitObjects]
256,192,1795,1,4
336,192,2053,1,0
296,120,2312,1,2
216,120,2570,1,0
176,192,2829,1,0
216,264,3088,1,0
256,264,3217,1,0
296,264,3346,1,2
376,264,3605,1,0
376,264,3863,1,0
440,208,4122,5,0
440,168,4251,1,0
440,128,4381,1,2
384,72,4639,1,0
304,72,4898,1,0
304,72,5157,1,0
224,72,5415,2,0,B|160:72|136:136,1,100,2|2
192,184,5932,1,4
256,232,6191,5,0
320,184,6450,1,0
256,136,6708,1,0
320,88,6967,1,2
400,88,7226,1,0
400,88,7355,1,0
400,88,7484,1,0
464,136,7743,1,0
400,184,8001,5,2
400,264,8260,1,0
400,264,8389,1,0
400,264,8519,1,0
320,264,8777,2,0,B|208:264,1,100,0|2
160,216,9295,2,0,B|56:216,1,100,0|2
60,216,9812,1,2
32,144,10070,6,0,B|152:144,1,100,4|0
184,80,10588,1,0
264,80,10846,2,0,B|328:80|368:128,1,100,0|2
280,136,11363,2,0,B|330:175|332:237,1,100
256,192,11881,2,0,B|267:255|226:302,1,100,0|2
200,216,12398,6,0,B|167:271|106:282,1,100
144,200,12915,2,0,B|83:221|29:190,2,100,0|2|0
176,128,13691,5,2
256,104,13950,1,2
336,128,14208,1,4
416,128,14467,2,0,B|488:128,2,50
376,200,14984,1,0
456,200,15243,2,0,B|456:272|368:272,1,100,2|0
320,272,15760,5,2
320,272,16019,1,2
256,224,16277,1,4
256,144,16536,1,0
216,144,16665,1,0
176,144,16795,2,0,B|56:144,1,100
72,224,17312,1,2
72,224,17570,1,0
72,224,17700,1,0
72,224,17829,1,2
216,288,18346,5,4
296,288,18605,1,0
256,224,18863,1,2
336,224,19122,2,0,B|400:200|400:120,2,100
296,288,19898,1,2
256,224,20157,1,2
176,224,20415,2,0,B|123:205|113:129,2,100,0|0|2
128,288,21191,1,0
47,288,21450,2,0,B|119:224|-17:160|63:88,2,200,0|2|4
128,288,22743,5,0
192,240,23001,1,2
256,288,23260,1,0
320,240,23519,1,0
384,288,23777,2,0,B|456:288,2,50,0|0|2
320,240,24295,1,2
256,192,24553,5,4
192,240,24812,2,0,B|120:240,2,50,0|0|2
256,288,25329,1,0
320,240,25588,1,2
256,192,25846,2,0,B|256:88,2,100,0|2|2
192,240,26622,5,4
128,288,26881,1,0
48,288,27139,1,2
88,224,27398,1,0
8,224,27657,1,0
48,160,27915,6,0,B|48:88|120:88,2,100,0|2|2
128,160,28691,1,0
168,232,28950,1,0
208,160,29208,1,2
248,232,29467,1,0
288,160,29726,1,0
368,160,29984,2,0,B|368:88|296:88,2,100,0|2|2
416,224,30760,1,4
368,288,31019,5,0
320,224,31277,1,2
272,288,31536,2,0,B|168:288,1,100
88,288,32053,2,0,B|40:192,1,100,0|2
120,224,32570,2,0,B|120:104,1,100,2|4
176,184,33088,6,0,B|224:88,1,100,0|2
248,168,33605,2,0,B|352:112,1,100,0|2
312,200,34122,2,0,B|416:200,2,100,0|2|2
360,264,34898,5,4
312,328,35157,1,0
232,328,35415,2,0,B|232:264|272:224,1,100,2|0
320,176,35932,1,0
262,235,36191,1,0
184,232,36450,2,0,B|120:240|120:168,1,100,2|2
72,96,36967,5,4
144,56,37226,1,0
216,32,37484,1,2
296,32,37743,1,0
368,56,38001,1,0
440,96,38260,1,2
440,96,38519,2,0,B|480:168|384:232|448:312,1,200,2|4
384,360,39295,5,0
320,312,39553,1,2
256,360,39812,1,0
192,312,40070,1,0
128,360,40329,1,0
64,312,40588,1,2
128,264,40846,1,2
192,216,41105,5,4
256,264,41363,1,0
320,216,41622,1,2
384,264,41881,1,0
448,312,42139,1,4
256,40,42657,1,4
256,360,43174,5,2
216,288,43432,1,0
296,288,43691,1,0
352,232,43950,2,0,B|384:264|416:216|456:248,1,100,0|2
416,168,44467,1,0
352,128,44726,2,0,B|320:160|288:112|248:144,1,100,2|2
256,48,45243,5,0
176,48,45501,2,0,B|144:80|112:32|72:64,1,100,0|2
88,136,46019,2,0,B|119:109|151:157|183:125,1,100,0|0
184,208,46536,2,0,B|152:240|120:192|80:224,2,100,0|2|2
256,248,47312,1,4
328,208,47570,6,0,B|360:240|392:192|432:224,1,100,0|2
424,218,48088,2,0,B|428:259|484:247|484:292,1,100
483,291,48605,2,0,B|483:334|426:323|423:364,1,100,0|2
424,363,49122,2,0,B|393:393|361:345|329:372,1,100,2|4
330,372,49639,2,0,B|290:368|302:311|256:311,1,100,0|0
256,232,50157,1,0
256,232,50415,1,4
256,72,50932,5,4
176,88,51191,1,0
136,104,51320,1,0
112,136,51450,1,2
424,200,52484,1,2
104,200,53519,1,2
256,232,54036,1,2
256,72,54553,1,2
104,360,55588,5,0
72,288,55846,1,0
152,288,56105,1,0
208,232,56363,2,0,B|208:160|160:128|56:128|8:160|8:240,1,300,2|2
8,233,57398,1,0
96,368,57657,5,2
416,368,58174,1,2
256,88,58691,1,2
392,168,59208,6,0,B|352:136|320:200|296:152,1,100,2|0
216,160,59726,1,0
136,160,59984,1,0
216,160,60243,1,2
136,160,60501,1,0
56,160,60760,2,0,B|56:224|120:248,1,100,2|0
184,240,61277,1,2
184,320,61536,6,0,B|240:408|296:232|368:336,1,200
356,321,62312,1,2
432,320,62570,1,0
432,320,62829,2,0,B|422:254|353:241,1,100
304,208,63346,1,2
256,192,63863,12,2,65932
192,208,66450,6,0,B|192:296|312:296|312:200,2,200,0|0|2
256,152,67743,1,0
256,112,67872,1,0
256,72,68001,1,4
464,320,68519,5,2
464,320,68777,1,0
384,320,69036,1,2
64,320,69553,5,2
64,320,69812,1,0
144,320,70070,2,0,B|216:320|224:248,1,100,2|0
152,232,70588,1,2
224,200,70846,2,0,B|211:148|139:148,1,100,2|0
64,144,71363,1,0
112,80,71622,2,0,B|160:72|226:94,1,100,2|2
256,160,72139,5,0
296,88,72398,1,0
256,160,72657,1,2
296,88,72915,2,0,B|346:70|394:78,1,100,2|0
448,144,73432,1,0
364,148,73691,2,0,B|301:148|288:200,1,100,2|2
256,352,74208,5,2
96,72,74726,1,4
416,72,75243,1,4
256,104,75760,5,0
216,168,76019,1,0
296,168,76277,1,2
256,232,76536,1,0
256,232,76795,1,0
336,232,77053,1,0
296,296,77312,1,2
216,296,77570,1,2
176,232,77829,1,0
152,160,78088,6,0,B|192:40|336:40|376:176,1,300,0|2
370,160,79122,1,2
400,232,79381,1,0
256,304,79898,1,2
256,192,80415,12,0,82484
120,280,83001,5,0
256,368,83519,1,2
392,280,84036,1,0
120,160,84553,6,0,B|152:-8|356:-9|388:167,1,400,2|0
