osu file format v7

[General]
AudioFilename: Nadeshiko Romance.mp3
AudioLeadIn: 993
PreviewTime: 51191
Countdown: 0
SampleSet: Soft
StackLeniency: 0.7
Mode: 0
LetterboxInBreaks: 1

[Editor]
DistanceSpacing: 0.600000023841858
BeatDivisor: 2
GridSize: 8

[Metadata]
Title:Nadeshiko Romance (TV size)
Artist:Mariya Ise
Creator:Sallad4ever
Version:Easy
Source:Hanamaru Youchien
Tags:hinagiku narasaki

[Difficulty]
HPDrainRate:2
CircleSize:3
OverallDifficulty:2
SliderMultiplier:1.2
SliderTickRate:1

[Events]
//Background and Video events
Video,0,"ED_8.avi"
0,0,"hinagiku bg.png"
//Break Periods
//Storyboard Layer 0 (Background)
//Storyboard Layer 1 (Fail)
//Storyboard Layer 2 (Pass)
//Storyboard Layer 3 (Foreground)
//Storyboard Sound Samples
//Background Colour Transformations
3,100,255,128,192

[TimingPoints]
1795,517.241379310345,4,2,0,80,1,0
67995,-100,4,2,0,80,0,1
84553,-100,4,2,0,80,0,0

[Colours]
Combo1 : 255,60,157
Combo2 : 255,40,40
Combo3 : 255,145,34

[HitObjects]
96,192,1795,1,2
168,192,2312,1,0
240,192,2829,2,0,B|368:192,1,120,2|0
432,192,3863,1,2
432,264,4381,2,0,B|432:344|336:344,1,120,0|2
288,344,5415,1,4
216,344,5932,5,2
144,344,6450,1,0
72,344,6967,2,0,B|72:240|160:240,1,120,2|0
199,246,8001,1,2
271,246,8519,2,0,B|342:246|342:142,1,120,0|2
319,94,9553,1,4
255,62,10070,5,2
183,62,10588,1,0
111,62,11105,2,0,B|127:150|215:150,1,120,2|0
255,150,12139,1,2
327,150,12657,2,0,B|463:150,1,120,0|2
447,222,13691,1,0
447,294,14208,5,4
375,294,14726,2,0,B|231:294,1,120,0|2
183,294,15760,1,0
111,294,16277,1,4
111,222,16795,2,0,B|111:126|207:126,2,120,0|2|2
183,222,18346,5,2
327,222,19381,1,2
255,102,20415,1,2
303,54,20932,1,0
351,102,21450,1,2
351,246,22484,5,4
279,246,23001,1,2
279,318,23519,2,0,B|143:318,1,120,0|2
87,318,24553,1,4
87,246,25070,1,0
87,174,25588,1,2
231,166,26622,6,0,B|231:94|335:94,1,120,2|0
383,94,27657,2,0,B|455:92|463:172,1,120,2|0
463,238,28691,2,0,B|319:238,2,120,2|2|4
359,342,30760,5,0
287,342,31277,1,2
287,270,31795,1,0
215,270,32312,1,2
215,198,32829,1,4
143,198,33346,2,0,B|63:198|63:118,1,120,0|4
183,46,34898,5,2
327,46,35932,1,2
255,174,36967,1,2
255,246,37484,1,2
255,318,38001,1,2
255,318,38519,1,2
183,318,39036,6,0,B|111:318|95:246,1,120,4|2
95,182,40070,1,0
167,182,40588,1,2
199,118,41105,2,0,B|343:118,1,120,4|0
351,182,42139,1,2
255,286,43174,5,2
255,142,44208,1,2
359,238,45243,1,2
431,238,45760,1,0
391,174,46277,1,2
255,230,47312,5,4
191,262,47829,1,2
127,230,48346,2,0,B|127:158|191:126,1,120,0|2
255,110,49381,1,4
327,130,49898,2,0,B|383:158|383:230,1,120,2|0
383,302,50932,1,4
327,350,51450,5,2
183,350,52484,1,2
255,222,53519,2,0,B|279:182|231:142|263:94,2,120,2|2|2
127,142,55588,6,0,B|47:166|47:238,1,120,2|0
47,286,56622,2,0,B|71:366|143:366,1,120,2|0
199,366,57657,2,0,B|279:342|279:270,2,120,2|0|2
159,230,59726,5,2
255,126,60760,1,2
351,230,61795,1,2
255,342,62829,2,0,B|255:206,1,120,2|0
256,192,63863,12,0,65932
104,192,66450,6,0,B|168:88|352:88|422:202,1,360,0|4
336,312,69036,1,2
192,312,70070,2,0,B|128:336|64:312,1,120,2|2
24,264,71105,1,4
112,152,72139,5,2
256,152,73174,1,2
400,152,74208,1,2
450,202,74726,1,2
399,252,75243,1,4
348,302,75760,5,2
280,336,76277,2,0,B|280:200,1,120,0|2
208,216,77312,1,0
136,216,77829,1,2
64,216,78346,6,0,B|64:146|128:120,2,120,0|2|0
104,272,79898,1,2
176,272,80415,2,0,B|176:368|344:368|344:256,1,240,0|2
344,200,81967,1,2
344,128,82484,2,0,B|344:32|176:32|176:144,2,240,0|0|4
