osu file format v5

[General]
AudioFilename: 126 Purple Comet.mp3
AudioLeadIn: 0
PreviewTime: -1
Countdown: 1
SampleSet: Normal
StackLeniency: 0.7
Mode: 0

[Metadata]
Title:Purple Comet
Artist:Mario Galaxy Orchestra
Creator:SONICDUDE41
Version:Hard
Source:
Tags:

[Difficulty]
HPDrainRate:6
CircleSize:6
OverallDifficulty:7
SliderMultiplier:2.1
SliderTickRate:1

[Events]
//Background and Video events
//Break Periods
2,18443,25176
2,38710,44610
//Storyboard Layer 0 (Background)
//Storyboard Layer 1 (Failing)
//Storyboard Layer 2 (Passing)
//Storyboard Layer 3 (Foreground)
//Storyboard Sound Samples
//Background Colour Transformations
3,100,163,162,255

[TimingPoints]
380,405.295865982167,4,1,0,100

[HitObjects]
213,144,6919,1,0
242,144,7185,1,0
270,143,7460,6,0,B|271:302,1,140
229,283,8119,1,0
189,283,8485,1,0
214,110,10119,5,0
249,110,10452,1,0
282,110,10770,1,0
293,127,10972,1,0
331,140,11352,1,0
332,186,11785,1,0
169,226,13352,5,0
169,193,13652,1,0
196,176,13952,1,0
215,160,14185,1,0
221,117,14585,1,0
221,74,14985,1,0
395,69,16619,5,0
396,100,16919,1,0
375,119,17185,1,0
362,140,17419,1,0
360,186,17852,1,0
360,223,18200,1,0
87,84,26385,6,0,B|290:84,1,175
286,84,26952,1,0
310,84,27185,1,0
352,84,27585,1,0
352,126,27940,1,0
352,211,28785,6,4,B|142:211,1,175
99,212,29585,5,4
63,213,29831,1,4
39,191,30236,1,4
38,169,30506,1,4
37,126,30819,1,0
38,87,31182,1,0
127,87,32019,6,4,B|337:87,1,175
337,131,32803,1,4
294,178,33452,5,0
277,190,33652,5,0
276,236,34085,1,0
245,260,34452,1,0
289,332,35252,5,0
320,332,35552,1,0
351,330,35852,1,0
362,303,36033,1,4
364,245,36685,5,0
349,229,36885,1,0
291,201,37285,1,4
252,143,37719,1,0
193,185,38519,1,4
53,38,45819,5,0
83,55,46152,1,0
92,81,46419,1,0
104,98,46619,1,0
153,146,47052,5,0
188,198,47394,1,4
318,99,49085,5,0
305,124,49352,1,0
302,155,49652,1,0
296,179,49885,1,0
277,240,50286,1,4
212,242,50691,1,4
270,83,52319,6,4,B|430:80,2,140
271,105,53068,1,4
180,108,53919,6,4,B|181:272,3,140
267,243,55555,6,4,B|440:243,1,140
416,215,56095,1,4
416,193,56298,1,4
416,105,57121,5,0
384,106,57419,1,0
348,107,57752,1,0
326,108,57952,1,0
321,62,58385,5,0
278,62,58785,2,0,B|277:382,1,315
57,168,59985,1,0
112,169,60363,6,0,B|432:170,1,315
499,167,61619,1,0
454,167,62019,1,0
386,167,62619,1,0
168,96,64052,5,0
217,47,64484,1,0
280,50,64822,1,0
326,94,65285,1,0
339,256,66308,6,0,B|479:256,1,105
465,256,66645,1,0
465,52,67919,6,0,B|327:53,1,105
336,52,68267,1,0
367,254,69482,2,0,B|476:254,2,105
309,254,70319,6,4,B|197:254,2,105
312,158,71319,1,0
313,95,71779,1,0
238,29,72387,1,0
158,91,72952,1,4
161,160,73385,1,4
219,229,73952,1,0
275,312,74585,5,4
325,272,74985,1,4
322,176,75585,1,4
256,192,76985,12,4,79719
362,176,80252,1,4
330,176,80452,1,4
260,174,80885,1,4
190,175,81304,1,4
309,32,82452,6,0,B|437:31,2,105
306,132,83465,6,0,B|442:132,1,105
448,185,84073,5,4
364,214,84478,2,0,B|331:219|304:223|276:206|275:242|231:217|146:288|200:160|232:-3|143:-6|64:20|28:47|7:117|13:215|20:265|52:310|141:331|212:325|258:232|385:273,2,840
