osu file format v13

[General]
AudioFilename: MARINA AND THE DIAMONDS - PART 11- "ELECTRA HEART" .mp3
AudioLeadIn: 0
PreviewTime: 54397
Countdown: 0
SampleSet: None
StackLeniency: 0.7
Mode: 0
LetterboxInBreaks: 0
WidescreenStoryboard: 0

[Editor]
DistanceSpacing: 1.2
BeatDivisor: 4
GridSize: 4
TimelineZoom: 1

[Metadata]
Title:ELECTRA HEART
TitleUnicode:ELECTRA HEART
Artist:Marina and the Diamonds
ArtistUnicode:Marina and the Diamonds
Creator:-Dave Strider-
Version:Normal
Source:
Tags:marina and the diamonds
BeatmapID:462428
BeatmapSetID:194776

[Difficulty]
HPDrainRate:4
CircleSize:3
OverallDifficulty:4
ApproachRate:5
SliderMultiplier:1.4
SliderTickRate:1

[Events]
//Background and Video events
0,0,"tumblr_mrjzp2Pu3R1rsy8nao4_1280.png",0,0
//Break Periods
2,43464,45815
2,51903,53197
2,67370,73869
2,78081,104220
2,109017,110665
2,149819,154278
2,163428,165450
2,174584,176802
2,187576,191567
//Storyboard Layer 0 (Background)
//Storyboard Layer 1 (Fail)
//Storyboard Layer 2 (Pass)
//Storyboard Layer 3 (Foreground)
//Storyboard Sound Samples
//Background Colour Transformations
3,100,255,128,192

[TimingPoints]
3890.12233642304,468.75,4,3,0,100,1,0
54397,468.75,4,3,0,100,1,0
60214,-100,4,3,0,100,0,1
74704,-100,4,3,0,100,0,0
75069,468.75,4,1,0,100,1,0
105420,468.75,4,3,0,100,1,0
144416,-100,4,3,0,100,0,1
158927,-100,4,3,0,100,0,0
159361,468.75,4,1,0,100,1,0
163252,468.75,4,1,0,100,1,1
178002,468.75,4,1,0,100,1,0
181986,468.75,4,1,0,100,1,1
196781,468.75,4,1,0,100,1,0

[Colours]
Combo1 : 255,150,0
Combo2 : 255,0,128
Combo3 : 255,255,0
Combo4 : 128,0,128
Combo5 : 64,0,128

[HitObjects]
92,72,21116,6,0,L|212:72,1,105
292,88,21702,1,0,0:0:0:0:
372,136,22171,1,0,0:0:0:0:
372,136,22405,2,0,P|324:192|312:208,1,70
252,236,22874,2,0,L|140:240,2,105,0|0|0,0:0|0:0|0:0,0:0:0:0:
252,236,23929,1,0,0:0:0:0:
256,192,24280,12,0,25804,0:0:0:0:
104,80,26155,6,0,L|192:76,1,70
272,88,26741,2,0,P|320:92|348:148,1,105
344,244,27444,2,0,P|304:256|240:216,1,105,0|0,0:0|0:0,0:0:0:0:
184,96,28499,2,0,P|264:80|292:88,2,105,0|0|0,0:0|0:0|0:0,0:0:0:0:
124,176,29671,1,0,0:0:0:0:
124,176,29905,2,0,L|204:216,1,70
232,232,30374,6,0,P|288:240|312:212,2,70,0|0|0,0:0|0:0|0:0,0:0:0:0:
228,136,31077,1,0,0:0:0:0:
304,76,31311,1,0,0:0:0:0:
256,192,31663,12,0,33186,0:0:0:0:
104,96,33655,6,0,P|160:96|200:92,2,70,0|0|0,0:0|0:0|0:0,0:0:0:0:
100,160,34358,1,0,0:0:0:0:
104,220,34593,2,0,L|188:228,3,70,0|0|0|0,0:0|0:0|0:0|0:0,0:0:0:0:
236,248,35530,1,0,0:0:0:0:
308,248,35765,6,0,P|332:160|300:80,1,175
216,84,36702,2,0,P|192:172|224:252,1,175
256,192,37640,12,0,39397,0:0:0:0:
104,240,39749,6,0,P|188:224|224:208,1,105,0|0,0:0|0:0,0:0:0:0:
304,168,40452,1,0,0:0:0:0:
304,168,40921,1,0,0:0:0:0:
408,216,41390,2,0,P|400:268|368:284,2,70,0|0|0,0:0|0:0|0:0,0:0:0:0:
408,128,42093,2,0,L|348:76,1,70
248,72,42561,1,0,0:0:0:0:
180,100,42796,2,0,L|76:208,1,140,0|0,0:0|0:0,0:0:0:0:
180,80,47015,6,0,L|96:160,1,105,0|0,0:0|0:0,0:0:0:0:
152,228,47718,2,0,P|196:248|220:228,1,70
304,204,48421,1,0,0:0:0:0:
396,140,48890,2,0,P|356:96|336:88,2,70,0|0|0,0:0|0:0|0:0,0:0:0:0:
424,212,49593,1,0,0:0:0:0:
424,212,49827,1,0,0:0:0:0:
256,192,50179,12,0,51703,0:0:0:0:
160,120,54397,6,2,P|224:92|352:104,1,175
360,260,55451,2,2,P|288:284|176:284,1,175
256,192,56389,12,0,58029,0:0:0:0:
352,256,58498,6,0,L|256:232,2,70,0|0|0,0:0|0:0|0:0,0:0:0:0:
400,172,59201,2,14,P|360:116|288:112,2,140,0|0|0,0:0|0:0|0:0,0:0:0:0:
244,232,60607,5,0,0:0:0:0:
244,232,60842,2,0,L|244:136,1,70
300,104,61310,2,0,L|368:80,2,70,0|0|0,0:0|0:0|0:0,0:0:0:0:
220,112,62014,1,0,0:0:0:0:
152,164,62248,2,0,L|100:224,3,70,0|0|0|0,0:0|0:0|0:0|0:0,0:0:0:0:
160,288,63185,2,0,B|212:300|264:296|260:292,1,70
312,292,63654,6,0,P|348:256|352:232,1,70
352,108,64240,2,0,P|280:48|280:44,2,105,0|0|0,0:0|0:0|0:0,0:0:0:0:
424,224,65295,1,0,0:0:0:0:
312,268,65764,2,0,P|216:252|196:236,1,105
192,224,66232,2,0,L|180:148,3,70,0|0|0|0,0:0|0:0|0:0|0:0,0:0:0:0:
164,72,67170,1,0,0:0:0:0:
88,136,75069,6,2,P|168:212|232:232,1,175
352,228,76006,2,2,P|444:116|448:80,1,175
340,72,76944,2,0,L|208:72,1,105,0|0,0:0|0:0,0:0:0:0:
144,128,77647,2,0,L|120:184,2,35,0|0|0,0:0|0:0|0:0,0:0:0:0:
120,256,105420,5,0,0:0:0:0:
244,240,105772,2,0,L|344:208,1,105
344,208,106475,1,0,0:0:0:0:
364,72,107178,2,0,L|208:72,1,140
152,88,107880,2,0,P|116:152|160:216,2,140,0|0|0,0:0|0:0|0:0,0:0:0:0:
100,256,111865,6,0,P|196:256|220:236,1,105
380,144,112802,1,0,0:0:0:0:
276,128,113154,2,0,L|128:128,2,140,0|0|0,0:0|0:0|0:0,0:0:0:0:
324,208,114326,2,0,L|384:260,1,70
316,320,114795,2,0,L|212:288,1,105,0|0,0:0|0:0,0:0:0:0:
256,192,115498,12,0,117724,0:0:0:0:
116,120,120068,6,8,P|184:100|216:96,3,70,8|0|0|0,0:0|0:0|0:0|0:0,0:0:0:0:
280,100,121005,2,0,P|336:116|356:128,3,70,8|0|0|0,0:0|0:0|0:0|0:0,0:0:0:0:
376,208,121943,2,0,P|328:248|312:252,3,70,8|0|0|0,0:0|0:0|0:0|0:0,0:0:0:0:
216,260,122880,1,4,0:0:0:0:
392,80,124052,6,0,P|396:140|380:176,1,70,0|0,0:0|0:0,0:0:0:0:
348,224,124521,2,0,L|272:224,2,70,0|0|0,0:0|0:0|0:0,0:0:0:0:
388,304,125224,2,0,P|304:312|268:288,1,105
188,228,125927,2,0,P|176:164|188:132,1,70
244,92,126396,1,0,0:0:0:0:
344,136,126630,6,0,P|392:160|412:164,1,70
404,252,127099,1,0,0:0:0:0:
256,192,127451,12,0,128740,0:0:0:0:
144,236,131670,6,0,P|144:168|152:128,1,105
236,96,132255,2,0,P|284:112|384:92,2,140,0|0|0,0:0|0:0|0:0,0:0:0:0:
236,192,133427,2,0,L|304:248,2,70,0|0|0,0:0|0:0|0:0,0:0:0:0:
152,136,134130,1,0,0:0:0:0:
152,136,134365,2,0,L|240:84,1,70
296,92,134834,2,0,P|364:132|272:176,1,210
344,96,138818,6,0,P|384:172|316:216,1,175,8|8,0:0|0:0,0:0:0:0:
236,256,139755,2,0,P|192:296|108:232,1,175,8|0,0:0|0:0,0:0:0:0:
136,152,140693,2,0,P|168:128|264:64,1,140
356,120,141748,1,0,0:0:0:0:
200,136,142802,6,0,P|240:112|296:112,1,70
348,116,143271,2,0,P|356:164|332:184,2,70,0|0|0,0:0|0:0|0:0,0:0:0:0:
288,160,143974,1,0,0:0:0:0:
392,248,144560,5,0,0:0:0:0:
288,272,144931,1,0,0:0:0:0:
192,256,145400,2,0,L|128:216,2,70,0|0|0,0:0|0:0|0:0,0:0:0:0:
160,132,146103,2,0,P|240:108|252:108,3,70,0|0|0|0,0:0|0:0|0:0|0:0,0:0:0:0:
300,84,147040,2,0,P|376:84|392:96,1,70
432,140,147509,2,0,L|432:220,1,70
376,284,147978,6,0,P|316:300|224:256,1,140
184,204,148681,2,0,L|196:136,1,70
264,76,149150,2,0,L|352:76,1,70
416,156,149619,1,8,0:0:0:0:
108,236,155478,6,0,P|172:212|192:176,1,105
248,108,156064,2,0,P|336:88|404:100,2,140,0|0|0,0:0|0:0|0:0,0:0:0:0:
248,204,157236,2,0,B|264:256|304:208|344:236|360:272|396:268|408:216,1,175
112,92,159478,6,0,B|160:68|196:104|256:48|228:52|248:180|252:104|292:136|324:104,1,210
300,196,160415,6,0,B|252:172|220:224|156:152|184:156|164:284|160:208|120:240|88:208,1,210
100,136,161353,1,0,0:0:0:0:
256,192,161704,12,0,163228,0:0:0:0:
136,128,166650,6,0,L|232:124,1,70
288,160,167119,2,0,L|372:212,1,70
380,272,167587,2,0,P|316:300|288:300,1,70
232,272,168056,2,0,P|188:240|168:228,2,70,0|0|0,0:0|0:0|0:0,0:0:0:0:
308,224,168759,2,0,P|324:184|328:96,1,105
232,76,169462,1,0,0:0:0:0:
160,132,169697,6,0,L|104:188,1,70
152,264,170166,2,0,P|216:288|240:272,2,70,0|0|0,0:0|0:0|0:0,0:0:0:0:
208,200,170869,2,0,L|272:160,1,70
344,112,171337,1,0,0:0:0:0:
384,200,171572,2,0,L|400:272,1,70
320,304,172041,2,0,L|256:304,2,35,8|8|8,0:0|0:0|0:0,0:0:0:0:
424,296,172509,6,0,P|440:220|440:172,1,105
432,108,173095,2,0,L|356:80,2,70,0|0|0,0:0|0:0|0:0,0:0:0:0:
400,192,173798,2,0,L|296:188,1,105
204,184,174384,1,6,0:0:0:0:
256,192,178002,12,0,181517,0:0:0:0:
192,264,181869,6,0,L|244:188,1,70
292,136,182337,2,0,L|336:140,3,35,8|8|8|8,0:0|0:0|0:0|0:0,0:0:0:0:
408,208,183040,1,0,0:0:0:0:
408,208,183275,2,0,L|352:288,1,70,0|0,0:0|0:0,0:0:0:0:
288,284,183743,2,0,L|208:256,1,70
152,208,184212,2,0,P|168:104|192:88,1,140
284,96,184915,6,0,L|360:96,2,70,0|0|0,0:0|0:0|0:0,0:0:0:0:
216,160,185618,1,0,0:0:0:0:
244,248,185853,2,0,P|344:268|376:256,2,140,0|0|0,0:0|0:0|0:0,0:0:0:0:
160,224,187025,2,0,P|120:232|168:264,1,105
168,100,192767,6,0,P|128:120|176:148,1,105
244,184,193353,2,0,P|308:184|384:192,2,140,0|0|0,0:0|0:0|0:0,0:0:0:0:
216,264,194525,2,0,B|204:328|204:328|140:272,1,140
88,96,196781,6,0,B|152:128|192:96|208:48|220:88|228:144|232:192,1,210
276,240,197718,2,0,B|292:284|324:284|332:104,1,175
256,192,198656,12,0,200648,0:0:0:0:
