osu file format v13

[General]
AudioFilename: MARINA AND THE DIAMONDS - PART 11- "ELECTRA HEART" .mp3
AudioLeadIn: 0
PreviewTime: 54397
Countdown: 0
SampleSet: None
StackLeniency: 0.7
Mode: 0
LetterboxInBreaks: 0
WidescreenStoryboard: 1

[Editor]
DistanceSpacing: 1.2
BeatDivisor: 4
GridSize: 4
TimelineZoom: 1

[Metadata]
Title:ELECTRA HEART
TitleUnicode:ELECTRA HEART
Artist:Marina and the Diamonds
ArtistUnicode:Marina and the Diamonds
Creator:-Dave Strider-
Version:BLINDED
Source:
Tags:marina and the diamonds
BeatmapID:462427
BeatmapSetID:194776

[Difficulty]
HPDrainRate:6
CircleSize:4
OverallDifficulty:6
ApproachRate:6
SliderMultiplier:1.4
SliderTickRate:1

[Events]
//Background and Video events
0,0,"tumblr_mrjzp2Pu3R1rsy8nao4_1280.png",0,0
//Break Periods
2,24480,26394
2,43464,46199
2,78198,104370
2,109135,110815
2,116518,118901
2,135385,137651
2,154858,158178
2,163428,169584
//Storyboard Layer 0 (Background)
//Storyboard Layer 1 (Fail)
//Storyboard Layer 2 (Pass)
//Storyboard Layer 3 (Foreground)
//Storyboard Sound Samples
//Background Colour Transformations
3,100,255,128,192

[TimingPoints]
3890.12233642304,468.75,4,3,0,100,1,0
54397,468.75,4,3,0,100,1,0
60079,468.75,4,3,0,100,1,1
60139,468.75,4,1,0,100,1,1
75069,468.75,4,1,0,100,1,0
105420,468.75,4,3,0,100,1,0
144580,468.75,4,3,0,100,1,1
159361,468.75,4,1,0,100,1,0
163252,468.75,4,1,0,100,1,1
178002,468.75,4,1,0,100,1,0
181986,468.75,4,1,0,100,1,1
196781,468.75,4,1,0,100,1,0

[Colours]
Combo1 : 255,150,0
Combo2 : 255,0,128
Combo3 : 255,255,0
Combo4 : 128,0,128
Combo5 : 64,0,128

[HitObjects]
104,96,20999,6,0,P|136:116|176:104,1,70
240,160,21468,2,0,P|276:204|316:184,1,105
436,184,22171,1,0,0:0:0:0:
404,268,22522,2,0,L|348:308,1,35
296,272,22874,2,0,L|220:232,1,70
176,176,23343,2,0,L|176:120,3,35,0|0|0|0,0:0|0:0|0:0|0:0,0:0:0:0:
248,76,23929,5,0,0:0:0:0:
248,76,24280,1,0,0:0:0:0:
160,144,27444,6,0,P|120:144|160:184,1,105,0|0,0:0|0:0,0:0:0:0:
332,268,28499,2,0,L|368:208,1,70
328,144,28968,2,0,P|296:128|280:96,2,70,0|0|0,0:0|0:0|0:0,0:0:0:0:
208,96,29671,2,0,L|168:160,1,70
144,228,30257,5,0,0:0:0:0:
144,228,30374,1,0,0:0:0:0:
144,228,30491,1,0,0:0:0:0:
144,228,30608,2,0,P|188:268|200:272,1,70
280,264,31077,2,0,L|352:264,2,70,0|0|0,0:0|0:0|0:0,0:0:0:0:
256,192,31897,12,0,32952,0:0:0:0:
112,88,35647,5,0,0:0:0:0:
112,88,35765,2,0,P|116:140|144:156,3,70,0|0|0|0,0:0|0:0|0:0|0:0,0:0:0:0:
160,184,36585,1,0,0:0:0:0:
204,212,36702,2,0,P|256:232|284:228,1,70
256,192,37171,12,0,39046,0:0:0:0:
80,104,39749,6,0,P|112:128|124:136,1,35,0|0,0:0|0:0,0:0:0:0:
184,176,40101,2,0,P|180:224|160:244,1,70
192,272,40452,2,0,L|268:284,1,70
344,208,40921,1,0,0:0:0:0:
272,144,41624,6,0,P|244:96|252:72,1,70,0|0,0:0|0:0,0:0:0:0:
320,72,42093,2,0,P|352:120|340:136,1,70
340,200,42561,1,0,0:0:0:0:
340,200,42679,1,0,0:0:0:0:
340,200,42796,2,0,L|232:304,1,140,0|0,0:0|0:0,0:0:0:0:
152,120,47249,5,0,0:0:0:0:
184,104,47483,1,0,0:0:0:0:
224,80,47718,2,0,L|296:88,1,70,0|0,0:0|0:0,0:0:0:0:
324,120,48069,2,0,P|340:172|380:176,1,70
380,200,48421,1,0,0:0:0:0:
288,296,49007,2,0,P|256:264|228:264,1,70,0|0,0:0|0:0,0:0:0:0:
208,268,49358,2,0,P|160:264|140:232,1,70
88,172,49827,5,0,0:0:0:0:
88,172,49944,1,0,0:0:0:0:
88,172,50061,2,0,P|140:156|168:104,1,105
208,112,50530,2,0,P|264:124|288:120,2,70,0|0|0,0:0|0:0|0:0,0:0:0:0:
80,160,52405,6,4,L|128:164,3,35,4|0|4|0,0:0|0:0|0:0|0:0,0:0:0:0:
200,168,52991,1,0,0:0:0:0:
328,164,53343,2,4,L|368:164,4,35,4|4|4|4|4,0:0|0:0|0:0|0:0|0:0,0:0:0:0:
256,192,54397,12,0,58029,0:0:0:0:
164,96,58498,6,0,B|120:128|172:132|172:156,1,70
332,156,58967,2,0,B|368:144|336:100|328:88,1,70
248,208,59670,1,0,0:0:0:0:
388,232,60139,6,0,P|424:212|384:176,1,105,0|0,0:0|0:0,0:0:0:0:
356,152,60607,2,0,P|304:112|296:88,1,70
220,84,61076,1,0,0:0:0:0:
220,84,61193,1,0,0:0:0:0:
220,84,61310,2,0,P|168:100|156:96,1,70
100,148,61779,2,0,P|96:192|116:208,2,70,0|0|0,0:0|0:0|0:0,0:0:0:0:
176,152,62482,1,0,0:0:0:0:
236,220,62717,1,0,0:0:0:0:
236,220,62834,2,0,L|296:268,1,70
404,184,63420,5,0,0:0:0:0:
404,184,63537,1,0,0:0:0:0:
404,184,63654,1,0,0:0:0:0:
404,184,63771,2,0,L|280:96,2,140,0|0|0,0:0|0:0|0:0,0:0:0:0:
384,224,64826,6,0,P|340:260|320:256,1,70
272,244,65295,2,0,P|244:204|232:264,1,140
108,272,65998,1,0,0:0:0:0:
108,272,66115,1,0,0:0:0:0:
108,272,66232,2,0,L|112:192,1,70,0|0,0:0|0:0,0:0:0:0:
96,132,66701,6,0,L|72:64,1,70
168,132,67170,2,0,L|204:68,1,70
288,128,67639,2,0,P|328:100|316:148,1,105
352,184,68107,2,0,P|384:208|368:236,1,70
312,280,68576,2,0,L|240:288,1,70
184,240,69045,2,0,L|152:164,1,70
140,100,69514,1,0,0:0:0:0:
140,100,69631,1,0,0:0:0:0:
140,100,69748,2,0,L|216:84,1,70
312,132,70217,6,0,P|344:180|360:184,1,70
400,240,70685,2,0,P|392:284|372:292,1,70
272,292,71154,1,0,0:0:0:0:
272,292,71271,1,0,0:0:0:0:
272,292,71389,2,0,P|240:248|240:232,1,70
236,164,71857,2,0,L|168:108,2,70,0|0|0,0:0|0:0|0:0,0:0:0:0:
324,204,72560,2,0,B|360:200|340:160|456:84,1,175
256,192,75186,12,0,77998,0:0:0:0:
120,104,105420,6,0,P|172:116|192:104,1,70
272,112,105888,1,0,0:0:0:0:
272,112,106005,1,0,0:0:0:0:
272,112,106123,2,0,P|336:124|352:112,1,70
424,156,106591,1,0,0:0:0:0:
416,240,106826,6,0,L|344:264,1,70,4|4,0:0|0:0,0:0:0:0:
264,264,107295,2,0,P|208:236|212:216,1,70
168,180,107763,2,0,P|128:152|120:132,2,70,0|0|0,0:0|0:0|0:0,0:0:0:0:
256,156,108466,1,4,0:0:0:0:
256,156,108584,1,4,0:0:0:0:
256,156,108701,2,4,P|316:148|348:136,1,70
120,104,111865,6,2,P|112:136|184:104,1,175
280,132,112920,2,0,L|284:224,2,70,0|0|0,0:0|0:0|0:0,0:0:0:0:
352,88,113623,2,0,P|388:104|424:96,1,70
440,184,114091,1,0,0:0:0:0:
392,252,114326,2,8,P|356:276|320:272,1,70
200,244,114795,5,0,0:0:0:0:
136,176,115146,1,0,0:0:0:0:
180,96,115380,1,0,0:0:0:0:
180,96,115498,1,0,0:0:0:0:
180,96,115615,2,0,P|204:124|232:76,2,105,0|0|0,0:0|0:0|0:0,0:0:0:0:
172,92,119951,5,0,0:0:0:0:
172,92,120068,1,0,0:0:0:0:
172,92,120185,2,0,P|216:136|224:136,3,70,0|0|0|0,0:0|0:0|0:0|0:0,0:0:0:0:
304,156,121123,2,0,P|368:184|376:196,1,70
380,264,121591,2,0,P|332:268|288:284,2,70,0|0|0,0:0|0:0|0:0,0:0:0:0:
256,192,122295,12,0,123701,0:0:0:0:
136,128,124170,6,0,L|172:200,1,70
256,228,124638,1,0,0:0:0:0:
256,228,124755,1,0,0:0:0:0:
256,228,124873,2,0,P|304:232|324:216,1,70
388,176,125341,1,0,0:0:0:0:
344,100,125810,6,0,P|304:96|264:104,1,70,0|0,0:0|0:0,0:0:0:0:
204,116,126279,2,0,P|152:136|136:124,1,70
120,212,126748,2,0,L|172:264,1,70
256,272,127216,1,0,0:0:0:0:
256,272,127334,1,0,0:0:0:0:
256,272,127451,2,4,L|328:248,2,70,0|4|0,0:0|0:0|0:0,0:0:0:0:
196,216,128154,6,0,L|172:148,1,70,0|0,0:0|0:0,0:0:0:0:
248,96,128623,2,0,P|296:96|312:72,1,70,0|0,0:0|0:0,0:0:0:0:
384,132,129091,1,0,0:0:0:0:
384,132,129209,1,0,0:0:0:0:
384,132,129326,2,0,P|384:192|368:212,1,70
336,260,129795,1,0,0:0:0:0:
248,276,130029,5,0,0:0:0:0:
248,276,130146,1,0,0:0:0:0:
248,276,130263,2,0,L|164:260,1,70
368,120,131670,6,12,P|408:168|424:140,2,105,2|2|2,0:0|0:0|0:0,0:0:0:0:
288,112,132607,2,0,L|216:124,1,70
160,176,133076,1,0,0:0:0:0:
160,176,133193,1,0,0:0:0:0:
160,176,133310,2,0,P|196:224|208:224,1,70
276,244,133779,1,0,0:0:0:0:
356,232,134013,6,0,L|416:188,2,70,0|0|0,0:0|0:0|0:0,0:0:0:0:
276,244,134716,1,0,0:0:0:0:
276,244,134834,1,0,0:0:0:0:
276,244,134951,2,4,L|192:256,1,70,0|12,0:0|0:0,0:0:0:0:
172,88,138701,6,0,P|184:128|220:168,1,70,0|0,0:0|0:0,0:0:0:0:
256,200,139170,1,0,0:0:0:0:
256,200,139287,1,0,0:0:0:0:
256,200,139404,2,0,P|296:236|320:232,1,70
380,200,139873,2,0,L|380:120,1,70
324,68,140341,1,0,0:0:0:0:
256,192,140693,12,0,142334,0:0:0:0:
108,136,142802,6,0,P|168:152|176:148,1,70
256,144,143271,2,0,P|320:140|332:148,2,70,0|0|0,0:0|0:0|0:0,0:0:0:0:
228,220,143974,2,0,P|232:256|272:224,1,105
144,168,144580,6,0,P|120:132|140:96,1,70
212,72,145048,2,0,P|248:64|304:80,1,70
400,128,145517,1,0,0:0:0:0:
400,128,145751,1,0,0:0:0:0:
408,208,145986,2,0,P|372:260|360:256,2,70,0|0|0,0:0|0:0|0:0,0:0:0:0:
304,172,146689,5,0,0:0:0:0:
304,172,146806,1,0,0:0:0:0:
304,172,146923,2,0,P|256:176|232:188,1,70
164,208,147392,2,0,P|104:184|100:180,2,70,0|0|0,0:0|0:0|0:0,0:0:0:0:
220,152,148095,6,0,P|212:108|272:116,1,105
336,132,148681,2,0,P|364:164|396:120,1,105
408,192,149267,1,0,0:0:0:0:
408,192,149384,1,0,0:0:0:0:
408,192,149501,2,0,L|408:268,1,70
340,304,149970,2,0,L|264:308,2,70,0|0|0,0:0|0:0|0:0,0:0:0:0:
336,228,150673,5,0,0:0:0:0:
272,176,150908,1,0,0:0:0:0:
180,144,151142,2,0,P|104:148|96:132,1,105
96,60,151728,1,0,0:0:0:0:
196,60,151962,2,0,P|240:48|236:104,1,105
272,172,152548,6,0,L|316:228,1,70
364,300,153017,1,0,0:0:0:0:
364,300,153134,1,0,0:0:0:0:
364,300,153251,2,0,L|264:300,1,70
216,280,153720,2,0,L|152:240,2,70,0|0|0,0:0|0:0|0:0,0:0:0:0:
280,220,154423,1,0,0:0:0:0:
292,144,154658,1,0,0:0:0:0:
124,76,159228,5,0,0:0:0:0:
124,76,159345,1,0,0:0:0:0:
124,76,159478,2,0,P|156:116|180:120,1,70
256,140,159946,1,0,0:0:0:0:
256,140,160181,1,0,0:0:0:0:
336,188,160415,2,0,L|404:240,1,70
384,312,160884,6,0,L|304:308,1,70,0|0,0:0|0:0,0:0:0:0:
256,192,161353,12,0,163228,0:0:0:0:
148,116,170634,5,8,0:0:0:0:
244,128,170869,1,0,0:0:0:0:
244,128,170986,1,0,0:0:0:0:
244,128,171103,2,0,P|260:172|276:188,1,70
356,224,171572,2,0,P|392:284|396:296,1,70
296,308,172041,5,0,0:0:0:0:
216,268,172275,2,8,P|192:228|172:212,3,70,10|12|10|12,0:0|0:0|0:0|0:0,0:0:0:0:
148,132,173212,1,0,0:0:0:0:
148,132,173330,2,0,L|184:56,1,70
268,80,173798,1,0,0:0:0:0:
268,80,174033,1,0,0:0:0:0:
344,132,174267,6,0,L|364:180,1,35
392,232,174619,1,0,0:0:0:0:
392,232,174736,1,0,0:0:0:0:
392,232,174853,2,0,P|344:272|328:288,1,70
264,272,175322,2,0,P|216:280|192:272,2,70,0|0|0,0:0|0:0|0:0,0:0:0:0:
296,192,176025,1,0,0:0:0:0:
296,192,176142,1,0,0:0:0:0:
296,192,176259,2,0,L|288:108,1,70
224,72,176728,5,0,0:0:0:0:
176,120,176962,2,0,L|112:176,1,70
148,240,177431,1,0,0:0:0:0:
148,240,177666,2,8,P|188:264|232:280,1,70
256,192,178236,12,0,181283,0:0:0:0:
188,284,181634,5,0,0:0:0:0:
188,284,181752,1,0,0:0:0:0:
188,284,181869,2,0,P|140:264|128:244,1,70
176,176,182337,2,0,P|204:152|212:120,1,70
296,72,182806,1,0,0:0:0:0:
368,104,183040,2,0,L|416:180,1,70
404,288,183743,1,8,0:0:0:0:
404,288,183861,1,8,0:0:0:0:
404,288,183978,2,8,P|336:312|320:312,1,70
248,276,184446,5,6,0:0:0:0:
204,220,184681,2,0,P|152:232|160:184,1,105
184,120,185267,2,4,P|224:88|280:80,2,105,4|4|4,0:0|0:0|0:0,0:0:0:0:
304,168,186321,1,0,0:0:0:0:
368,228,186556,1,0,0:0:0:0:
368,228,186673,1,0,0:0:0:0:
368,228,186790,2,0,P|308:248|288:252,1,70
212,256,187493,5,0,0:0:0:0:
212,256,187728,1,0,0:0:0:0:
212,256,187962,2,0,L|148:208,2,70,0|0|0,0:0|0:0|0:0,0:0:0:0:
172,144,188665,1,0,0:0:0:0:
244,100,188900,2,0,P|280:80|284:112,1,70
332,172,189368,6,0,P|320:216|380:184,1,140
416,132,190071,1,0,0:0:0:0:
416,132,190189,1,0,0:0:0:0:
416,132,190306,2,0,P|388:88|352:72,1,70
272,76,190775,2,0,P|232:96|204:100,1,70
140,160,191243,1,0,0:0:0:0:
140,160,191361,1,0,0:0:0:0:
140,160,191478,2,0,L|136:232,1,70
176,296,191946,2,4,P|240:320|264:312,3,70,4|4|4|4,0:0|0:0|0:0|0:0,0:0:0:0:
320,292,192884,5,0,0:0:0:0:
320,292,193118,1,0,0:0:0:0:
376,244,193353,2,0,P|408:212|404:168,1,70
364,116,193821,2,0,L|316:116,4,35,0|0|0|0|0,0:0|0:0|0:0|0:0|0:0,0:0:0:0:
284,176,194525,2,10,P|268:220|352:212,1,140,10|10,0:0|0:0,0:0:0:0:
256,192,196751,12,0,200179,0:0:0:0:
256,192,200648,5,14,0:0:0:0:
