osu file format v14

[General]
AudioFilename: Valley of the Dolls.mp3
AudioLeadIn: 1500
PreviewTime: 47718
Countdown: 0
SampleSet: Soft
StackLeniency: 0.7
Mode: 0
LetterboxInBreaks: 0
EpilepsyWarning: 1
WidescreenStoryboard: 1

[Editor]
DistanceSpacing: 1.2
BeatDivisor: 4
GridSize: 4
TimelineZoom: 1

[Metadata]
Title:Valley of the Dolls
TitleUnicode:Valley of the Dolls
Artist:Marina and The Diamonds
ArtistUnicode:Marina and The Diamonds
Creator:Mako Sakata
Version:Hard
Source:
Tags:Bakari -Bakari- wendao wendao2000 Harez Electra Heart Lambrini Diamandis Μαρίνα-Λαμπρινή Διαμαντή
BeatmapID:759902
BeatmapSetID:343950

[Difficulty]
HPDrainRate:6
CircleSize:3.8
OverallDifficulty:6
ApproachRate:7
SliderMultiplier:1.6
SliderTickRate:2

[Events]
//Background and Video events
0,0,"BG.jpg",0,0
//Break Periods
//Storyboard Layer 0 (Background)
//Storyboard Layer 1 (Fail)
//Storyboard Layer 2 (Pass)
//Storyboard Layer 3 (Foreground)
//Storyboard Sound Samples

[TimingPoints]
218,500,4,2,2,30,1,0
218,-133.333333333333,4,2,2,30,0,0
15718,-133.333333333333,4,2,2,35,0,0
16218,-133.333333333333,4,2,2,40,0,0
32218,-133.333333333333,4,2,2,45,0,0
48218,-111.111111111111,4,2,2,50,0,0
88218,-111.111111111111,4,2,2,40,0,0
104218,-111.111111111111,4,2,2,45,0,0
118218,-111.111111111111,4,2,2,34,0,0
118593,-111.111111111111,4,2,2,33,0,0
118968,-111.111111111111,4,2,2,32,0,0
119343,-111.111111111111,4,2,2,31,0,0
119718,-111.111111111111,4,2,2,30,0,0
120218,-100,4,2,2,50,0,1
160218,-100,4,2,2,40,0,0
160718,-100,4,2,2,35,0,0
161218,-100,4,2,2,30,0,0
161718,-100,4,2,2,25,0,0
162218,-100,4,2,2,20,0,0
162718,-100,4,2,2,15,0,0
163218,-100,4,2,2,10,0,0

[Colours]
Combo1 : 120,210,240
Combo2 : 210,210,210
Combo3 : 120,120,120
Combo4 : 240,140,200
Combo5 : 180,240,160
Combo6 : 240,240,120
Combo7 : 210,150,240
Combo8 : 240,120,120

[HitObjects]
484,264,218,6,0,P|408:304|328:264,1,180.000006866455,2|2,0:0|0:0,0:0:0:0:
408,192,1718,1,4,0:1:0:0:
332,136,2218,2,0,P|256:96|176:136,1,180.000006866455,2|2,0:0|0:0,0:0:0:0:
256,208,3718,1,4,0:1:0:0:
183,265,4218,6,0,P|105:304|28:264,1,180.000006866455,2|2,0:0|0:0,0:0:0:0:
104,192,5718,1,4,0:1:0:0:
28,120,6218,2,0,P|104:80|184:120,1,180.000006866455,2|2,0:0|0:0,0:0:0:0:
104,192,7718,1,4,0:1:0:0:
180,248,8218,102,0,P|256:288|336:248,1,180.000006866455,2|2,0:0|0:0,0:0:0:0:
256,176,9718,1,4,0:1:0:0:
330,118,10218,2,0,P|408:79|484:120,1,180.000006866455,2|2,0:0|0:0,0:0:0:0:
408,192,11718,1,4,0:1:0:0:
331,118,12218,6,0,P|256:80|174:118,1,180.000006866455,2|2,0:0|0:0,0:0:0:0:
256,192,13718,1,4,0:1:0:0:
331,265,14218,2,0,P|256:304|174:265,1,180.000006866455,2|2,0:0|0:0,0:0:0:0:
256,192,15718,1,4,0:1:0:0:
256,192,15968,1,0,0:0:0:0:
256,192,16218,102,0,L|256:72,1,120.000004577637,2|0,0:0|0:0,0:0:0:0:
184,28,16968,1,2,0:0:0:0:
112,68,17218,2,0,P|53:67|2:37,1,120.000004577637,0|4,0:0|0:1,0:0:0:0:
64,196,18218,2,0,P|154:195|237:228,2,180.000006866455,2|2|4,0:0|0:0|0:1,0:0:0:0:
173,63,20218,6,0,P|84:63|1:30,2,180.000006866455,2|2|4,0:0|0:0|0:1,0:0:0:0:
339,63,22218,2,0,P|429:63|512:30,2,180.000006866455,2|2|4,0:0|0:0|0:1,0:0:0:0:
256,44,23968,1,0,0:0:0:0:
256,128,24218,102,0,L|256:248,1,120.000004577637,2|0,0:0|0:0,0:0:0:0:
328,292,24968,1,2,0:0:0:0:
400,252,25218,2,0,P|459:253|510:283,1,120.000004577637,0|4,0:0|0:1,0:0:0:0:
448,124,26218,2,0,P|358:125|275:92,2,180.000006866455,2|2|4,0:0|0:0|0:1,0:0:0:0:
339,257,28218,6,0,P|428:257|511:290,2,180.000006866455,2|2|4,0:0|0:0|0:1,0:0:0:0:
173,257,30218,2,0,P|83:257|0:290,2,180.000006866455,2|2|4,0:0|0:0|0:1,0:0:0:0:
332,312,32218,102,0,B|344:276|332:248|332:248|320:220|331:194,1,120.000004577637,2|0,0:0|0:0,0:0:0:0:
360,116,32968,1,2,0:0:0:0:
300,56,33218,2,0,P|212:67|125:44,2,180.000006866455
380,28,34968,1,2,0:0:0:0:
452,72,35218,2,0,L|444:192,1,120.000004577637,0|4,0:0|0:1,0:0:0:0:
384,252,35968,1,0,0:0:0:0:
304,224,36218,6,0,P|216:212|129:235,2,180.000006866455,2|2|4,0:0|0:0|0:1,0:0:0:0:
59,320,38218,2,0,P|20:243|48:160,2,180.000006866455,2|2|4,0:0|0:0|0:1,0:0:0:0:
137,167,40218,86,0,P|123:110|75:76,1,120.000004577637,2|0,0:0|0:0,0:0:0:0:
49,158,40968,1,2,0:0:0:0:
85,236,41218,2,0,P|142:248|197:226,1,120.000004577637,0|4,0:0|0:1,0:0:0:0:
272,188,41968,2,0,P|328:166|385:178,1,120.000004577637
420,256,42718,1,0,0:0:0:0:
336,248,42968,1,2,0:0:0:0:
385,178,43218,2,0,L|376:56,1,120.000004577637,0|4,0:0|0:1,0:0:0:0:
296,32,43968,1,0,0:0:0:0:
220,68,44218,38,0,P|134:84|61:35,2,180.000006866455,2|2|4,0:0|0:0|0:1,0:0:0:0:
356,168,46218,2,0,L|348:348,2,180.000006866455,2|2|4,0:0|0:0|0:1,0:0:0:0:
104,120,48218,6,0,L|112:264,1,143.999995605469,6|8,0:0|0:0,0:0:0:0:
192,232,48968,2,0,P|257:207|319:239,1,143.999995605469,2|2,0:0|0:0,0:0:0:0:
404,220,49718,1,8,0:0:0:0:
172,324,50218,2,0,P|106:348|44:316,1,143.999995605469,2|8,0:0|0:0,0:0:0:0:
112,264,50968,2,0,L|104:120,1,143.999995605469,2|2,0:0|0:0,0:0:0:0:
152,48,51718,1,8,0:0:0:0:
236,68,51968,1,2,0:0:0:0:
316,35,52218,6,0,P|381:11|443:43,1,143.999995605469,2|8,0:0|0:0,0:0:0:0:
376,100,52968,1,2,0:0:0:0:
424,172,53218,2,0,P|448:237|416:299,1,143.999995605469,0|8,0:0|0:0,0:0:0:0:
360,232,53968,1,2,0:0:0:0:
288,280,54218,2,0,P|222:304|160:272,1,143.999995605469,2|8,0:0|0:0,0:0:0:0:
228,216,54968,1,2,0:0:0:0:
196,136,55218,2,0,L|203:65,1,71.9999978027344,0|2,0:0|0:0,0:0:0:0:
280,24,55718,1,8,0:0:0:0:
160,272,56218,6,0,P|222:304|288:280,1,143.999995605469,6|8,0:0|0:0,0:0:0:0:
227,215,56968,2,0,P|165:183|100:207,1,143.999995605469,2|2,0:0|0:0,0:0:0:0:
28,256,57718,1,8,0:0:0:0:
276,286,58218,2,0,P|314:228|296:160,1,143.999995605469,2|8,0:0|0:0,0:0:0:0:
328,80,58968,2,0,B|272:60|232:104|232:104|196:92,1,143.999995605469,2|2,0:0|0:0,0:0:0:0:
112,64,59718,1,8,0:0:0:0:
48,124,59968,1,2,0:0:0:0:
96,196,60218,6,0,P|120:261|88:323,1,143.999995605469,2|8,0:0|0:0,0:0:0:0:
31,256,60968,1,2,0:0:0:0:
96,196,61218,2,0,L|248:204,1,143.999995605469,0|8,0:0|0:0,0:0:0:0:
312,252,61968,1,2,0:0:0:0:
384,204,62218,5,2,0:0:0:0:
384,204,62468,1,2,0:0:0:0:
331,135,62718,1,8,0:0:0:0:
448,144,62968,1,2,0:0:0:0:
384,204,63218,1,0,0:0:0:0:
391,76,63468,1,2,0:0:0:0:
440,271,63718,1,8,0:0:0:0:
450,280,64218,38,0,P|384:312|324:285,1,143.999995605469,6|8,0:0|0:0,0:0:0:0:
296,196,64968,1,2,0:0:0:0:
384,204,65218,1,0,0:0:0:0:
228,332,65718,1,8,0:0:0:0:
228,332,66218,2,0,P|160:308|96:332,1,143.999995605469,2|8,0:0|0:0,0:0:0:0:
16,296,66968,2,0,L|24:152,1,143.999995605469,2|2,0:0|0:0,0:0:0:0:
76,84,67718,1,8,0:0:0:0:
76,84,68218,6,0,P|142:109|208:84,1,143.999995605469,2|8,0:0|0:0,0:0:0:0:
292,104,68968,1,2,0:0:0:0:
332,180,69218,2,0,P|307:246|332:312,1,143.999995605469,0|8,0:0|0:0,0:0:0:0:
415,150,70218,2,0,P|362:104|292:104,1,143.999995605469,2|8,0:0|0:0,0:0:0:0:
332,180,70968,1,2,0:0:0:0:
379,253,71218,1,0,0:0:0:0:
255,224,71468,1,2,0:0:0:0:
455,209,71718,1,8,0:0:0:0:
464,220,72218,6,0,B|486:274|453:316|453:316|471:355,1,143.999995605469,6|8,0:0|0:0,0:0:0:0:
388,380,72968,1,2,0:0:0:0:
304,360,73218,1,0,0:0:0:0:
212,180,73718,1,8,0:0:0:0:
212,180,74218,2,0,P|146:156|84:188,1,143.999995605469,2|8,0:0|0:0,0:0:0:0:
92,276,74968,2,0,P|158:300|220:268,1,143.999995605469,2|2,0:0|0:0,0:0:0:0:
305,252,75718,1,8,0:0:0:0:
305,252,76218,6,0,L|313:108,1,143.999995605469,2|8,0:0|0:0,0:0:0:0:
240,60,76968,2,0,P|175:85|113:53,1,143.999995605469,2|2,0:0|0:0,0:0:0:0:
32,84,77718,1,8,0:0:0:0:
280,140,78218,2,0,P|346:116|408:148,1,143.999995605469,2|8,0:0|0:0,0:0:0:0:
412,249,78968,1,2,0:0:0:0:
291,272,79218,1,0,0:0:0:0:
340,200,79468,1,2,0:0:0:0:
364,321,79718,1,8,0:0:0:0:
203,132,80218,6,0,B|200:176|232:200|232:200|200:260,1,143.999995605469,6|8,0:0|0:0,0:0:0:0:
120,288,80968,2,0,P|166:340|236:340,1,143.999995605469,2|2,0:0|0:0,0:0:0:0:
291,272,81718,1,8,0:0:0:0:
40,324,82218,2,0,P|40:254|92:207,1,143.999995605469,2|8,0:0|0:0,0:0:0:0:
180,204,82968,2,0,B|180:164|148:136|148:136|176:112|176:79,1,143.999995605469,2|2,0:0|0:0,0:0:0:0:
88,68,83719,1,8,0:0:0:0:
147,280,84218,6,0,L|290:272,1,143.999995605469,2|8,0:0|0:0,0:0:0:0:
348,204,84968,2,0,P|380:266|355:331,1,143.999995605469,2|2,0:0|0:0,0:0:0:0:
432,372,85718,1,8,0:0:0:0:
397,132,86218,1,2,0:0:0:0:
420,253,86468,1,2,0:0:0:0:
469,180,86718,1,8,0:0:0:0:
348,204,86968,2,0,P|283:179|221:211,1,143.999995605469,2|2,0:0|0:0,0:0:0:0:
288,264,87718,1,8,0:0:0:0:
120,304,88218,38,0,L|112:160,1,143.999995605469,6|8,0:0|0:0,0:0:0:0:
184,112,88968,2,0,P|249:137|311:105,1,143.999995605469,2|2,0:0|0:0,0:0:0:0:
384,152,89718,1,8,0:0:0:0:
244,52,90218,2,0,P|179:27|117:59,1,143.999995605469,2|8,0:0|0:0,0:0:0:0:
184,112,90968,2,0,B|199:150|199:150|163:190|183:246,1,143.999995605469,2|2,0:0|0:0,0:0:0:0:
116,300,91718,1,8,0:0:0:0:
264,208,92218,6,0,L|408:200,1,143.999995605469,2|8,0:0|0:0,0:0:0:0:
440,280,92968,2,0,L|296:288,1,143.999995605469,2|2,0:0|0:0,0:0:0:0:
264,208,93718,1,8,0:0:0:0:
373,76,94218,1,2,0:0:0:0:
396,197,94468,1,2,0:0:0:0:
445,124,94718,1,8,0:0:0:0:
324,148,94968,2,0,P|259:123|197:155,1,143.999995605469,2|2,0:0|0:0,0:0:0:0:
264,208,95718,1,8,0:0:0:0:
384,332,96218,6,0,P|449:357|511:325,1,143.999995605469,6|8,0:0|0:0,0:0:0:0:
444,268,96968,2,0,L|452:124,1,143.999995605469,2|2,0:0|0:0,0:0:0:0:
384,72,97718,1,8,0:0:0:0:
224,136,98218,2,0,P|159:161|97:129,1,143.999995605469,2|8,0:0|0:0,0:0:0:0:
24,176,98968,2,0,L|32:320,1,143.999995605469,2|2,0:0|0:0,0:0:0:0:
104,368,99718,1,8,0:0:0:0:
244,268,100218,6,0,P|309:243|371:275,1,143.999995605469,2|8,0:0|0:0,0:0:0:0:
304,328,100968,2,0,P|239:353|177:321,1,143.999995605469,2|2,0:0|0:0,0:0:0:0:
124,252,101718,1,8,0:0:0:0:
267,147,102218,1,2,0:0:0:0:
244,268,102468,1,2,0:0:0:0:
195,195,102718,1,8,0:0:0:0:
316,219,102968,2,0,P|381:194|443:226,1,143.999995605469,2|2,0:0|0:0,0:0:0:0:
376,279,103718,1,8,0:0:0:0:
195,195,104218,6,0,B|211:155|195:123|195:123|179:91|193:55,1,143.999995605469,6|8,0:0|0:0,0:0:0:0:
276,88,104968,1,2,0:0:0:0:
356,56,105218,2,0,P|421:31|483:63,1,143.999995605469,0|8,0:0|0:0,0:0:0:0:
424,260,106218,2,0,L|416:116,1,143.999995605469,2|8,0:0|0:0,0:0:0:0:
356,56,106968,1,2,0:0:0:0:
276,88,107218,2,0,L|284:232,1,143.999995605469,0|8,0:0|0:0,0:0:0:0:
152,344,108218,6,0,P|87:368|25:336,1,143.999995605469,2|8,0:0|0:0,0:0:0:0:
92,280,108968,2,0,P|68:215|100:153,1,143.999995605469,2|2,0:0|0:0,0:0:0:0:
156,220,109718,1,8,0:0:0:0:
320,276,110218,1,2,0:0:0:0:
199,299,110468,1,2,0:0:0:0:
248,227,110718,1,8,0:0:0:0:
272,348,110968,2,0,P|340:361|395:319,1,143.999995605469,2|2,0:0|0:0,0:0:0:0:
320,276,111718,1,8,0:0:0:0:
124,248,112218,38,0,L|132:104,1,143.999995605469,6|8,0:0|0:0,0:0:0:0:
200,52,112968,1,2,0:0:0:0:
276,92,113218,2,0,P|344:105|399:63,1,143.999995605469,0|8,0:0|0:0,0:0:0:0:
348,132,113968,2,0,B|379:190|379:190|348:216|351:260,1,143.999995605469
374,380,114718,1,8,0:0:0:0:
423,307,114968,1,2,0:0:0:0:
302,331,115218,2,0,L|158:339,1,143.999995605469,0|8,0:0|0:0,0:0:0:0:
56,200,116218,6,0,P|32:135|64:73,1,143.999995605469,2|8,0:0|0:0,0:0:0:0:
120,140,116968,2,0,P|185:116|247:148,1,143.999995605469,2|2,0:0|0:0,0:0:0:0:
180,204,117718,1,8,0:0:0:0:
343,259,118218,2,0,P|396:267|444:244,3,107.999996704102,8|8|8|8,0:0|0:0|0:0|0:0,0:0:0:0:
376,132,119718,1,8,0:0:0:0:
120,140,120218,6,0,B|104:184|120:216|120:216|136:248|120:296,1,160,6|8,0:0|0:0,0:0:0:0:
44,340,120968,2,0,L|203:332,1,160,2|2,0:0|0:0,0:0:0:0:
288,360,121719,1,8,0:0:0:0:
456,171,122218,2,0,P|486:100|451:30,1,160,2|8,0:0|0:0,0:0:0:0:
396,104,122968,2,0,P|322:128|260:84,1,160,2|2,0:0|0:0,0:0:0:0:
336,40,123718,1,8,0:0:0:0:
396,104,123968,1,2,0:0:0:0:
352,180,124218,6,0,L|360:339,1,160,2|8,0:0|0:0,0:0:0:0:
280,376,124968,1,2,0:0:0:0:
212,320,125218,2,0,P|137:295|73:339,1,160,0|8,0:0|0:0,0:0:0:0:
151,383,125968,1,2,0:0:0:0:
212,320,126218,2,0,L|204:161,1,160,2|8,0:0|0:0,0:0:0:0:
256,88,126968,1,2,0:0:0:0:
340,116,127218,2,0,P|378:124|415:111,1,80,0|2,0:0|0:0,0:0:0:0:
372,36,127718,1,8,0:0:0:0:
208,240,128218,6,0,P|134:264|70:220,1,160,6|8,0:0|0:0,0:0:0:0:
148,175,128968,2,0,P|221:151|284:194,1,160,2|2,0:0|0:0,0:0:0:0:
344,260,129718,1,8,0:0:0:0:
92,244,130218,2,0,P|62:173|97:103,1,160,2|8,0:0|0:0,0:0:0:0:
204,108,130968,2,0,P|234:179|199:249,1,160,2|2,0:0|0:0,0:0:0:0:
144,316,131718,1,8,0:0:0:0:
208,376,131968,1,2,0:0:0:0:
292,348,132218,6,0,P|365:371|428:326,1,160,2|8,0:0|0:0,0:0:0:0:
352,283,132968,1,2,0:0:0:0:
404,211,133218,2,0,P|428:138|388:71,1,160,0|8,0:0|0:0,0:0:0:0:
340,148,133968,1,2,0:0:0:0:
264,100,134218,37,2,0:0:0:0:
264,100,134468,1,2,0:0:0:0:
195,153,134718,1,8,0:0:0:0:
204,36,134968,1,2,0:0:0:0:
264,100,135218,1,0,0:0:0:0:
136,93,135468,1,2,0:0:0:0:
340,148,135718,1,8,0:0:0:0:
356,152,136218,6,0,L|348:312,1,160,6|8,0:0|0:0,0:0:0:0:
280,368,136968,1,2,0:0:0:0:
200,332,137218,1,0,0:0:0:0:
124,115,137718,1,8,0:0:0:0:
124,114,138218,2,0,P|190:74|263:99,1,160,2|8,0:0|0:0,0:0:0:0:
339,145,138968,2,0,P|273:185|200:160,1,160,2|2,0:0|0:0,0:0:0:0:
263,99,139718,1,8,0:0:0:0:
263,99,140218,6,0,P|329:59|402:84,1,160,2|8,0:0|0:0,0:0:0:0:
468,144,140968,1,2,0:0:0:0:
432,224,141218,2,0,B|404:276|444:318|444:318|428:372,1,160,0|8,0:0|0:0,0:0:0:0:
244,244,142218,2,0,L|84:240,1,160,2|8,0:0|0:0,0:0:0:0:
20,176,142968,1,2,0:0:0:0:
84,240,143218,1,0,0:0:0:0:
69,100,143468,1,2,0:0:0:0:
36,316,143718,1,8,0:0:0:0:
48,328,144218,6,0,L|208:332,1,160,6|8,0:0|0:0,0:0:0:0:
288,368,144968,1,2,0:0:0:0:
368,332,145218,1,0,0:0:0:0:
440,116,145718,1,8,0:0:0:0:
440,116,146218,2,0,L|280:112,1,160,2|8,0:0|0:0,0:0:0:0:
212,56,146968,2,0,L|52:52,1,160,2|2,0:0|0:0,0:0:0:0:
80,136,147718,1,8,0:0:0:0:
80,136,148218,6,0,L|88:295,1,160,2|8,0:0|0:0,0:0:0:0:
172,268,148968,2,0,P|245:244|312:285,1,160,2|2,0:0|0:0,0:0:0:0:
234,329,149718,1,8,0:0:0:0:
364,128,150218,2,0,P|432:164|504:135,1,160,2|8,0:0|0:0,0:0:0:0:
436,78,150968,1,2,0:0:0:0:
309,59,151218,1,0,0:0:0:0:
382,9,151468,1,2,0:0:0:0:
364,128,151718,1,8,0:0:0:0:
224,332,152218,6,0,B|168:315|168:315|124:352|72:328,1,160,6|8,0:0|0:0,0:0:0:0:
112,248,152968,2,0,L|120:89,1,160,2|2,0:0|0:0,0:0:0:0:
52,32,153718,1,8,0:0:0:0:
288,132,154218,2,0,B|320:128|344:149|344:149|388:112|440:132,1,160,2|8,0:0|0:0,0:0:0:0:
404,216,154968,2,0,P|427:289|386:356,1,160,2|2,0:0|0:0,0:0:0:0:
343,278,155718,1,8,0:0:0:0:
192,128,156218,38,0,P|119:105|56:150,1,160,2|8,0:0|0:0,0:0:0:0:
72,236,156968,2,0,P|145:259|208:214,1,160,2|2,0:0|0:0,0:0:0:0:
292,240,157718,1,8,0:0:0:0:
401,104,158218,1,2,0:0:0:0:
424,225,158468,1,2,0:0:0:0:
473,152,158718,1,8,0:0:0:0:
352,176,158968,2,0,P|279:152|216:195,1,160,2|2,0:0|0:0,0:0:0:0:
292,240,159718,1,8,0:0:0:0:
256,192,160218,12,0,163218,0:0:0:0:
