osu file format v13

[General]
AudioFilename: Marina and The Diamonds - Primadonnaa.mp3
AudioLeadIn: 0
PreviewTime: 136343
Countdown: 0
SampleSet: Soft
StackLeniency: 0.7
Mode: 0
LetterboxInBreaks: 0
WidescreenStoryboard: 0

[Editor]
Bookmarks: 134468
DistanceSpacing: 0.8
BeatDivisor: 2
GridSize: 4
TimelineZoom: 1

[Metadata]
Title:Primadonna
TitleUnicode:Primadonna
Artist:Marina and The Diamonds
ArtistUnicode:Marina and The Diamonds
Creator:-Bakari-
Version:Normal
Source:
Tags:veus Gabe Black_Cherry_Ita BCI electra heart synthpop Lambrini Diamandis new wave
BeatmapID:242216
BeatmapSetID:88981

[Difficulty]
HPDrainRate:4
CircleSize:4
OverallDifficulty:4
ApproachRate:5
SliderMultiplier:1.3
SliderTickRate:2

[Events]
//Background and Video events
0,0,"diamonds .jpg",0,0
//Break Periods
2,91343,104674
2,166350,178268
//Storyboard Layer 0 (Background)
//Storyboard Layer 1 (Fail)
//Storyboard Layer 2 (Pass)
//Storyboard Layer 3 (Foreground)
//Storyboard Sound Samples

[TimingPoints]
31343,468.75,4,1,0,55,1,0
61343,-100,4,1,0,65,0,1
76343,-125,4,2,0,55,0,0
105874,-125,4,1,0,40,0,0
106343,-100,4,1,0,55,0,0
134468,-100,4,2,0,45,0,0
136343,-100,4,1,0,55,0,1
151343,-125,4,2,0,55,0,0
179468,-125,4,1,0,35,0,0
185093,-100,4,1,0,65,0,1
214155,-100,4,2,0,65,0,1
215093,-100,4,2,0,30,0,0

[Colours]
Combo1 : 216,129,185
Combo2 : 167,139,164

[HitObjects]
136,292,30874,5,8,0:0:0:0:
264,312,31343,6,0,P|252:260|260:168,1,130,4|8,0:0|0:0,0:0:0:0:
272,132,32046,1,0,0:0:0:0:
300,88,32280,1,0,0:0:0:0:
200,64,32749,2,0,L|64:52,2,130,8|0|8,0:0|0:0|0:0,0:0:0:0:
192,168,34155,1,0,0:0:0:0:
116,240,34624,1,8,0:0:0:0:
144,340,35093,6,0,P|204:336|288:344,1,130,0|8,0:0|0:0,0:0:0:0:
324,356,35796,1,0,0:0:0:0:
372,338,36030,1,0,0:0:0:0:
474,356,36499,2,0,L|486:224,1,130,8|0,0:0|0:0,0:0:0:0:
436,208,37202,1,0,0:0:0:0:
388,189,37436,2,0,L|404:53,1,130,8|0,0:0|0:0,0:0:0:0:
300,39,38374,1,8,0:0:0:0:
200,70,38843,5,0,0:0:0:0:
148,64,39077,1,0,0:0:0:0:
104,40,39311,2,0,L|64:168,1,130,8|0,0:0|0:0,0:0:0:0:
136,232,40249,1,8,0:0:0:0:
176,264,40483,1,0,0:0:0:0:
184,316,40718,2,0,P|111:325|63:301,2,130,0|8|0,0:0|0:0|0:0,0:0:0:0:
280,356,42124,1,8,0:0:0:0:
388,368,42593,6,0,L|384:300,1,65
396,252,43061,2,0,L|420:188,1,65,8|0,0:0|0:0,0:0:0:0:
392,144,43530,1,0,0:0:0:0:
428,44,43999,1,8,0:0:0:0:
324,56,44468,2,0,L|192:48,1,130,0|8,0:0|0:0,0:0:0:0:
168,92,45171,1,0,0:0:0:0:
148,140,45405,2,0,L|288:148,1,130,0|8,0:0|0:0,0:0:0:0:
284,252,46343,5,0,0:0:0:0:
344,336,46811,2,0,B|408:316|408:368|488:340,1,130,8|0,0:0|0:0,0:0:0:0:
448,244,47749,1,8,0:0:0:0:
480,204,47983,1,0,0:0:0:0:
480,152,48218,2,0,B|416:132|416:184|336:156,1,130,0|8,0:0|0:0,0:0:0:0:
288,80,49155,1,0,0:0:0:0:
240,172,49624,1,8,0:0:0:0:
164,248,50093,5,0,0:0:0:0:
108,160,50561,2,0,P|128:100|108:36,2,130,8|0|8,0:0|0:0|0:0,0:0:0:0:
64,184,51733,1,0,0:0:0:0:
52,236,51968,2,0,P|64:262|101:292,1,65
136,312,52436,2,0,P|204:328|352:208,1,260,8|8,0:0|0:0,0:0:0:0:
348,120,53843,5,0,0:0:0:0:
432,180,54311,2,0,L|520:188,2,65,8|0|0,0:0|0:0|0:0,0:0:0:0:
364,260,55249,1,8,0:0:0:0:
280,320,55718,2,0,L|192:312,2,65,0|0|8,0:0|0:0|0:0,0:0:0:0:
328,340,56421,1,0,0:0:0:0:
380,352,56655,2,0,P|428:332|456:260,1,130,0|8,0:0|0:0,0:0:0:0:
396,176,57593,6,0,L|352:44,1,130,0|8,0:0|0:0,0:0:0:0:
304,48,58296,1,0,0:0:0:0:
252,44,58530,2,0,L|293:167,1,130,0|8,0:0|0:0,0:0:0:0:
240,164,59233,1,0,0:0:0:0:
188,160,59468,2,0,L|146:36,1,130,0|8,0:0|0:0,0:0:0:0:
44,36,60405,1,0,0:0:0:0:
72,136,60874,1,8,0:0:0:0:
40,236,61343,6,2,P|28:308|76:364,1,130,4|8,0:0|0:0,0:0:0:0:
108,368,62046,1,0,0:0:0:0:
160,364,62280,1,0,0:0:0:0:
228,284,62749,1,8,0:0:0:0:
280,196,63218,2,2,P|292:148|268:72,1,130,0|8,0:0|0:0,0:0:0:0:
320,56,63921,2,2,L|476:64,1,130
496,40,64624,1,8,0:0:0:0:
492,144,65093,6,2,L|508:276,1,130,0|8,0:0|0:0,0:0:0:0:
508,376,66030,1,0,0:0:0:0:
416,328,66499,2,0,P|380:328|348:336,1,65,8|0,0:0|0:0,0:0:0:0:
304,356,66968,6,2,P|284:308|296:220,1,130,0|8,0:0|0:0,0:0:0:0:
276,180,67671,2,2,P|220:164|148:176,1,130,0|0,0:0|0:0,0:0:0:0:
124,220,68374,2,0,P|100:236|44:232,1,65,8|0,0:0|0:0,0:0:0:0:
20,212,68843,6,2,P|0:152|12:80,1,130,4|8,0:0|0:0,0:0:0:0:
44,48,69546,1,0,0:0:0:0:
92,68,69780,2,0,L|232:72,1,130,2|8,0:0|0:0,0:0:0:0:
320,24,70718,2,2,P|328:80|292:148,1,130,0|8,0:0|0:0,0:0:0:0:
252,172,71421,2,2,P|228:220|244:300,1,130
272,336,72124,1,8,0:0:0:0:
176,376,72593,6,0,L|28:380,1,130,0|8,0:0|0:0,0:0:0:0:
17,335,73296,1,0,0:0:0:0:
24,284,73530,1,0,0:0:0:0:
60,248,73764,1,0,0:0:0:0:
112,240,73999,1,8,0:0:0:0:
212,264,74468,5,0,0:0:0:0:
184,164,74936,2,0,L|176:28,1,130,8|0,0:0|0:0,0:0:0:0:
280,16,75874,1,8,0:0:0:0:
348,68,76343,6,0,P|412:64|452:40,2,104,2|0|0,0:0|0:0|0:0,0:0:0:0:
288,124,77749,1,0,0:0:0:0:
252,144,77983,2,0,L|124:136,2,104
256,184,79155,1,0,0:0:0:0:
296,256,79624,1,0,0:0:0:0:
376,228,80093,6,0,P|380:276|348:324,2,104,2|0|0,0:0|0:0|0:0,0:0:0:0:
328,160,81499,1,0,0:0:0:0:
364,140,81733,2,0,P|424:80|412:8,1,156,2|0,0:0|0:0,0:0:0:0:
344,56,82905,1,0,0:0:0:0:
276,104,83374,1,0,0:0:0:0:
196,72,83843,6,0,P|124:80|108:216,1,208,2|0,0:0|0:0,0:0:0:0:
168,156,85249,1,0,0:0:0:0:
252,164,85718,2,0,P|232:208|164:240,1,104,2|0,0:0|0:0,0:0:0:0:
112,272,86655,2,0,L|124:328,2,52
76,248,87358,1,0,0:0:0:0:
80,208,87593,6,0,P|128:188|188:180,1,104,2|0,0:0|0:0,0:0:0:0:
256,144,88530,2,0,P|252:96|236:41,1,104
320,28,89468,2,0,P|332:80|338:130,1,104,2|0,0:0|0:0,0:0:0:0:
316,212,90405,1,0,0:0:0:0:
104,316,105874,5,8,0:0:0:0:
152,224,106343,2,0,L|20:204,2,130,0|8|0,0:0|0:0|0:0,0:0:0:0:
220,148,107749,1,8,0:0:0:0:
252,108,107983,1,0,0:0:0:0:
284,68,108218,2,0,L|416:88,2,130,0|8|0,0:0|0:0|0:0,0:0:0:0:
180,56,109624,1,8,0:0:0:0:
124,144,110093,6,0,P|136:188|116:272,1,130,0|8,0:0|0:0,0:0:0:0:
88,312,110796,1,0,0:0:0:0:
48,348,111030,1,0,0:0:0:0:
152,364,111499,2,0,B|216:336|216:384|292:364,1,130,8|0,0:0|0:0,0:0:0:0:
284,264,112436,2,0,P|264:160|384:96,1,260,8|8,0:0|0:0,0:0:0:0:
360,196,113843,5,0,0:0:0:0:
436,268,114311,2,0,L|512:280,2,65,8|0|0,0:0|0:0|0:0,0:0:0:0:
336,300,115249,1,8,0:0:0:0:
288,316,115483,1,0,0:0:0:0:
240,336,115718,2,0,L|104:308,1,130,0|8,0:0|0:0,0:0:0:0:
60,316,116421,1,0,0:0:0:0:
9,324,116655,2,0,P|-10:260|5:188,1,130,0|8,0:0|0:0,0:0:0:0:
56,112,117593,6,0,P|123:115|158:44,1,130,0|8,0:0|0:0,0:0:0:0:
252,24,118530,1,0,0:0:0:0:
248,128,118999,2,0,P|188:204|28:212,2,260,8|8|8,0:0|0:0|0:0,0:0:0:0:
336,76,121343,5,0,0:0:0:0:
420,140,121811,2,0,L|496:136,2,65,8|0|0,0:0|0:0|0:0,0:0:0:0:
344,212,122749,1,8,0:0:0:0:
340,264,122983,1,0,0:0:0:0:
296,288,123218,2,0,P|228:284|160:292,1,130,0|8,0:0|0:0,0:0:0:0:
84,228,124155,2,0,P|92:188|72:92,1,130,0|8,0:0|0:0,0:0:0:0:
16,16,125093,5,0,0:0:0:0:
120,20,125561,2,0,L|260:36,1,130,8|0,0:0|0:0,0:0:0:0:
352,20,126499,1,8,0:0:0:0:
340,72,126733,1,0,0:0:0:0:
328,124,126968,2,0,L|300:256,2,130,0|8|0,0:0|0:0|0:0,0:0:0:0:
428,96,128374,1,8,0:0:0:0:
436,200,128843,6,0,L|408:332,1,130,0|8,0:0|0:0,0:0:0:0:
304,340,129780,2,0,L|332:208,1,130,0|8,0:0|0:0,0:0:0:0:
312,164,130483,1,0,0:0:0:0:
260,164,130718,2,0,L|128:136,2,130,0|8|0,0:0|0:0|0:0,0:0:0:0:
308,64,132124,1,8,0:0:0:0:
388,132,132593,6,0,P|424:140|468:220,1,130,0|8,0:0|0:0,0:0:0:0:
424,312,133530,1,0,0:0:0:0:
368,224,133999,2,0,L|208:224,1,130,8|0,0:0|0:0,0:0:0:0:
208,264,134702,1,0,0:0:0:0:
180,308,134936,1,8,0:0:0:0:
112,228,135405,1,2,2:2:0:0:
44,148,135874,1,0,0:0:0:0:
148,132,136343,6,2,B|212:112|212:160|276:140,1,130,4|8,0:0|0:0,0:0:0:0:
248,40,137280,2,0,B|312:20|312:68|376:48,1,130,0|8,0:0|0:0,0:0:0:0:
476,28,138218,2,2,L|432:160,1,130,0|8,0:0|0:0,0:0:0:0:
384,136,138921,2,2,L|340:268,1,130,0|0,0:0|0:0,0:0:0:0:
292,260,139624,2,2,L|248:392,2,130,8|0|8,0:0|0:0|0:0,0:0:0:0:
260,220,140796,5,0,0:0:0:0:
212,240,141030,2,2,L|88:200,1,130,0|8,0:0|0:0,0:0:0:0:
44,104,141968,1,2,0:0:0:0:
136,56,142436,1,8,0:0:0:0:
232,96,142905,1,2,0:0:0:0:
324,48,143374,1,8,0:0:0:0:
400,116,143843,6,2,L|416:248,1,130,0|8,0:0|0:0,0:0:0:0:
452,284,144546,1,0,0:0:0:0:
424,328,144780,2,0,L|280:320,1,130,0|8,0:0|0:0,0:0:0:0:
204,372,145718,2,2,P|216:308|196:244,1,130,0|8,0:0|0:0,0:0:0:0:
184,196,146421,2,2,P|180:140|224:80,1,130
268,60,147124,1,8,0:0:0:0:
172,24,147593,6,2,L|32:12,1,130,0|8,0:0|0:0,0:0:0:0:
20,60,148296,1,0,0:0:0:0:
40,108,148530,2,2,P|60:176|20:252,2,130,0|8|0,0:0|0:0|0:0,0:0:0:0:
92,96,149702,1,0,0:0:0:0:
144,104,149936,1,8,0:0:0:0:
188,132,150171,1,0,0:0:0:0:
212,176,150405,2,0,P|216:200|208:240,1,65
180,284,150874,1,8,0:0:0:0:
224,352,151343,6,0,P|280:348|328:320,2,104,2|0|0,0:0|0:0|0:0,0:0:0:0:
188,332,152514,1,0,0:0:0:0:
220,256,152983,1,0,0:0:0:0:
200,220,153218,2,0,P|160:212|96:228,1,104,2|0,0:0|0:0,0:0:0:0:
32,180,154155,2,0,P|44:132|16:64,1,104
88,20,155093,6,0,L|204:24,1,104,2|0,0:0|0:0,0:0:0:0:
244,88,156030,2,0,L|260:204,2,104,0|0|2,0:0|0:0|0:0,0:0:0:0:
296,20,157436,1,0,0:0:0:0:
320,52,157671,2,0,P|368:60|436:44,1,104
460,32,158374,1,0,0:0:0:0:
468,116,158843,6,0,L|488:236,2,104,2|0|0,0:0|0:0|0:0,0:0:0:0:
392,156,160249,1,0,0:0:0:0:
364,188,160483,2,0,L|256:176,1,104,2|0,0:0|0:0,0:0:0:0:
200,124,161421,1,0,0:0:0:0:
176,160,161655,1,0,0:0:0:0:
128,224,162124,1,0,0:0:0:0:
56,184,162593,6,0,P|56:136|88:88,1,104,2|0,0:0|0:0,0:0:0:0:
168,72,163530,2,0,B|220:60|220:60|252:12,1,104
288,4,164233,2,0,B|344:8|344:8|384:48,2,104,0|0|0,0:0|0:0|0:0,0:0:0:0:
276,44,165405,1,0,0:0:0:0:
256,192,179468,12,0,184155,0:0:0:0:
132,228,185093,6,2,L|96:96,2,130,4|8|0,0:0|0:0|0:0,0:0:0:0:
112,328,186499,1,8,0:0:0:0:
164,320,186733,1,0,0:0:0:0:
216,312,186968,2,2,L|352:328,1,130,0|8,0:0|0:0,0:0:0:0:
448,324,187905,2,0,P|488:288|496:208,1,130,0|8,0:0|0:0,0:0:0:0:
472,172,188608,1,0,0:0:0:0:
480,116,188843,6,2,L|344:104,1,130,0|8,0:0|0:0,0:0:0:0:
268,40,189780,1,2,0:0:0:0:
204,120,190249,1,8,0:0:0:0:
136,200,190718,1,2,0:0:0:0:
236,220,191186,2,0,B|300:204|300:252|376:224,2,130,8|0|8,0:0|0:0|0:0,0:0:0:0:
152,284,192593,6,2,B|88:268|88:316|12:288,2,130,0|8|0,0:0|0:0|0:0,0:0:0:0:
120,384,193999,1,8,0:0:0:0:
168,368,194233,1,0,0:0:0:0:
220,352,194468,2,2,L|352:360,1,130,0|8,0:0|0:0,0:0:0:0:
396,332,195171,1,0,0:0:0:0:
372,284,195405,2,2,L|388:152,1,130,0|8,0:0|0:0,0:0:0:0:
456,76,196343,6,2,L|316:64,1,130,0|8,0:0|0:0,0:0:0:0:
276,48,197046,1,0,0:0:0:0:
228,32,197280,2,2,L|76:20,1,130,0|8,0:0|0:0,0:0:0:0:
84,124,198218,2,0,L|68:268,1,130,0|8,0:0|0:0,0:0:0:0:
52,304,198921,1,0,0:0:0:0:
100,320,199155,2,0,L|240:328,1,130,0|8,0:0|0:0,0:0:0:0:
320,376,200093,5,0,0:0:0:0:
400,308,200561,2,0,P|436:212|360:84,2,260,8|8|8,0:0|0:0|0:0,0:0:0:0:
308,264,202905,2,0,P|344:204|312:164,1,130,0|8,0:0|0:0,0:0:0:0:
232,96,203843,6,0,L|100:80,1,130,0|8,0:0|0:0,0:0:0:0:
20,144,204780,1,0,0:0:0:0:
88,224,205249,2,0,L|64:356,2,130,8|0|8,0:0|0:0|0:0,0:0:0:0:
180,176,206655,1,0,0:0:0:0:
256,248,207124,1,8,0:0:0:0:
356,212,207593,5,0,0:0:0:0:
392,308,208061,2,0,P|448:256|356:112,2,260,8|8|8,0:0|0:0|0:0,0:0:0:0:
292,284,210405,1,0,0:0:0:0:
200,332,210874,1,8,0:0:0:0:
208,228,211343,6,0,B|148:196|148:256|72:220,1,130,0|8,0:0|0:0,0:0:0:0:
20,140,212280,1,0,0:0:0:0:
88,64,212749,1,8,0:0:0:0:
132,88,212983,1,0,0:0:0:0:
180,112,213218,2,0,L|316:120,1,130,0|8,0:0|0:0,0:0:0:0:
408,84,214155,6,0,P|416:128|404:168,1,65
384,192,214624,2,0,L|376:264,1,65,8|0,0:0|0:0,0:0:0:0:
344,296,215093,1,12,0:0:0:0:
