osu file format v13

[General]
AudioFilename: Marina and the Diamonds - Power & Control.mp3
AudioLeadIn: 0
PreviewTime: 32217
Countdown: 0
SampleSet: Soft
StackLeniency: 0.7
Mode: 0
LetterboxInBreaks: 0
WidescreenStoryboard: 0

[Editor]
DistanceSpacing: 1.1
BeatDivisor: 4
GridSize: 4
TimelineZoom: 1

[Metadata]
Title:Power & Control
TitleUnicode:Power & Control
Artist:Marina and The Diamonds
ArtistUnicode:Marina and The Diamonds
Creator:Mystyk
Version:Normal
Source:
Tags:electra heart and lambrini diamandis electropop
BeatmapID:262543
BeatmapSetID:76127

[Difficulty]
HPDrainRate:4
CircleSize:4
OverallDifficulty:4
ApproachRate:5
SliderMultiplier:1.3
SliderTickRate:2

[Events]
//Background and Video events
0,0,"Power_and_Control.jpg",0,0
//Break Periods
2,112417,127017
//Storyboard Layer 0 (Background)
//Storyboard Layer 1 (Fail)
//Storyboard Layer 2 (Pass)
//Storyboard Layer 3 (Foreground)
//Storyboard Sound Samples
//Background Colour Transformations
3,100,163,162,255

[TimingPoints]
217,500,4,2,1,90,1,0
32217,-100,4,2,1,90,0,1
46217,-100,4,2,1,90,0,0
48217,-100,4,2,1,90,0,1
64217,-100,4,2,1,90,0,0
80217,-100,4,2,1,90,0,1
94217,-100,4,2,1,90,0,0
96217,-100,4,2,1,90,0,1
112217,-100,4,2,1,90,0,0
128217,-100,4,2,1,70,0,0
144217,-100,4,2,1,90,0,0
176217,-100,4,2,1,90,0,1
208217,-100,4,2,1,90,0,0

[Colours]
Combo1 : 216,216,216
Combo2 : 176,192,255
Combo3 : 128,0,255
Combo4 : 31,19,174

[HitObjects]
80,184,16217,6,0,P|104:244|160:272,1,130,2|0,0:0|0:0,0:0:0:0:
300,296,17217,2,0,P|300:232|268:176,1,130,2|0,0:0|0:0,0:0:0:0:
172,68,18217,2,0,P|236:36|292:40,2,130,2|0|2,0:0|0:0|0:0,0:0:0:0:
84,180,19717,1,0,0:0:0:0:
124,316,20217,6,0,P|184:328|244:300,1,130,0|2,0:0|0:0,0:0:0:0:
236,156,21217,2,0,P|296:128|356:140,1,130,0|2,0:0|0:0,0:0:0:0:
496,108,22217,2,0,P|468:52|416:12,2,130,0|2|0,0:0|0:0|0:0,0:0:0:0:
508,252,23717,1,2,0:0:0:0:
384,324,24217,6,0,B|340:356|312:296|260:324,2,130,0|2|0,0:0|0:0|0:0,0:0:0:0:
440,192,25717,1,2,0:0:0:0:
384,60,26217,2,0,B|340:28|312:88|260:60,2,130,0|2|0,0:0|0:0|0:0,0:0:0:0:
440,192,27717,1,2,0:0:0:0:
384,324,28217,6,0,B|434:368|463:332|504:364,2,130,0|2|0,0:0|0:0|0:0,0:0:0:0:
328,192,29717,1,2,0:0:0:0:
384,60,30217,2,0,B|434:16|463:52|504:20,2,130,0|2|0,0:0|0:0|0:0,0:0:0:0:
140,212,32217,6,0,P|200:236|216:296,2,130,4|8|0,0:0|0:0|0:0,0:0:0:0:
20,136,33717,2,0,P|64:88|124:68,1,130,8|0,0:0|0:0,0:0:0:0:
264,88,34717,2,0,B|288:164|344:192|344:192|288:220|264:284,1,260,8|8,0:0|0:0,0:0:0:0:
128,328,36217,6,0,P|12:192|128:52,1,390,2|8,0:0|0:0,0:0:0:0:
232,148,38217,2,0,P|284:192|344:188,2,130,0|8|0,0:0|0:0|0:0,0:0:0:0:
276,12,39717,2,0,P|312:20|332:40,1,65,8|0,0:0|1:0,0:0:0:0:
368,100,40217,6,0,P|436:96|464:44,2,130,2|8|0,0:0|0:0|0:0,0:0:0:0:
224,104,41717,2,0,P|172:144|168:204,2,130,8|0|8,0:0|0:0|0:0,0:0:0:0:
348,172,43217,1,0,0:0:0:0:
416,200,43467,6,0,P|448:188|468:164,2,65,0|8|0,0:0|0:0|0:0,0:0:0:0:
356,244,44217,2,0,B|296:336|192:256|128:344,2,260,2|2|2,0:0|0:0|0:0,0:0:0:0:
28,32,47717,6,0,P|60:24|92:32,1,65,0|0,1:0|1:0,0:0:0:0:
124,96,48217,2,0,P|188:112|248:96,1,130,4|8,1:0|0:0,0:0:0:0:
312,60,48967,1,0,0:0:0:0:
380,32,49217,2,0,P|452:28|492:64,2,130,0|8|0,0:0|0:0|0:0,0:0:0:0:
312,60,50467,5,0,0:0:0:0:
344,124,50717,2,0,P|360:152|360:184,1,65,8|0,0:0|0:0,0:0:0:0:
320,244,51217,2,0,P|324:280|340:304,2,65,0|0|8,0:0|0:0|0:0,0:0:0:0:
392,252,51967,1,0,0:0:0:0:
460,228,52217,6,0,P|496:272|488:344,2,130,0|8|0,0:0|0:0|0:0,0:0:0:0:
320,196,53717,2,0,P|256:192|220:140,1,130,8|0,0:0|0:0,0:0:0:0:
192,72,54467,1,0,0:0:0:0:
120,52,54717,2,0,P|88:48|56:60,1,65,8|0,0:0|0:0,0:0:0:0:
16,120,55217,2,0,P|28:152|28:184,1,65
36,256,55717,2,0,P|64:272|96:276,1,65,8|0,0:0|0:0,0:0:0:0:
168,288,56217,6,0,P|236:312|256:364,2,130,4|8|0,0:0|0:0|0:0,0:0:0:0:
96,276,57467,1,0,0:0:0:0:
96,204,57717,2,0,P|104:140|156:104,1,130,8|0,0:0|0:0,0:0:0:0:
220,76,58467,6,0,P|236:40|240:12,2,65,0|8|0,0:0|0:0|0:0,0:0:0:0:
212,148,59217,2,0,P|232:172|264:188,2,65,0|0|8,0:0|0:0|0:0,0:0:0:0:
152,108,59967,1,0,0:0:0:0:
120,172,60217,6,0,P|88:228|28:248,2,130,0|8|0,0:0|0:0|0:0,0:0:0:0:
152,108,61467,1,0,0:0:0:0:
140,36,61717,1,8,0:0:0:0:
212,40,61967,2,0,P|284:104|284:200,2,195,0|8|0,0:0|0:0|0:0,0:0:0:0:
156,84,63717,2,0,P|112:120|40:116,1,130,0|2,1:0|0:0,0:0:0:0:
24,260,64717,5,0,0:0:0:0:
144,340,65217,2,0,B|188:308|156:260|200:228,1,130,2|0,0:0|0:0,0:0:0:0:
336,180,66217,1,2,0:0:0:0:
404,56,66717,2,0,B|396:112|440:128|432:180,2,130,0|2|0,0:0|0:0|0:0,0:0:0:0:
508,156,68217,6,0,P|496:224|448:256,2,130,2|0|2,0:0|0:0|0:0,0:0:0:0:
456,20,69717,1,0,0:0:0:0:
372,136,70217,2,0,B|352:138|330:114|331:92|331:69|310:46|290:48,1,130,2|0,0:0|0:0,0:0:0:0:
180,140,71217,2,0,B|160:142|138:118|139:96|139:73|118:50|98:52,1,130,2|0,0:0|0:0,0:0:0:0:
44,184,72217,5,2,0:0:0:0:
44,184,72717,1,0,0:0:0:0:
112,308,73217,1,2,0:0:0:0:
112,308,73717,1,0,0:0:0:0:
200,196,74217,2,0,P|256:168|312:196,2,130,2|0|2,0:0|0:0|0:0,0:0:0:0:
372,324,75967,1,0,0:0:0:0:
444,344,76217,6,0,P|485:285|476:232,1,130,2|0,0:0|0:0,0:0:0:0:
436,172,76967,1,0,0:0:0:0:
368,188,77217,2,0,P|340:208|308:212,1,65,2|0,0:0|0:0,0:0:0:0:
252,168,77717,2,0,P|216:168|188:180,1,65
164,248,78217,2,0,P|132:260|100:260,2,65,2|0|0,0:0|0:0|0:0,0:0:0:0:
236,240,78967,1,0,0:0:0:0:
252,168,79217,1,2,0:0:0:0:
8,20,80217,6,0,P|60:56|124:56,1,130,4|8,1:0|0:0,0:0:0:0:
192,80,80967,2,0,P|176:148|132:188,1,130
68,220,81717,1,8,0:0:0:0:
92,288,81967,2,0,B|132:264|180:308|220:288,1,130
256,228,82717,2,0,L|256:164,2,65,8|0|0,0:0|0:0|0:0,0:0:0:0:
292,292,83467,6,0,P|316:272|328:240,2,65,0|8|0,0:0|0:0|0:0,0:0:0:0:
240,340,84217,2,0,B|192:316|168:364|112:340,2,130,0|8|0,0:0|0:0|0:0,0:0:0:0:
384,344,85717,1,8,0:0:0:0:
448,308,85967,2,0,B|488:244|408:192|448:120,2,195,0|8|0,0:0|0:0|0:0,0:0:0:0:
388,268,87717,2,0,P|356:264|324:252,1,65,0|0,1:0|1:0,0:0:0:0:
268,212,88217,6,0,P|240:152|264:96,2,130,4|8|0,1:0|0:0|0:0,0:0:0:0:
276,284,89467,2,0,P|240:280|216:264,1,65,0|8,0:0|0:0,0:0:0:0:
160,220,89967,2,0,P|96:216|52:260,1,130
16,324,90717,2,0,P|80:328|124:284,1,130,8|0,0:0|0:0,0:0:0:0:
160,220,91467,2,0,P|192:224|224:236,2,65,0|8|0,0:0|0:0|0:0,0:0:0:0:
96,188,92217,6,0,P|72:120|100:72,1,130,2|8,0:0|0:0,0:0:0:0:
224,144,93217,2,0,P|285:164|347:150,1,130,2|8,0:0|0:0,0:0:0:0:
292,20,94217,1,4,0:0:0:0:
40,344,95717,2,0,P|72:340|96:320,1,65,0|0,1:0|1:0,0:0:0:0:
144,264,96217,6,0,P|192:220|256:220,2,130,4|8|0,1:0|0:0|0:0,0:0:0:0:
168,332,97467,1,0,0:0:0:0:
240,340,97717,2,0,B|292:360|320:316|368:340,1,130,8|0,0:0|0:0,0:0:0:0:
436,364,98467,5,0,0:0:0:0:
480,308,98717,2,0,P|488:276|480:244,1,65,8|0,0:0|0:0,0:0:0:0:
432,192,99217,2,0,P|424:160|428:128,2,65,0|0|8,0:0|0:0|0:0,0:0:0:0:
496,156,99967,5,0,0:0:0:0:
487,83,100217,2,0,P|431:54|372:75,2,130,0|8|0,0:0|0:0|0:0,0:0:0:0:
428,128,101467,1,0,0:0:0:0:
368,168,101717,2,0,B|312:192|292:144|240:168,1,130,8|0,0:0|0:0,0:0:0:0:
176,196,102467,5,0,0:0:0:0:
104,188,102717,2,0,P|72:172|56:148,1,65,8|0,0:0|0:0,0:0:0:0:
36,80,103217,2,0,P|72:76|100:92,1,65
156,128,103717,2,0,P|192:120|216:104,1,65,8|0,0:0|1:0,0:0:0:0:
276,68,104217,6,0,P|336:100|356:156,1,130,4|8,1:0|0:0,0:0:0:0:
328,220,104967,1,0,0:0:0:0:
308,288,105217,2,0,P|320:320|344:340,1,65
380,276,105717,2,0,P|428:244|428:176,1,130,8|0,0:0|0:0,0:0:0:0:
376,128,106467,5,0,0:0:0:0:
308,108,106717,2,0,P|244:120|192:88,2,130,8|0|8,0:0|0:0|0:0,0:0:0:0:
356,52,107967,1,0,0:0:0:0:
428,52,108217,6,0,P|460:56|488:76,1,65
452,140,108717,2,0,P|480:160|512:160,2,65,8|0|0,0:0|0:0|0:0,0:0:0:0:
384,116,109467,2,0,P|384:160|392:180,1,65,0|8,0:0|0:0,0:0:0:0:
408,248,109967,2,0,B|344:280|296:208|216:248,1,195,0|8,0:0|0:0,0:0:0:0:
156,280,110967,5,0,0:0:0:0:
88,308,111217,2,0,P|36:280|20:212,2,130,0|8|4,0:0|0:0|0:0,0:0:0:0:
148,160,128217,6,0,B|184:84|352:112|372:48,2,260,4|4|4,3:0|3:0|3:0,0:0:0:0:
128,300,130717,1,4,3:0:0:0:
256,368,131217,1,4,3:0:0:0:
384,300,131717,1,4,3:0:0:0:
364,160,132217,6,0,B|328:84|160:112|140:48,2,260,4|4|4,3:0|3:0|3:0,0:0:0:0:
256,256,134717,2,0,B|232:296|288:340|256:380,2,130,4|4|4,3:0|3:0|3:0,0:0:0:0:
336,136,136217,6,0,P|256:52|176:136,2,260,4|4|4,3:0|3:0|3:0,0:0:0:0:
376,272,138717,2,0,P|432:236|460:180,2,130,4|4|4,3:0|3:0|3:0,0:0:0:0:
256,192,140217,12,4,142217,0:0:0:0:
376,136,144217,6,0,P|367:198|312:228,1,130,4|8,0:0|0:0,0:0:0:0:
240,220,144967,1,0,0:0:0:0:
176,188,145217,2,0,P|120:220|112:280,2,130,0|8|0,0:0|0:0|0:0,0:0:0:0:
180,260,146467,2,0,P|192:288|220:308,1,65,0|8,0:0|0:0,0:0:0:0:
292,308,146967,2,0,P|320:288|332:260,1,65
372,200,147467,6,0,P|400:192|436:192,2,65,0|8|0,0:0|0:0|0:0,0:0:0:0:
300,196,148217,2,0,P|248:160|236:96,2,130,0|8|0,0:0|0:0|0:0,0:0:0:0:
424,268,149717,1,8,0:0:0:0:
376,320,149967,2,0,B|312:356|264:280|188:320,2,195,0|8|0,0:0|0:0|0:0,0:0:0:0:
356,252,151717,2,0,P|328:232|296:224,1,65,0|0,1:0|1:0,0:0:0:0:
232,196,152217,6,0,P|184:156|180:92,2,130,4|8|0,0:0|0:0|0:0,0:0:0:0:
304,208,153467,1,0,0:0:0:0:
376,216,153717,2,0,P|440:236|464:292,2,130,8|0|8,0:0|0:0|0:0,0:0:0:0:
304,208,154967,2,0,P|316:176|340:152,1,65
396,116,155467,6,0,P|372:92|340:84,2,65,0|8|0,0:0|0:0|0:0,0:0:0:0:
416,184,156217,2,0,B|416:224|352:248|352:296,1,130,0|8,0:0|0:0,0:0:0:0:
208,292,157217,2,0,B|208:246|144:222|144:182,2,130,0|8|4,0:0|0:0|0:0,0:0:0:0:
476,36,159717,2,0,P|456:60|424:76,1,65,0|0,1:0|1:0,0:0:0:0:
356,80,160217,6,0,P|332:140|364:192,1,130,4|8,0:0|0:0,0:0:0:0:
420,236,160967,1,0,0:0:0:0:
400,304,161217,2,0,P|364:352|296:360,1,130,0|8,0:0|0:0,0:0:0:0:
256,300,161967,1,0,0:0:0:0:
284,232,162217,6,0,P|216:236|184:284,1,130,0|8,0:0|0:0,0:0:0:0:
184,356,162967,1,0,0:0:0:0:
119,320,163217,2,0,P|58:306|31:249,1,130,0|8,0:0|0:0,0:0:0:0:
104,248,163967,5,0,0:0:0:0:
148,192,164217,2,0,B|142:136|189:131|175:68,1,130,0|8,0:0|0:0,0:0:0:0:
104,68,164967,1,0,0:0:0:0:
32,68,165217,2,0,B|17:130|65:135|59:191,2,130,0|8|0,0:0|0:0|0:0,0:0:0:0:
104,68,166467,5,0,0:0:0:0:
176,56,166717,2,0,P|204:72|236:76,1,65,8|0,0:0|0:0,0:0:0:0:
308,68,167217,2,0,P|344:72|368:88,1,65
392,156,167717,2,0,P|400:188|420:212,1,65,0|0,1:0|1:0,0:0:0:0:
464,268,168217,6,0,P|444:320|376:336,1,130,4|8,0:0|0:0,0:0:0:0:
312,304,168967,1,0,0:0:0:0:
248,268,169217,2,0,P|216:268|188:284,1,65
172,352,169717,2,0,P|124:316|128:248,2,130,8|0|8,0:0|0:0|0:0,0:0:0:0:
240,336,170967,1,0,0:0:0:0:
292,288,171217,2,0,P|344:260|404:288,1,130,0|8,0:0|0:0,0:0:0:0:
460,336,171967,5,0,0:0:0:0:
472,264,172217,2,0,P|480:228|476:200,1,65
416,164,172717,2,0,P|400:136|400:104,1,65,8|0,0:0|0:0,0:0:0:0:
364,44,173217,2,0,P|328:32|300:32,1,65
232,40,173717,1,8,0:0:0:0:
188,96,173967,6,0,P|152:168|60:136,2,195,0|8|0,0:0|0:0|0:0,0:0:0:0:
168,28,175717,2,0,P|136:16|104:20,1,65,0|0,1:0|1:0,0:0:0:0:
48,60,176217,6,0,P|-4:96|-12:160,1,130,4|8,1:0|0:0,0:0:0:0:
24,220,176967,1,0,0:0:0:0:
92,248,177217,2,0,P|152:272|176:332,2,130,0|8|0,0:0|0:0|0:0,0:0:0:0:
24,220,178467,5,0,0:0:0:0:
80,176,178717,2,0,P|100:152|112:120,1,65,8|0,0:0|0:0,0:0:0:0:
136,52,179217,1,0,0:0:0:0:
204,28,179467,6,0,P|236:20|268:28,2,65,0|8|0,0:0|0:0|0:0,0:0:0:0:
236,92,180217,2,0,P|296:128|340:100,2,130,2|8|2,0:0|0:0|0:0,0:0:0:0:
96,112,181717,1,8,0:0:0:0:
72,180,181967,2,0,P|108:252|212:296,2,195,0|8|0,0:0|0:0|0:0,0:0:0:0:
28,124,183717,2,0,P|4:152|0:184,1,65,0|0,1:0|1:0,0:0:0:0:
20,248,184217,6,0,P|56:304|108:340,1,130,4|8,0:0|0:0,0:0:0:0:
180,344,184967,2,0,P|212:336|244:344,1,65
316,344,185467,2,0,P|348:328|364:304,1,65,0|8,0:0|0:0,0:0:0:0:
404,244,185967,2,0,P|404:152|320:116,1,195,0|8,0:0|0:0,0:0:0:0:
248,120,186967,2,0,P|252:88|272:60,1,65
332,28,187467,6,0,P|368:24|392:8,2,65,0|8|0,0:0|0:0|0:0,0:0:0:0:
270,62,188217,2,0,P|204:44|144:56,1,130,0|8,0:0|0:0,0:0:0:0:
64,176,189217,2,0,P|130:194|190:182,1,130,0|8,0:0|0:0,0:0:0:0:
252,144,189967,2,0,P|320:136|380:152,1,130
432,200,190717,2,0,P|456:224|484:236,2,65,8|0|0,0:0|0:0|0:0,0:0:0:0:
464,132,191467,6,0,P|492:116|512:88,2,65,0|8|0,0:0|0:0|1:0,0:0:0:0:
392,136,192217,2,0,P|332:116|268:136,2,130,4|8|0,0:0|0:0|0:0,0:0:0:0:
472,256,193717,1,8,0:0:0:0:
360,348,194217,6,0,B|312:328|344:268|296:240,1,130,0|8,0:0|0:0,0:0:0:0:
256,180,194967,1,0,0:0:0:0:
214,240,195217,2,0,B|168:268|200:328|152:348,1,130,0|8,0:0|0:0,0:0:0:0:
80,348,195967,1,0,0:0:0:0:
112,284,196217,6,0,P|132:220|176:176,1,130,0|8,0:0|0:0,0:0:0:0:
256,56,197217,1,0,0:0:0:0:
332,180,197717,2,0,P|376:136|396:72,2,130,8|0|8,0:0|0:0|0:0,0:0:0:0:
264,200,198967,2,0,P|232:192|200:200,1,65
136,228,199467,6,0,P|116:252|84:268,2,65,0|0|0,0:0|1:0|1:0,0:0:0:0:
96,168,200217,2,0,P|48:132|44:64,2,130,0|8|0,0:0|0:0|0:0,0:0:0:0:
236,192,201717,1,8,0:0:0:0:
351,276,202217,2,0,P|307:322|245:336,1,130,0|8,0:0|0:0,0:0:0:0:
160,219,203217,2,0,P|132:236|109:259,1,65
52,304,203717,2,0,P|35:339|38:368,1,65,8|0,0:0|0:0,0:0:0:0:
108,348,204217,6,0,B|160:336|168:288|216:280,1,130,0|8,0:0|0:0,0:0:0:0:
256,216,204967,1,0,0:0:0:0:
296,276,205217,2,0,B|344:284|352:332|404:344,2,130,0|8|0,0:0|0:0|0:0,0:0:0:0:
256,140,206717,1,8,0:0:0:0:
328,132,206967,1,0,0:0:0:0:
400,152,207217,6,0,P|412:184|436:204,1,65
472,139,207717,2,0,P|483:109|481:77,2,65,0|0|2,1:0|1:0|0:0,0:0:0:0:
